#TITLE:Brazilian Fire;
#SUBTITLE:;
#ARTIST:Ben Franklin;
#TITLETRANSLIT:;
#SUBTITLETRANSLIT:;
#ARTISTTRANSLIT:;
#GENRE:;
#CREDIT:Chewi☆;
#MENUCOLOR:;
#METERTYPE:DDR X;
#BANNER:Brazilian Fire.png;
#BACKGROUND:Brazilian Fire-bg.png;
#LYRICSPATH:;
#CDTITLE:;
#MUSIC:Brazilian Fire.mp3;
#OFFSET:-0.525;
#SAMPLESTART:73.858;
#SAMPLELENGTH:15.000;
#SELECTABLE:YES;
#LISTSORT:;
#DISPLAYBPM:130.000;
#BPMS:0.000=130.000;
#STOPS:;
#BGCHANGES:;
#ATTACKS:;

//---------------dance-single - Chewi----------------
#NOTES:
     dance-single:
     Chewi:
     Hard:
     10:
     0.386,0.423,0.144,0.354,0.000: // measure 1
0000
0000
0000
0000
,  // measure 2
0000
0000
0000
0000
,  // measure 3
0000
0000
0000
0000
,  // measure 4
0000
0000
0000
0000
,  // measure 5
1000
0010
0100
0000
2000
0000
3200
0000
,  // measure 6
0300
0001
0101
0000
,  // measure 7
0001
0100
0010
0000
0002
0000
0023
0000
,  // measure 8
0030
0100
1010
0000
,  // measure 9
1002
1000
1000
1003
,  // measure 10
1000
0010
1000
0000
0001
0100
0001
0000
,  // measure 11
2001
0001
0001
3001
,  // measure 12
0001
0010
0001
0000
1000
0100
1000
0000
,  // measure 13
0210
0010
0010
0310
,  // measure 14
0010
1000
0010
0000
0100
0001
0100
0000
,  // measure 15
1200
1000
0001
1300
,  // measure 16
1000
0010
0100
0001
,  // measure 17
0202
0000
0000
0300
,  // measure 18
2000
0000
0000
0003
,  // measure 19
0020
0000
0000
3000
,  // measure 20
0200
0000
0000
0330
,  // measure 21
0010
1000
0010
0000
0020
0000
0031
0000
,  // measure 22
0001
0100
0001
0000
0200
0000
1300
0000
,  // measure 23
1000
0100
1000
0000
0200
0000
0310
0000
,  // measure 24
0010
0100
0010
0000
0001
1000
0010
0000
,  // measure 25
2000
0010
0010
3010
,  // measure 26
0010
0100
0001
0000
0001
0000
0011
0000
,  // measure 27
0200
0001
0001
0301
,  // measure 28
0001
0010
0100
0000
0100
0010
0001
0000
,  // measure 29
2000
0001
0100
3010
,  // measure 30
1000
0010
0100
0000
1000
0000
0101
0000
,  // measure 31
0002
0010
0100
0013
,  // measure 32
0001
0010
0100
0000
1000
0100
0010
0000
,  // measure 33
0001
1000
0001
1000
0001
1000
0001
0000
,  // measure 34
2000
3020
0032
0203
,  // measure 35
0310
0100
0010
0100
0010
0100
0010
0000
,  // measure 36
0010
1001
0100
1001
,  // measure 37
1000
0100
1000
0100
1000
0100
1000
0000
,  // measure 38
2000
3200
0320
0032
,  // measure 39
0103
0001
0100
0001
0100
0001
0100
0000
,  // measure 40
0100
0110
0010
1001
,  // measure 41
2000
0100
0010
3100
,  // measure 42
0010
0100
0010
0000
0100
0010
0100
0000
,  // measure 43
0200
0001
0010
0301
,  // measure 44
0010
0100
0010
0000
0100
0010
0100
0000
,  // measure 45
2000
0100
0010
3001
,  // measure 46
0001
1000
0001
0000
1000
0001
1000
0000
,  // measure 47
0002
0100
0010
0103
,  // measure 48
0100
0010
0100
0000
0010
1000
0001
0000
;

//---------------dance-single - Chewi----------------
#NOTES:
     dance-single:
     Chewi:
     Medium:
     6:
     0.234,0.290,0.033,0.265,0.000: // measure 1
0000
0000
0000
0000
,  // measure 2
0000
0000
0000
0000
,  // measure 3
0000
0000
0000
0000
,  // measure 4
0000
0000
0000
0000
,  // measure 5
1000
1000
1000
0000
,  // measure 6
0110
0100
0010
0000
,  // measure 7
0001
0001
0001
0000
,  // measure 8
0110
0100
0010
0000
,  // measure 9
0002
0000
0100
0000
,  // measure 10
1000
0000
0013
0000
,  // measure 11
2000
0000
0100
0000
,  // measure 12
0010
0000
3001
0000
,  // measure 13
0200
0000
0001
0000
,  // measure 14
0010
0000
0301
0000
,  // measure 15
0020
0000
0100
0000
,  // measure 16
1000
0000
0130
0000
,  // measure 17
2000
0000
0000
0000
,  // measure 18
3200
0000
0000
0000
,  // measure 19
0320
0000
0000
0000
,  // measure 20
0032
0000
0000
0000
,  // measure 21
1003
1000
2000
3000
,  // measure 22
0100
0100
0200
0300
,  // measure 23
0001
0001
0002
0003
,  // measure 24
0010
0010
0020
0030
,  // measure 25
1000
0010
0001
0010
,  // measure 26
1000
0000
0100
0000
0001
1000
0001
0000
,  // measure 27
1000
0100
0001
0100
,  // measure 28
1000
0000
0010
0000
0001
1000
0001
0000
,  // measure 29
1000
0010
0100
0001
,  // measure 30
1000
0000
0100
0000
0010
0100
0010
0000
,  // measure 31
0001
0100
1000
0010
,  // measure 32
0001
0000
0010
0000
0100
0010
0100
0000
,  // measure 33
2100
0000
0100
0000
,  // measure 34
3002
0000
1000
0000
,  // measure 35
0203
0000
0010
0000
,  // measure 36
0320
0000
0100
0000
,  // measure 37
0130
0001
0020
0030
,  // measure 38
0100
0100
2000
3000
,  // measure 39
0100
1000
0020
0030
,  // measure 40
0200
0000
0010
0000
,  // measure 41
0310
0010
0010
0010
,  // measure 42
1000
0000
0001
0000
1000
0100
0001
0000
,  // measure 43
0100
0100
0100
0100
,  // measure 44
0001
0000
1000
0000
0001
0010
1000
0000
,  // measure 45
0002
0000
0000
0000
,  // measure 46
0023
0000
0000
0000
,  // measure 47
2030
0000
0000
0000
,  // measure 48
3200
0000
0000
0300
;

//---------------dance-single - Chewi----------------
#NOTES:
     dance-single:
     Chewi:
     Easy:
     3:
     0.166,0.238,0.011,0.133,0.000: // measure 1
0000
0000
0000
0000
,  // measure 2
0000
0000
0000
0000
,  // measure 3
0000
0000
0000
0000
,  // measure 4
0000
0000
0000
0000
,  // measure 5
1000
1000
1000
0000
,  // measure 6
0010
0100
0010
0000
,  // measure 7
0001
0001
0001
0000
,  // measure 8
0010
0100
0010
0000
,  // measure 9
0002
0000
0000
0000
,  // measure 10
0000
0000
0003
0000
,  // measure 11
2000
0000
0000
0000
,  // measure 12
0000
0000
3000
0000
,  // measure 13
0200
0000
0000
0000
,  // measure 14
0000
0000
0300
0000
,  // measure 15
0020
0000
0000
0000
,  // measure 16
0000
0000
0030
0000
,  // measure 17
1000
1000
1000
0000
,  // measure 18
1000
0100
1000
0000
,  // measure 19
0010
0010
0010
0000
,  // measure 20
0001
0010
0001
0000
,  // measure 21
1000
0000
1000
0000
,  // measure 22
0100
0000
0100
0000
,  // measure 23
0001
0000
0001
0000
,  // measure 24
0010
0000
0010
0000
,  // measure 25
1000
0010
0001
0000
,  // measure 26
1000
0100
0001
0000
,  // measure 27
1000
0100
0001
0000
,  // measure 28
1000
0010
0001
0000
,  // measure 29
1000
0010
0100
0000
,  // measure 30
1000
0100
0010
0000
,  // measure 31
0001
0100
1000
0000
,  // measure 32
0001
0010
0100
0000
,  // measure 33
2000
0000
0000
0000
,  // measure 34
3002
0000
0000
0000
,  // measure 35
0203
0000
0000
0000
,  // measure 36
0320
0000
0000
0000
,  // measure 37
0130
0000
0010
0000
,  // measure 38
0100
0000
1000
0000
,  // measure 39
0100
0000
0010
0000
,  // measure 40
0100
0000
0110
0000
,  // measure 41
0010
0010
0010
0010
,  // measure 42
1000
0001
1000
0001
,  // measure 43
0100
0100
0100
0100
,  // measure 44
0001
1000
0001
1000
,  // measure 45
0002
0000
0000
0003
,  // measure 46
2000
0000
0000
3000
,  // measure 47
0002
0000
0000
0003
,  // measure 48
2000
0000
0000
3000
;

//---------------dance-single - Chewi----------------
#NOTES:
     dance-single:
     Chewi:
     Beginner:
     1:
     0.106,0.158,0.011,0.088,0.000: // measure 1
0000
0000
0000
0000
,  // measure 2
0000
0000
0000
0000
,  // measure 3
0000
0000
0000
0000
,  // measure 4
0000
0000
0000
0000
,  // measure 5
1000
0000
0000
0000
,  // measure 6
0010
0000
0000
0000
,  // measure 7
0001
0000
0000
0000
,  // measure 8
0010
0000
0000
0000
,  // measure 9
0002
0000
0000
0000
,  // measure 10
0000
0000
0003
0000
,  // measure 11
2000
0000
0000
0000
,  // measure 12
0000
0000
3000
0000
,  // measure 13
0200
0000
0000
0000
,  // measure 14
0000
0000
0300
0000
,  // measure 15
0020
0000
0000
0000
,  // measure 16
0000
0000
0030
0000
,  // measure 17
1000
0000
0000
0000
,  // measure 18
1000
0000
0000
0000
,  // measure 19
0010
0000
0000
0000
,  // measure 20
0001
0000
0000
0000
,  // measure 21
1000
0000
1000
0000
,  // measure 22
0100
0000
0100
0000
,  // measure 23
0001
0000
0001
0000
,  // measure 24
0010
0000
0010
0000
,  // measure 25
1000
0000
0001
0000
,  // measure 26
1000
0000
0001
0000
,  // measure 27
1000
0000
0001
0000
,  // measure 28
1000
0000
0001
0000
,  // measure 29
1000
0000
0100
0000
,  // measure 30
1000
0000
0010
0000
,  // measure 31
0001
0000
1000
0000
,  // measure 32
0001
0000
0100
0000
,  // measure 33
2000
0000
0000
0000
,  // measure 34
3000
0000
0000
0000
,  // measure 35
0002
0000
0000
0000
,  // measure 36
0003
0000
0000
0000
,  // measure 37
0100
0000
0010
0000
,  // measure 38
0100
0000
1000
0000
,  // measure 39
0100
0000
0010
0000
,  // measure 40
0100
0000
0110
0000
,  // measure 41
0010
0000
0010
0000
,  // measure 42
1000
0000
1000
0000
,  // measure 43
0100
0000
0100
0000
,  // measure 44
0001
0000
0001
0000
,  // measure 45
0002
0000
0000
0000
,  // measure 46
0000
0000
0003
0001
,  // measure 47
2000
0000
0000
0000
,  // measure 48
0000
0000
3000
1000
;
