#TITLE:boundcloud;
#SUBTITLE:;
#ARTIST:DJ SIMON;
#TITLETRANSLIT:;
#SUBTITLETRANSLIT:;
#ARTISTTRANSLIT:;
#CREDIT:xRGTMx;
#BANNER:boundcloud.png;
#BACKGROUND:boundcloud-bg.png;
#LYRICSPATH:;
#CDTITLE:;
#MUSIC:boundcloud.mp3;
#OFFSET:-0.040;
#SAMPLESTART:7.380;
#SAMPLELENGTH:12.000;
#SELECTABLE:YES;
#BPMS:0.000=130.000;
#STOPS:;
#BGCHANGES:;

//---------------dance-single - xRGTMx----------------
#NOTES:
     dance-single:
     xRGTMx:
     Hard:
     7:
     0.407,0.398,0.197,0.334,0.111:
0000
0000
0000
0000
,
0000
0000
0000
0000
,
0000
0000
0000
0000
,
0000
0000
0000
0000
,
1000
1000
0001
0001
,
0100
0000
0010
1000
0100
0001
0100
1000
,
0001
0001
1000
1000
,
0100
0000
0010
0001
0100
1000
0100
0001
,
1000
1000
0001
0001
,
0010
0000
0100
1000
0010
0001
0010
1000
,
0001
0001
1000
1000
,
0010
0000
0100
0001
0010
1000
0010
0001
,
1000
0000
1000
0000
0001
0000
0001
1000
,
0020
0000
0000
0000
0100
0000
0000
0000
1030
0000
0000
0010
0000
0000
0100
0000
,
0001
0001
1000
1000
,
0200
2300
3002
2003
,
3010
0000
0010
0000
0100
0000
0100
0001
,
0020
0000
0100
0030
0000
0000
0000
0000
0110
0000
0000
0000
1001
0000
0000
0000
,
0001
0000
1000
0000
0010
0000
0100
0001
,
1000
0000
0000
0000
0100
0000
0000
0100
0010
0000
0001
0000
0100
0000
0010
0000
,
1000
0000
0000
0000
1001
0000
0000
0000
0001
0000
0000
0010
0000
0000
0100
0000
,
1000
1010
0011
0101
,
0200
0000
0320
0000
,
1030
0000
1100
0000
0011
0000
1000
0010
,
0100
0000
0000
0000
0101
0000
0000
0000
0001
0000
0000
1000
0000
0000
0001
0000
,
0200
0320
2030
3200
,
0320
0000
0000
0000
0230
0000
0000
0310
,
0001
1000
0010
0100
0001
1000
0100
0010
,
0100
0000
1100
0000
1000
0000
0001
1000
,
0002
0000
0000
0000
1003
0000
0000
0000
0001
0000
0000
0010
0000
0000
0100
0000
,
2000
0000
0001
3000
0000
0000
0000
0000
1000
0000
0000
1000
0000
0000
0001
0000
,
0100
0010
1100
0101
,
2000
0000
0100
0000
0010
0000
3001
0001
,
0200
0000
0010
0300
0000
0000
0000
0000
0110
0000
0000
0000
0101
0000
0000
0000
,
0002
0000
0000
0000
0000
0000
0000
0000
0000
0000
0013
0000
0000
0200
0000
0000
,
2000
0000
0000
0000
0000
0000
0300
3000
0100
0000
0000
0000
0000
0000
0000
0000
,
0110
0000
0000
0010
0000
0000
0000
0000
0100
0000
0000
0000
1000
0000
0001
2000
,
0000
0000
0001
3001
,
0110
0000
0000
0010
0000
0000
0000
0000
0100
0000
0000
0000
0001
0000
1000
0002
,
0000
0000
1000
1003
,
0110
0000
0000
0010
0000
0000
0000
0000
0100
0000
0000
0000
1000
0000
0001
2000
,
0000
0000
0001
3001
,
0110
0000
0000
0010
0000
0000
0000
0000
0110
0000
0000
0100
0000
0000
0000
0000
,
1000
0000
0000
1000
0000
0000
1000
0000
0002
0000
1000
0000
0003
1000
0000
0000
,
0020
0100
0001
1000
,
0100
0001
1000
0001
,
2030
0010
0100
0001
,
0010
0100
0010
0001
,
3200
1000
0001
0010
,
0001
1000
0010
0001
,
0320
1000
0001
1000
,
0031
0000
0000
0000
0001
0000
0000
0001
0010
0000
0100
0000
1000
0000
0001
0000
,
2000
0010
3002
0010
,
1003
0000
0000
0000
1100
0000
0000
0000
0100
0000
0000
0010
0000
0000
0100
0000
,
2000
0000
0001
3000
0000
0000
0000
0000
0001
0000
0000
1000
0000
0000
0010
0000
,
0200
0302
0023
2030
,
3100
0000
0101
0000
0110
0000
0010
0100
,
0002
0000
1000
0003
0000
0000
0000
0000
1000
0000
0000
1000
0000
0000
0001
0000
,
1000
0000
0000
0000
0110
0000
0000
0000
0010
0000
0000
0001
0000
0000
0100
0000
,
0020
0000
2030
0000
,
3001
0010
0100
1000
0001
1000
0010
0000
,
0100
0000
0100
0010
0000
1000
0100
0000
0010
0001
0000
1000
;

//---------------dance-single - xRGTMx----------------
#NOTES:
     dance-single:
     xRGTMx:
     Medium:
     5:
     0.331,0.345,0.000,0.368,0.000:
0000
0000
0000
0000
,
0000
0000
0000
0000
,
0000
0000
0000
0000
,
0000
0000
0000
0000
,
1000
1000
0001
0001
,
0100
0000
0010
0100
0010
0000
0100
0000
,
0001
0001
1000
1000
,
0100
0000
0010
0100
0010
0000
0100
0000
,
1000
1000
0001
0001
,
0010
0000
0100
0010
0100
0000
0010
0000
,
0001
0001
1000
1000
,
0010
0000
0100
0010
0100
0000
0010
0000
,
2000
0100
3001
1000
,
0002
0100
1003
0001
,
2000
0010
3001
1000
,
0002
0000
0010
0000
1003
0001
1000
0000
,
0002
0100
1003
0001
,
2000
0100
3001
1000
,
0002
0010
1003
0001
,
2000
0000
0010
0000
3001
1000
0001
0000
,
0100
0100
0010
0010
,
1000
0000
0001
1000
0001
0000
1000
0000
,
0100
0100
0010
0010
,
0001
0000
1000
0001
1000
0000
0001
0000
,
0010
0010
0100
0100
,
1000
0000
0001
1000
0001
0000
1000
0000
,
0010
0010
0100
0100
,
0001
0000
1000
0001
1000
0000
0001
0000
,
0200
0010
1300
0100
,
0020
1000
0130
0010
,
0200
0001
1300
0100
,
0020
0000
1000
0000
0130
0010
0100
0000
,
0020
0001
0130
0010
,
0200
0001
0310
0100
,
0020
0032
0203
0320
,
1030
0000
0001
0000
,
2000
0000
0000
0001
,
3002
0000
0100
0000
,
0203
0000
0000
0010
,
0320
0000
1000
0000
,
2030
0000
0000
0100
,
3200
0000
0010
0000
,
0320
0000
0032
0000
,
2003
0000
3001
0001
,
1000
0100
0010
0100
,
2000
3002
2003
3002
,
1003
0010
0100
0010
,
2000
3002
2003
3002
,
0103
0010
1000
0100
,
0020
0230
0320
0230
,
0310
0001
0100
0010
,
0200
0320
2030
3002
,
1003
0100
0010
0100
,
1000
0001
0100
0010
,
0100
0001
0010
0100
,
1000
0000
0010
0100
0010
0000
0100
0010
,
0100
0001
1000
0100
,
0010
0100
1000
0001
,
1000
0010
0100
0001
,
0010
0100
1000
0001
,
1000
0001
0000
0001
,
0100
0001
1000
0100
,
0010
0000
0000
0000
;

//---------------dance-single - xRGTMx----------------
#NOTES:
     dance-single:
     xRGTMx:
     Easy:
     3:
     0.191,0.239,0.051,0.180,0.000:
0000
0000
0000
0000
,
0000
0000
0000
0000
,
0000
0000
0000
0000
,
0000
0000
0000
0000
,
1000
0000
1000
0000
,
0001
0100
0001
0100
,
0001
0000
0001
0000
,
1000
0100
1000
0100
,
1000
0000
1000
0000
,
0001
0010
0001
0010
,
0001
0000
0001
0000
,
1000
0010
1000
0010
,
2000
3000
1000
0000
,
0002
0003
0001
0000
,
0200
0300
0100
0000
,
0020
0030
0010
0000
,
2000
3000
0100
0000
,
0020
0030
0001
0000
,
0200
0300
0010
0000
,
2000
3000
0001
0000
,
1000
0100
1000
0000
,
0100
0010
0100
0000
,
0010
0001
0010
0000
,
0001
1000
0001
0000
,
0100
0001
0100
0000
,
0010
0100
0010
0000
,
1000
0010
1000
0000
,
0001
1000
0001
0000
,
2000
0000
3200
0000
,
1300
0000
1000
0000
,
0002
0000
0203
0000
,
0301
0000
0001
0000
,
2000
0000
3020
0000
,
1030
0000
1000
0000
,
0002
0000
0023
0000
,
0031
0000
0001
0000
,
1001
0000
0000
0000
,
0020
0000
0030
0000
,
1001
0000
0000
0000
,
0200
0000
0300
0000
,
1001
0000
0000
0000
,
0020
0000
0030
0000
,
1001
0000
0200
0300
,
1001
0000
0020
0030
,
1000
0000
0000
0000
,
0001
0000
0001
0000
,
0100
0000
0000
0000
,
0010
0000
0010
0000
,
1000
0000
0000
0000
,
0001
0000
0001
0000
,
0010
0000
0000
0000
,
0100
0000
0100
0000
,
1000
0000
1000
0000
,
0001
1000
0001
0000
,
1000
0000
1000
0000
,
0001
1000
0001
0000
,
0100
0000
0100
0000
,
0010
0100
0010
0000
,
0100
0000
0100
0000
,
0010
0100
0010
0000
,
1000
0000
1001
0000
,
0001
0010
0100
1000
,
0001
0000
0000
0000
;

//---------------dance-single - xRGTMx----------------
#NOTES:
     dance-single:
     xRGTMx:
     Beginner:
     1:
     0.113,0.159,0.043,0.068,0.000: // measure 1
0000
0000
0000
0000
,  // measure 2
0000
0000
0000
0000
,  // measure 3
0000
0000
0000
0000
,  // measure 4
0000
0000
0000
0000
,  // measure 5
1000
0000
0000
0000
,  // measure 6
0001
0000
0001
0000
,  // measure 7
0100
0000
0000
0000
,  // measure 8
0010
0000
0010
0000
,  // measure 9
1000
0000
0000
0000
,  // measure 10
0001
0000
0000
0000
,  // measure 11
0010
0000
0010
0000
,  // measure 12
0100
0000
0000
0000
,  // measure 13
1000
0000
0100
0000
,  // measure 14
0020
0030
0000
0000
,  // measure 15
0001
0000
0100
0000
,  // measure 16
0020
0030
0000
0000
,  // measure 17
1000
0000
0010
0000
,  // measure 18
0200
0300
0000
0000
,  // measure 19
0001
0000
0010
0000
,  // measure 20
0200
0300
0000
0000
,  // measure 21
1000
0000
0000
0000
,  // measure 22
0001
0000
0001
0000
,  // measure 23
0100
0000
0000
0000
,  // measure 24
0010
0000
0010
0000
,  // measure 25
1000
0000
0000
0000
,  // measure 26
0001
0000
0000
0000
,  // measure 27
0010
0000
0010
0000
,  // measure 28
0100
0000
0000
0000
,  // measure 29
1000
0000
0100
0000
,  // measure 30
0020
0030
0000
0000
,  // measure 31
0001
0000
0100
0000
,  // measure 32
0020
0030
0000
0000
,  // measure 33
1000
0000
0010
0000
,  // measure 34
0200
0300
0000
0000
,  // measure 35
0001
0000
0010
0000
,  // measure 36
0200
0300
0000
0000
,  // measure 37
1001
0000
0000
0000
,  // measure 38
0100
0000
0000
0000
,  // measure 39
1001
0000
0000
0000
,  // measure 40
0010
0000
0000
0000
,  // measure 41
1001
0000
0000
0000
,  // measure 42
0100
0000
0000
0000
,  // measure 43
1001
0000
0000
0000
,  // measure 44
0110
0000
0000
0000
,  // measure 45
0100
0000
0000
0000
,  // measure 46
0000
0000
0000
0000
,  // measure 47
0010
0000
0000
0000
,  // measure 48
0000
0000
0000
0000
,  // measure 49
0001
0000
0000
0000
,  // measure 50
0000
0000
0000
0000
,  // measure 51
1000
0000
0000
0000
,  // measure 52
0000
0000
0000
0000
,  // measure 53
0001
0000
0001
0000
,  // measure 54
0100
0000
0100
0000
,  // measure 55
0010
0000
0010
0000
,  // measure 56
1000
0000
1000
0000
,  // measure 57
0001
0000
0001
0000
,  // measure 58
0010
0000
0010
0000
,  // measure 59
0100
0000
0100
0000
,  // measure 60
1000
0000
1000
0000
,  // measure 61
0001
0000
0000
0000
,  // measure 62
1000
1000
1000
1000
;
