#TITLE:Bottoms Up;
#SUBTITLE:;
#ARTIST:Trey Songz feat. Nicki Minaj;
#TITLETRANSLIT:;
#SUBTITLETRANSLIT:;
#ARTISTTRANSLIT:;
#GENRE:;
#CREDIT:Chewi☆;
#MENUCOLOR:#FFFF00;
#METERTYPE:DDR X;
#BANNER:Bottoms Up.png;
#BACKGROUND:Bottoms Up-bg.png;
#LYRICSPATH:;
#CDTITLE:./CDTITLES/DanceDanceRevolution skyMIX2 -FREEDOM-.png;
#MUSIC:Bottoms Up.mp3;
#OFFSET:-3.339;
#SAMPLESTART:15.921;
#SAMPLELENGTH:15.000;
#SELECTABLE:YES;
#LISTSORT:;
#DISPLAYBPM:74.000;
#BPMS:0.000=74.000;
#STOPS:;
#BGCHANGES:0.000=Bottoms Up.avi=1.000=1=0=1,
99999=-nosongbg-=1.000=0=0=0 // don't automatically add -songbackground-
;
#ATTACKS:;

//---------------dance-single - Chewi----------------
#NOTES:
     dance-single:
     Chewi:
     Beginner:
     1:
     0.039,0.056,0.017,0.000,0.000: // measure 1
0000
0000
0000
0000
,  // measure 2
0000
0000
0000
0000
,  // measure 3
0000
0000
0000
0000
,  // measure 4
0000
0000
0000
0000
,  // measure 5
1000
0000
0000
0000
,  // measure 6
0010
0000
0000
0000
,  // measure 7
0100
0000
0000
0000
,  // measure 8
0001
0000
0000
0000
,  // measure 9
0001
0000
0000
0000
,  // measure 10
0010
0000
0000
0000
,  // measure 11
0100
0000
0000
0000
,  // measure 12
1000
0000
0000
0000
,  // measure 13
1000
0000
0000
0000
,  // measure 14
0001
0000
0000
0000
,  // measure 15
0110
0000
0000
0000
,  // measure 16
0100
0000
0000
0000
,  // measure 17
1000
0000
0000
0000
,  // measure 18
1000
0000
0000
0000
,  // measure 19
0010
0000
0000
0000
,  // measure 20
0010
0000
0000
0000
,  // measure 21
1000
0000
0000
0000
,  // measure 22
1000
0000
0000
0000
,  // measure 23
1000
0000
0000
0000
,  // measure 24
0010
0000
0000
0000
,  // measure 25
1001
0000
0000
0000
,  // measure 26
1000
0000
0000
0000
,  // measure 27
0010
0000
0000
0000
,  // measure 28
0100
0000
0000
0000
,  // measure 29
0100
0000
0000
0000
,  // measure 30
1000
0000
0000
0000
,  // measure 31
0010
0000
0000
0000
,  // measure 32
0001
0000
0000
0000
,  // measure 33
0100
0000
0000
0000
;

//---------------dance-single - Chewi----------------
#NOTES:
     dance-single:
     Chewi:
     Easy:
     2:
     0.077,0.097,0.009,0.017,0.000:
0000
0000
0000
0000
,
0000
0000
0000
0000
,
0000
0000
0000
0000
,
0000
0000
0000
0000
,
1000
0000
0100
0000
,
0010
0000
0001
0000
,
0100
0000
0010
0000
,
0001
0000
1000
0000
,
0001
0000
0100
0000
,
0010
0000
0001
0000
,
0100
0000
1000
0000
,
1000
0000
1000
0000
,
1000
0000
1000
0000
,
0001
0000
0001
0000
,
0110
0000
0010
0000
,
0100
0000
0100
0000
,
1000
0000
0100
0000
,
1000
0000
0010
0000
,
0010
0000
0001
0000
,
0010
0000
0100
0000
,
1000
0000
0010
0000
,
1000
0000
0001
0000
,
1000
0000
0100
0000
,
0010
0000
1000
0000
,
0002
0000
0000
0003
,
2000
0000
0000
3000
,
0010
0000
0010
0000
,
0100
0000
0100
0000
,
0100
1000
0000
1000
,
1000
0010
0000
0010
,
0010
0001
0000
0001
,
0001
0100
0000
0100
,
0100
0000
0000
0000
;

//---------------dance-single - Chewi----------------
#NOTES:
     dance-single:
     Chewi:
     Medium:
     5:
     0.178,0.181,0.113,0.017,0.000:
0000
0000
0000
0000
,
0000
0000
0000
0000
,
0000
0000
0000
0000
,
0000
0000
0000
0000
,
1000
0100
0010
0000
0001
0000
0101
0000
,
0001
0000
1010
0000
0010
0010
0010
0000
,
0100
0001
0010
1000
,
0100
0100
0100
0000
1000
0000
0001
0000
,
0010
0010
0010
0000
0001
0000
1000
0000
,
0010
0000
0101
0000
0100
0100
0100
0000
,
0010
0000
1000
0000
0001
0010
0100
0000
,
1000
0000
1100
0000
1000
1000
1000
0000
,
1000
1001
0001
1001
,
0110
0010
1000
0010
,
0100
0000
0001
0000
0001
0000
0100
0010
,
1000
0001
1000
0100
,
0010
0000
0001
1000
0010
0000
0100
0000
,
0001
0101
1000
0010
,
1000
0000
1100
0000
0010
0001
0010
0000
,
0100
1000
1000
0000
1000
0000
0001
0100
,
0100
0010
0000
0010
0000
0010
1000
0000
,
1000
0000
1001
0000
0001
1000
0001
0000
,
0010
0110
0010
0100
,
0010
0001
0100
1000
,
0010
1000
0100
0001
,
0020
0000
0000
0000
0000
1000
1000
1000
,
2000
0000
0000
0000
0000
0000
0000
3030
,
1000
0001
1000
0001
,
0010
0000
0100
0000
0010
0010
0010
0000
,
0010
0000
0011
0000
0001
0100
1000
0000
,
1000
0000
0010
0000
0001
0100
1000
0000
,
0010
0000
0011
0000
0001
0100
1000
0000
,
0010
0000
0000
0000
;

//---------------dance-single - Chewi----------------
#NOTES:
     dance-single:
     Chewi:
     Hard:
     8:
     0.264,0.306,0.174,0.052,0.000:
0000
0000
0000
0000
,
0000
0000
0000
0000
,
0000
0000
0000
0000
,
0000
0000
0000
0000
,
1000
0000
0101
0000
0001
0100
1000
0000
,
1000
0000
0001
0000
1000
0001
1000
0000
,
0001
0000
1100
0000
1000
0001
0100
0000
,
0010
0000
1000
0000
1000
0010
0001
0000
,
0100
0000
0001
0000
0001
0100
1000
0000
,
1000
0000
0010
0000
1000
0010
0100
0001
,
0101
0000
1100
0000
1000
0001
1000
0000
,
0010
0020
1000
2030
0001
3002
0000
0000
,
0013
0100
1000
1000
0100
0010
0001
0100
,
0020
0000
1000
0000
0001
0000
1000
1000
,
1030
0000
1000
0100
0001
0000
0010
0100
,
0001
0010
0100
1000
0010
0010
0100
0100
,
0010
1000
0001
0010
0100
1000
0001
1000
,
0100
1000
0001
1000
0010
0010
0100
0100
,
0010
1000
0100
0001
0010
0001
0100
0110
,
1010
0110
0100
0101
0001
0010
0100
1000
,
1010
0000
1001
0000
1000
0001
0100
0010
,
1000
1010
0001
0011
0010
0000
0100
0000
,
0100
0010
0001
0100
0010
0001
0100
0100
,
0010
1000
0100
0010
1000
0100
0010
0001
,
1000
0001
2000
0000
0000
0010
0100
0000
,
3020
0000
0100
0000
0000
0100
1000
1000
,
1030
0010
0100
0101
0001
0010
0100
1100
,
1000
0010
0100
0101
0100
0010
1000
0001
,
0011
1000
1010
0100
0001
0100
0001
0000
,
0001
0010
0100
1000
0010
0100
0001
1000
,
1100
0001
0101
0110
0010
1000
0001
0000
,
0100
0100
0010
0010
0001
1000
0001
1000
,
0010
0000
0000
0000
;

//---------------dance-single - Chewi----------------
#NOTES:
     dance-single:
     Chewi:
     Challenge:
     11:
     0.490,0.557,0.209,0.087,0.679:
0000
0000
0000
0000
,
0000
0000
0000
0000
,
0000
0000
0000
0000
,
0000
0000
0000
0000
,
1000
0000
0100
0010
0001
0000
0000
0000
0001
1000
0001
0000
1001
0000
0000
0000
,
0001
0100
0010
0000
1000
0000
0100
0000
0001
0010
1000
0000
0010
0000
1000
0100
,
0010
0000
0001
0010
0100
0000
1001
0000
0100
0010
0100
0000
0110
0000
0000
0000
,
0010
1000
0100
0000
1000
0000
0000
0000
0010
0001
0100
0000
0001
0000
0000
0000
,
0100
0010
1000
0001
0010
0000
0100
0000
0100
0010
0100
0000
0110
0000
0000
0000
,
0010
0001
0100
0000
0010
0000
0100
0000
0010
1000
0100
0000
0010
0000
0100
1000
,
0001
0000
0100
0001
1000
0000
0010
0000
0100
0010
0100
0000
0110
0000
0000
0000
,
0010
1000
0010
1000
0010
0001
0010
0001
0100
0001
0100
0001
0100
1000
0100
1000
,
0100
1000
0010
0100
0001
0100
0010
1000
0001
0010
0100
1000
0001
1000
0010
0100
,
0001
0100
0001
0100
0001
0010
0001
0010
0001
0010
0100
1000
0001
0100
1000
0010
,
0011
0000
0000
0001
0010
0100
1000
0000
1010
0000
0000
1000
0010
0100
0001
0100
,
0010
1000
0001
0010
0100
0010
0001
0010
0100
0100
0010
0010
0001
0001
1000
1000
,
0010
1000
0100
0010
0001
0100
0110
0000
0100
0001
0010
0100
1000
0010
0110
0000
,
1001
0110
1001
0000
1100
0011
1100
0000
1000
0100
0010
0001
0010
0100
1000
0000
,
0001
0100
0010
1000
0001
0100
0100
0000
0010
1000
0001
0010
0100
0010
0022
0033
,
2200
3300
0202
0303
0100
0010
2020
3030
1000
0010
0100
0001
0100
0010
1000
0001
,
0010
0100
0000
0010
0001
0100
0000
0010
1000
0100
0010
0100
1000
0010
0000
0100
,
0100
0010
0100
0010
0100
0100
0001
0100
0010
1000
0001
0010
0100
0100
0000
0100
,
0010
0001
0010
0100
1000
0010
0001
0100
1000
0010
1000
0100
0010
0010
0000
0000
,
0100
1000
0010
0100
0010
0001
0100
0010
0100
0001
0010
0100
0010
0001
1000
0010
,
1001
0010
0100
0010
0002
0000
0000
0000
0003
0000
1000
0100
0001
0010
0100
0010
,
0002
0000
0000
0000
0000
0000
0000
0000
0003
0000
0001
0001
1000
1000
0000
0000
,
0001
0010
0100
0010
0001
0100
0010
0100
0001
1000
0100
0010
0001
1000
0010
0100
,
0010
1000
0100
1000
0010
1000
0100
0010
0001
0100
0010
1000
0100
0010
0001
0010
,
1100
0000
1000
0010
0101
0000
0110
0000
1000
0100
0010
0100
1000
0010
0100
0001
,
0100
0010
0100
0001
1000
0100
0010
0001
0010
0100
1000
0001
0100
0010
0100
0001
,
0010
0000
0100
1000
0010
0000
0110
0000
1000
0010
0100
0001
0010
0100
1000
0001
,
1000
0001
1000
0001
0010
0100
0010
0100
0010
0001
0100
0010
1000
0100
0010
0001
,
0100
0000
0000
0000
;
