#TITLE:Born This Way;
#SUBTITLE:;
#ARTIST:Lady Gaga;
#TITLETRANSLIT:;
#SUBTITLETRANSLIT:;
#ARTISTTRANSLIT:;
#GENRE:;
#CREDIT:Chewi☆;
#MENUCOLOR:#FFFF00;
#METERTYPE:DDR X;
#BANNER:Born This Way.png;
#BACKGROUND:Born This Way-bg.png;
#LYRICSPATH:;
#CDTITLE:./CDTITLES/DanceDanceRevolution skyMIX2 -FREEDOM-.png;
#MUSIC:Born This Way.mp3;
#OFFSET:-0.264;
#SAMPLESTART:38.274;
#SAMPLELENGTH:15.000;
#SELECTABLE:YES;
#LISTSORT:;
#DISPLAYBPM:124.000;
#BPMS:0.000=124.000;
#STOPS:;
#BGCHANGES:0.000=Born This Way.avi=1.000=1=0=0,
99999=-nosongbg-=1.000=0=0=0 // don't automatically add -songbackground-
;
#ATTACKS:;

//---------------dance-single - Chewi----------------
#NOTES:
     dance-single:
     Chewi:
     Beginner:
     1:
     0.083,0.123,0.034,0.045,0.000: // measure 1
0000
0000
0000
0000
,  // measure 2
0000
0000
0000
0000
,  // measure 3
0000
0000
0000
0000
,  // measure 4
0000
0000
0000
0000
,  // measure 5
0010
0000
0000
0000
,  // measure 6
0100
0000
0000
0000
,  // measure 7
0100
0000
0000
0000
,  // measure 8
0001
0000
0000
0000
,  // measure 9
0001
0000
0000
0000
,  // measure 10
1000
0000
0000
0000
,  // measure 11
1000
0000
0000
0000
,  // measure 12
0001
0000
0000
0000
,  // measure 13
1000
0000
0000
0000
,  // measure 14
0001
0000
0000
0000
,  // measure 15
1000
0000
0000
0000
,  // measure 16
0001
0000
0000
0000
,  // measure 17
0100
0000
0000
0000
,  // measure 18
0100
0000
0000
0000
,  // measure 19
0010
0000
0000
0000
,  // measure 20
1001
0000
0000
0000
,  // measure 21
0100
0000
0000
0000
,  // measure 22
0100
0000
0000
0000
,  // measure 23
0010
0000
0000
0000
,  // measure 24
0100
0000
0000
0000
,  // measure 25
0001
0000
0000
0000
,  // measure 26
1000
0000
0000
0000
,  // measure 27
1000
0000
0000
0000
,  // measure 28
0001
0000
0000
0000
,  // measure 29
0002
0000
0000
0003
,  // measure 30
2000
0000
0000
3000
,  // measure 31
0010
0000
0100
0000
,  // measure 32
0010
0000
0000
0000
,  // measure 33
0002
0000
0000
0003
,  // measure 34
2000
0000
0000
3000
,  // measure 35
0010
0000
0100
0000
,  // measure 36
0010
0000
0000
0000
,  // measure 37
0110
0000
0000
0000
,  // measure 38
1000
0000
0000
0000
,  // measure 39
0001
0000
0000
0000
,  // measure 40
0010
0000
0000
0000
,  // measure 41
0110
0000
0000
0000
,  // measure 42
0010
0000
0000
0000
,  // measure 43
1000
0000
0000
0000
,  // measure 44
0001
0001
0001
0000
,  // measure 45
0001
0000
0000
0000
;

//---------------dance-single - Chewi----------------
#NOTES:
     dance-single:
     Chewi:
     Easy:
     2:
     0.187,0.270,0.056,0.112,0.000:
0000
0000
0000
0000
,
0000
0000
0000
0000
,
0000
0000
0000
0000
,
0000
0000
0000
0000
,
0100
0000
0100
0000
,
0010
0010
0010
0000
,
0010
0000
0010
0000
,
1000
1000
1000
0000
,
1000
0000
0001
0000
,
0001
1000
0001
0000
,
0001
0000
1000
0000
,
1000
0001
1000
0000
,
0001
0100
0001
0000
,
1000
0100
1000
0000
,
0001
1000
0001
0000
,
1000
0001
1000
0000
,
0010
1000
0100
0000
,
0010
0001
0100
0000
,
0100
0010
1000
0001
,
1001
0000
0000
0000
,
0010
0001
0100
0000
,
0010
1000
0100
0000
,
0200
0320
0230
0300
,
0010
0010
0110
0000
,
1000
0100
1000
0000
,
0001
0100
0001
0000
,
0002
2003
3002
0003
,
1000
1001
0001
0000
,
2000
0000
0000
3000
,
0002
0000
0000
0003
,
0100
1000
0010
0001
,
0100
0000
0000
0000
,
2000
0000
0000
3000
,
0002
0000
0000
0003
,
0100
0001
0010
1000
,
0100
0001
0010
0000
,
0110
0000
0000
1000
,
0001
0000
0000
0001
,
1000
0000
0000
0010
,
0100
0010
0100
0000
,
0110
0000
0000
0010
,
0100
0000
0000
1000
,
0001
0000
0000
0001
,
1000
0001
1000
0000
,
1000
0000
0000
0000
;

//---------------dance-single - Chewi----------------
#NOTES:
     dance-single:
     Chewi:
     Medium:
     6:
     0.262,0.320,0.034,0.246,0.000:
0000
0000
0000
0000
,
0000
0000
0000
0000
,
0000
0000
0000
0000
,
0000
0000
0000
0000
,
1000
0000
1000
0000
,
0100
0010
0100
0000
,
0001
0000
0001
0000
,
0010
0100
0010
0000
,
2000
0000
3200
0000
,
0302
0000
0023
0000
,
0130
0010
0100
0010
,
2002
0000
0000
3003
,
0001
0100
1000
0010
,
0001
0010
1000
0100
,
0010
0100
0010
0000
0100
0010
0100
0000
,
0000
0000
0000
0000
,
0010
1000
0100
0010
,
1000
0100
0001
0010
,
0100
0001
0010
1000
,
0100
0001
0010
0100
,
0010
0001
0100
0000
0010
0000
0000
0000
,
0010
1000
0100
0000
0010
0000
0000
0000
,
0020
0032
2003
3001
,
0100
0000
0010
0100
0010
0000
0000
0000
,
0100
0000
0010
1000
0100
0000
0000
0000
,
0100
0000
0010
0001
0100
0000
0000
0000
,
0200
0320
2030
3001
,
1000
0000
0001
1000
0010
0000
0000
0000
,
0001
0000
0010
0000
0100
1000
0100
0000
,
1000
0000
0100
0000
0010
0001
0010
0000
,
0001
0100
1000
0010
,
0020
0000
0000
0030
,
0010
0000
0100
0000
0001
0100
0001
0000
,
0010
0000
0100
0000
1000
0100
1000
0000
,
0002
2003
3020
0130
,
0010
0000
0100
0010
0100
0000
0000
0000
,
0110
0000
0000
0100
0000
0000
0000
0000
,
1001
0000
0000
1000
0000
0000
0000
0000
,
0002
0023
0230
1300
,
0001
0000
0000
1000
0000
0000
1000
0000
,
0010
0000
0000
0010
0000
0000
0100
0000
,
0001
0000
0000
0001
0000
0000
0001
0000
,
2000
3002
0023
0031
,
0100
1000
0010
0000
,
0010
0000
0000
0000
;

//---------------dance-single - Chewi----------------
#NOTES:
     dance-single:
     Chewi:
     Hard:
     8:
     0.373,0.418,0.045,0.246,0.022:
0000
0000
0000
0000
,
0000
0000
0000
0000
,
0000
0000
0000
0000
,
0000
0000
0000
0000
,
1000
0100
0010
0001
,
1000
0100
0010
0001
,
0001
0100
1000
0010
,
0001
0100
1000
0010
,
0100
0010
1000
0001
,
0010
0100
1000
0001
,
1000
0100
0001
0010
,
1000
0100
0001
0010
,
0100
0000
0101
0000
0001
1000
0100
0000
,
1000
0000
1100
0000
1000
0001
0100
0000
,
0010
0100
0001
1000
0100
0010
0002
0000
,
0003
0000
0000
0000
,
0001
0000
1100
0000
1000
0010
0100
0000
,
1000
0000
0101
0000
0001
0100
0010
0000
,
1000
0001
0010
0100
1000
0010
0001
0100
,
2000
0000
0000
3000
,
0001
1000
0010
0200
0000
0301
0100
0010
,
1000
0001
0010
0200
0000
0310
0001
0100
,
2000
0000
3020
0000
0032
0000
0103
1000
,
0100
0010
0100
0001
0000
0000
0001
0100
,
0010
1000
0001
0020
0000
0130
0001
0010
,
1000
0100
0010
2000
0000
3100
0001
0100
,
2000
0000
3200
0000
0320
0000
0031
0010
,
0100
1000
0001
0200
0000
0300
0000
0000
,
0010
0000
0000
0000
1000
0000
0000
0000
0001
0000
0000
0001
0000
0000
0000
0000
,
0001
0000
0010
0000
0100
0000
1000
0000
0010
0000
0000
0010
0000
0000
0000
0000
,
1000
0010
0001
0010
1000
0100
0001
1000
,
0100
0001
0010
0100
0001
0010
0100
1000
,
0001
0000
0000
0000
1000
0000
0000
0000
0001
0000
0000
0001
0000
0000
0000
0000
,
1000
0000
0010
0000
0100
0000
0001
0000
0010
0000
0000
0010
0000
0000
0000
0000
,
0001
0010
1000
0100
0001
0100
1000
0010
,
0001
0010
1000
0001
0010
1000
0001
0010
,
0100
0000
0100
0001
0000
0000
0001
0010
,
0100
0000
1000
0100
0000
0000
1000
0001
,
2000
0000
3020
0000
0230
0000
0301
0100
,
0010
1000
0001
0020
0000
0030
0001
0010
,
0100
0000
0010
0200
0000
0300
0001
0100
,
0010
0000
0001
0020
0000
0030
0001
0010
,
0200
2300
3020
0031
,
0001
0100
1000
0010
0000
0000
0000
0000
,
0100
0000
0000
0000
;
