#TITLE:Bootylicious;
#SUBTITLE:;
#ARTIST:Destiny's Child;
#TITLETRANSLIT:;
#SUBTITLETRANSLIT:;
#ARTISTTRANSLIT:;
#GENRE:;
#CREDIT:Chewi☆;
#MENUCOLOR:#FFFFFF;
#METERTYPE:DDR X;
#BANNER:Bootylicious.png;
#BACKGROUND:Bootylicious-bg.png;
#LYRICSPATH:;
#CDTITLE:./CDTITLES/DanceDanceRevolution skyMIX3 -breeze-.png;
#MUSIC:Bootylicious.mp3;
#OFFSET:-0.364;
#SAMPLESTART:56.071;
#SAMPLELENGTH:15.000;
#SELECTABLE:YES;
#LISTSORT:;
#DISPLAYBPM:103.000;
#BPMS:0.000=103.390;
#STOPS:;
#BGCHANGES:0.000=Bootylicious.avi=1.000=1=0=0,
99999=-nosongbg-=1.000=0=0=0 // don't automatically add -songbackground-
;
#ATTACKS:;

//---------------dance-single - Chewi----------------
#NOTES:
     dance-single:
     Chewi:
     Beginner:
     2:
     0.070,0.103,0.073,0.032,0.000: // measure 1
0000
0000
0000
0000
,  // measure 2
0000
0000
0000
0000
,  // measure 3
0000
0000
0000
0000
,  // measure 4
0000
0000
0000
0000
,  // measure 5
0010
0000
0000
0000
,  // measure 6
1000
0000
0000
0000
,  // measure 7
0100
0000
0000
0000
,  // measure 8
0001
0000
0000
0000
,  // measure 9
0001
0000
0000
0000
,  // measure 10
1000
0000
0000
0000
,  // measure 11
0010
0000
0000
0000
,  // measure 12
0100
0000
0000
0000
,  // measure 13
0010
0000
0000
0000
,  // measure 14
1000
0000
0000
0000
,  // measure 15
0001
0000
0000
0000
,  // measure 16
0010
0000
0000
0000
,  // measure 17
0200
0000
0000
0300
,  // measure 18
0100
0000
0000
0000
,  // measure 19
2000
0000
0000
3000
,  // measure 20
1000
0000
0000
0000
,  // measure 21
0100
0000
0000
0000
,  // measure 22
0100
0000
0000
0000
,  // measure 23
0010
0000
0000
0000
,  // measure 24
0010
0000
0000
0000
,  // measure 25
0010
0000
0000
0000
,  // measure 26
1001
0000
0000
0000
,  // measure 27
0100
0000
0000
0000
,  // measure 28
1001
0000
0000
0000
,  // measure 29
1000
0000
0000
0000
,  // measure 30
0110
0000
0000
0000
,  // measure 31
0001
0000
0000
0000
,  // measure 32
0110
0000
0000
0000
,  // measure 33
0100
0000
0000
0000
,  // measure 34
0010
0000
0000
0000
,  // measure 35
1000
0000
0000
0000
,  // measure 36
0001
0000
0000
0000
,  // measure 37
0100
0000
0000
0000
,  // measure 38
0100
0000
0000
0000
,  // measure 39
0010
0000
0000
0000
,  // measure 40
0100
0000
0000
0000
,  // measure 41
2000
0000
0000
3000
,  // measure 42
1000
0000
0000
0000
,  // measure 43
0002
0000
0000
0003
,  // measure 44
0001
0000
0000
0000
,  // measure 45
1001
0000
0000
0000
,  // measure 46
0100
0000
0000
0000
,  // measure 47
1001
0000
0000
0000
,  // measure 48
1000
0000
0000
0000
,  // measure 49
0110
0000
0000
0000
,  // measure 50
0001
0000
0000
0000
,  // measure 51
0110
0000
0000
0000
,  // measure 52
0110
0000
0000
0000
;

//---------------dance-single - Chewi----------------
#NOTES:
     dance-single:
     Chewi:
     Easy:
     4:
     0.186,0.214,0.234,0.097,0.000: // measure 1
0000
0000
0000
0000
,  // measure 2
0000
0000
0000
0000
,  // measure 3
0000
0000
0000
0000
,  // measure 4
0000
0000
0000
0000
,  // measure 5
0110
0000
0000
0000
,  // measure 6
1001
0000
0000
0000
,  // measure 7
0110
0000
0000
0000
,  // measure 8
1001
0000
0000
0000
,  // measure 9
0001
0001
0001
0000
,  // measure 10
1000
1000
1000
0000
,  // measure 11
0010
0010
0010
0000
,  // measure 12
0100
0100
0100
0000
,  // measure 13
0010
0010
0010
0000
,  // measure 14
1000
1000
1000
0000
,  // measure 15
0001
0001
0001
0000
,  // measure 16
0010
0010
0010
0000
,  // measure 17
0200
0000
0000
0300
,  // measure 18
0010
0010
0010
0000
,  // measure 19
2000
0000
0000
3000
,  // measure 20
0001
0001
0001
0000
,  // measure 21
0100
1000
0010
0001
,  // measure 22
0100
0100
0100
0000
,  // measure 23
0100
0001
0010
1000
,  // measure 24
0010
0010
0010
0010
,  // measure 25
0110
0000
1001
0000
,  // measure 26
0110
0000
1001
0000
,  // measure 27
0110
0000
1001
0000
,  // measure 28
1000
1000
0001
0001
,  // measure 29
0110
0000
1001
0000
,  // measure 30
0110
0000
1001
0000
,  // measure 31
0110
0000
1001
0000
,  // measure 32
0001
0001
1000
1000
,  // measure 33
0200
0000
0310
0100
,  // measure 34
0200
0000
0310
0100
,  // measure 35
2000
0000
3001
1000
,  // measure 36
0002
0000
1003
0001
,  // measure 37
0100
0100
1000
1000
,  // measure 38
0100
0100
0001
0001
,  // measure 39
0010
0010
1000
0001
,  // measure 40
0100
0100
0001
1000
,  // measure 41
2000
0000
0000
3000
,  // measure 42
0020
0000
0000
0030
,  // measure 43
2000
0000
0000
3000
,  // measure 44
0002
0000
0000
0003
,  // measure 45
0110
0000
1001
0000
,  // measure 46
0110
0000
1001
0000
,  // measure 47
0110
0000
1001
0000
,  // measure 48
1000
1000
0001
0001
,  // measure 49
0110
0000
1001
0000
,  // measure 50
0110
0000
1001
0000
,  // measure 51
0110
0000
1001
0000
,  // measure 52
2002
0000
0000
0000
,  // measure 53
0000
0000
0000
0000
,  // measure 54
3003
0000
0000
0000
;

//---------------dance-single - Chewi----------------
#NOTES:
     dance-single:
     Chewi:
     Medium:
     5:
     0.220,0.235,0.024,0.081,0.000: // measure 1
0000
0000
0000
0000
,  // measure 2
0000
0000
0000
0000
,  // measure 3
0000
0000
0000
0000
,  // measure 4
0000
0000
0000
0000
,  // measure 5
0100
0000
0000
0010
,  // measure 6
0001
0000
0000
0001
,  // measure 7
0010
0000
0000
1000
,  // measure 8
0010
0010
0001
0100
,  // measure 9
1000
0000
0100
0000
0010
0100
0010
0000
,  // measure 10
0001
0000
0100
0000
0010
0100
0010
0000
,  // measure 11
1000
0100
1000
0001
,  // measure 12
0001
0100
0001
1000
,  // measure 13
0010
0000
0100
0000
0001
1000
0001
0000
,  // measure 14
0100
0000
0010
0000
0001
1000
0001
0000
,  // measure 15
0100
1000
0010
0100
,  // measure 16
1000
0001
0100
0010
,  // measure 17
0100
0100
0100
0000
0010
0000
1001
0000
,  // measure 18
0001
0010
0100
1000
,  // measure 19
0100
0100
0100
0000
0010
0000
1001
0000
,  // measure 20
1000
0010
0100
0001
,  // measure 21
1000
0100
0100
0001
,  // measure 22
0001
0010
0010
1000
,  // measure 23
0010
0100
0001
1000
,  // measure 24
0100
0010
0001
1000
,  // measure 25
0010
0010
0010
0000
0100
0000
0000
0000
,  // measure 26
1000
0001
1000
0000
0001
0000
0000
0000
,  // measure 27
0100
0100
0100
0000
0010
0000
0000
0000
,  // measure 28
0001
0010
1000
0100
,  // measure 29
0010
0100
0010
0000
0100
0000
0000
0000
,  // measure 30
0001
0001
0001
0000
0001
0000
0000
0000
,  // measure 31
0100
0010
0100
0000
0100
0000
0000
0000
,  // measure 32
1000
0010
0001
0100
,  // measure 33
0020
0000
0100
0130
,  // measure 34
0200
0000
0010
0310
,  // measure 35
2000
0000
0001
3001
,  // measure 36
0002
0000
1000
1003
,  // measure 37
0001
0010
0100
0001
,  // measure 38
0010
1000
0010
0001
,  // measure 39
1000
0100
0010
1000
,  // measure 40
0100
0001
0100
1000
,  // measure 41
2000
0000
0000
0000
,  // measure 42
3020
0000
0000
0000
,  // measure 43
0230
0000
0000
0000
,  // measure 44
0302
0000
0000
0000
,  // measure 45
0013
0000
0100
0000
0010
0100
0010
0000
,  // measure 46
0001
0000
1000
0000
1000
1000
1000
0000
,  // measure 47
0100
0000
0010
0000
0100
0010
0100
0000
,  // measure 48
0010
0001
0100
1000
,  // measure 49
0001
0001
0001
0000
0100
0000
1000
0000
,  // measure 50
0100
0100
0100
0000
1000
0000
0010
0000
,  // measure 51
0001
0100
1000
0010
,  // measure 52
0220
0000
0000
0000
,  // measure 53
0000
0000
0000
0000
,  // measure 54
0330
0000
0000
0000
;

//---------------dance-single - Chewi----------------
#NOTES:
     dance-single:
     Chewi:
     Hard:
     9:
     0.333,0.385,0.186,0.032,0.008: // measure 1
0000
0000
0000
0000
,  // measure 2
0000
0000
0000
0000
,  // measure 3
0000
0000
0000
0000
,  // measure 4
0000
0000
0000
0000
,  // measure 5
1001
0000
0000
0010
,  // measure 6
0110
0000
0000
0001
,  // measure 7
1001
0000
0000
0000
,  // measure 8
0010
0001
0100
1000
,  // measure 9
1000
0010
0100
0001
0010
0100
1000
0000
,  // measure 10
0001
0100
1000
0010
,  // measure 11
0100
0010
1000
0001
0010
0100
1000
0000
,  // measure 12
1000
0100
0001
0010
,  // measure 13
0010
0100
0001
1000
0100
0010
0001
0000
,  // measure 14
1000
0101
0010
1001
,  // measure 15
0001
0100
0010
0100
0001
0010
0100
0000
,  // measure 16
0100
0010
1000
0010
0100
0001
1000
0000
,  // measure 17
0100
1000
0010
0001
0100
1000
0010
0001
,  // measure 18
1000
0001
0100
0001
2000
0000
3000
0000
,  // measure 19
0010
1000
0001
1000
0100
0001
1000
0000
,  // measure 20
1000
0001
0010
0001
2000
0000
3000
0000
,  // measure 21
0010
0010
0100
0100
0001
1000
0110
0000
,  // measure 22
1000
1000
0100
0100
0010
0001
0110
0000
,  // measure 23
0010
0010
0100
0100
0010
1000
0110
0000
,  // measure 24
1010
0011
0101
1100
,  // measure 25
0100
0010
0001
0000
0100
0100
0100
0000
,  // measure 26
0100
0010
1000
0000
0010
0010
0010
0000
,  // measure 27
1000
0001
0010
0100
1000
0010
0000
0000
,  // measure 28
0110
0010
1001
0001
,  // measure 29
1000
0100
0010
0000
0010
0010
0010
0000
,  // measure 30
0100
0010
0001
0000
0100
0100
0100
0000
,  // measure 31
0001
0100
0010
0000
1000
0001
1000
0000
,  // measure 32
1010
0010
0101
0100
,  // measure 33
0100
0000
0100
0000
0010
0010
0100
0000
,  // measure 34
1000
0000
0001
0000
1000
0100
0100
0000
,  // measure 35
0001
0000
0010
0000
0100
0010
0010
0000
,  // measure 36
1000
0000
0001
0000
0010
0100
0100
0000
,  // measure 37
0010
0000
0101
0000
0010
0100
0001
0000
,  // measure 38
0010
0000
1100
0000
0010
0100
1000
0000
,  // measure 39
0001
1000
0100
1000
0001
0100
0001
0100
,  // measure 40
0010
1000
0100
0010
0001
0100
0001
0010
,  // measure 41
0011
0000
0101
0000
0100
1000
0010
0001
,  // measure 42
0100
0000
1000
0000
0010
0001
0100
0001
,  // measure 43
0010
1000
0100
0000
0001
0010
1000
0100
,  // measure 44
0001
0000
0010
0000
1000
0000
0000
0100
0000
0000
0010
0000
0000
0001
0000
0000
,  // measure 45
0010
0100
1000
0000
0010
0010
0010
0000
,  // measure 46
0010
0100
0001
0000
0100
0100
0100
0000
,  // measure 47
0001
1000
0100
0010
0001
0100
0000
0000
,  // measure 48
0110
0100
1001
1000
,  // measure 49
0001
0010
0100
0000
0100
0100
0100
0000
,  // measure 50
0010
0100
1000
0000
0010
0010
0010
0000
,  // measure 51
1000
0010
0100
0000
0001
1000
0001
0000
,  // measure 52
0202
0000
0000
0000
,  // measure 53
0000
0000
0000
0000
,  // measure 54
0303
0000
0000
0000
;
