#TITLE:Blue☆snowflake;
#SUBTITLE:;
#ARTIST:xRGTMx;
#TITLETRANSLIT:;
#SUBTITLETRANSLIT:;
#ARTISTTRANSLIT:;
#GENRE:;
#CREDIT:Chewi☆;
#MENUCOLOR:;
#METERTYPE:DDR X;
#BANNER:Blue snowflake.png;
#BACKGROUND:Blue snowflake-bg.png;
#LYRICSPATH:;
#CDTITLE:;
#MUSIC:Blue snowflake.mp3;
#OFFSET:-0.038;
#SAMPLESTART:43.277;
#SAMPLELENGTH:15.000;
#SELECTABLE:YES;
#LISTSORT:;
#DISPLAYBPM:111.000;
#BPMS:0.000=111.000;
#STOPS:;
#BGCHANGES:;
#ATTACKS:;

//---------------dance-single - Chewi----------------
#NOTES:
     dance-single:
     Chewi:
     Beginner:
     1:
     0.087,0.136,0.053,0.000,0.000:
0000
0000
0000
0000
,
0000
0000
0000
0000
,
0000
0000
0000
0000
,
0000
0000
0000
0000
,
1000
0000
0000
0000
,
1000
0000
0000
0000
,
1000
0000
0000
0000
,
1000
0000
0000
0000
,
0001
0000
0000
0000
,
0001
0000
0000
0000
,
0001
0000
0000
0000
,
0001
0000
0000
0000
,
0010
0000
0000
0000
,
1000
0000
0000
0000
,
0010
0000
0000
0000
,
0001
0000
0000
0000
,
0100
0000
0000
0000
,
1000
0000
0000
0000
,
0100
0000
0000
0000
,
0001
0000
0000
0000
,
1001
0000
0000
0000
,
1000
0000
0000
0000
,
0001
0000
0000
0000
,
0001
0000
0000
0000
,
1001
0000
0000
0000
,
1000
0000
0000
0000
,
0001
0000
0000
0000
,
0001
0000
0000
0000
,
0100
0000
1000
0000
,
0010
0000
0000
0000
,
0100
0000
0001
0000
,
0010
0000
0000
0000
,
0010
0000
0100
0000
,
0010
0000
0000
0000
,
0100
0000
0010
0000
,
0100
0000
0000
0000
,
1001
0000
0000
0000
,
0000
0000
0000
0000
,
1001
0000
0000
0000
,
0000
0000
0000
0000
,
0100
0000
0100
0000
,
0100
0000
0100
0000
,
0010
0000
0010
0000
,
0010
0000
0010
0000
,
1001
0000
0000
0000
,
1000
0000
1000
0000
,
1001
0000
0000
0000
,
0001
0000
0001
0000
,
0100
0000
0000
0000
,
0100
0000
0000
0000
,
0010
0000
0000
0000
,
0010
0000
0000
0000
,
1000
0000
1000
0000
,
1000
0000
1000
0000
,
0001
0000
0001
0000
,
0001
0000
0001
0000
,
0010
0000
0010
0000
,
0010
0000
0010
0000
,
0100
0000
0100
0000
,
0100
0000
0100
0000
,
1001
0000
0000
0000
;

//---------------dance-single - Chewi----------------
#NOTES:
     dance-single:
     Chewi:
     Easy:
     3:
     0.147,0.273,0.015,0.159,0.000: // measure 1
0000
0000
0000
0000
,  // measure 2
0000
0000
0000
0000
,  // measure 3
0000
0000
0000
0000
,  // measure 4
0000
0000
0000
0000
,  // measure 5
1000
0000
0000
0000
,  // measure 6
0100
0000
0000
0000
,  // measure 7
0001
0000
0000
0000
,  // measure 8
0010
0000
0000
0000
,  // measure 9
1000
0100
0000
0000
,  // measure 10
0100
1000
0000
0000
,  // measure 11
0010
1000
0000
0000
,  // measure 12
1000
0010
0000
0000
,  // measure 13
0200
0000
0300
0100
,  // measure 14
0200
0000
0300
0100
,  // measure 15
0020
0000
0030
0010
,  // measure 16
0020
0000
0030
0010
,  // measure 17
1000
0000
1000
0000
,  // measure 18
0001
0000
0001
0000
,  // measure 19
0010
0000
0010
0000
,  // measure 20
0100
0000
0100
0000
,  // measure 21
1000
1000
0001
0000
,  // measure 22
0100
0000
0100
0000
,  // measure 23
0001
0001
1000
0000
,  // measure 24
0010
0000
0010
0000
,  // measure 25
2000
0000
3000
0000
,  // measure 26
1000
1000
1000
0000
,  // measure 27
0002
0000
0003
0000
,  // measure 28
0001
0001
0001
0000
,  // measure 29
0100
0000
1000
0000
,  // measure 30
1000
1000
1000
0000
,  // measure 31
0010
0000
0001
0000
,  // measure 32
0001
0001
0001
0000
,  // measure 33
0100
0000
0010
0000
,  // measure 34
0100
0100
0010
0000
,  // measure 35
0010
0000
0100
0000
,  // measure 36
0010
0010
0100
0100
,  // measure 37
0220
0000
0000
0000
,  // measure 38
0000
0000
0000
0000
,  // measure 39
0000
0000
0000
0000
,  // measure 40
0000
0000
0000
0330
,  // measure 41
2002
0000
0000
0000
,  // measure 42
0000
0000
0000
0000
,  // measure 43
0000
0000
0000
0000
,  // measure 44
0000
0000
0000
3003
,  // measure 45
1000
0001
0000
1000
,  // measure 46
0001
1000
0000
1000
,  // measure 47
0001
0010
0000
0010
,  // measure 48
0010
0010
0000
0010
,  // measure 49
0100
1000
0000
1000
,  // measure 50
0100
1000
0000
1000
,  // measure 51
0010
1000
0000
0010
,  // measure 52
0100
0100
0100
0100
,  // measure 53
0002
0000
0003
0001
,  // measure 54
2000
0000
3000
1000
,  // measure 55
0020
0000
0030
0010
,  // measure 56
0200
0000
0300
0100
,  // measure 57
0200
0000
0300
0100
,  // measure 58
0002
0000
0003
0001
,  // measure 59
2000
0000
3000
1000
,  // measure 60
2000
3002
2003
3002
,  // measure 61
0013
0000
0000
0000
;

//---------------dance-single - Chewi----------------
#NOTES:
     dance-single:
     Chewi:
     Medium:
     7:
     0.241,0.273,0.159,0.099,0.000:
0000
0000
0000
0000
,
0000
0000
0000
0000
,
0000
0000
0000
0000
,
0000
0000
0000
0000
,
0010
1000
0010
0000
,
0010
0001
0010
0000
,
0100
1000
0100
0000
,
0100
0001
0100
0000
,
1000
0001
0010
0000
,
0001
1000
0010
0000
,
1000
0001
0100
0000
,
0001
1000
0100
0000
,
0012
0000
0000
0103
,
2010
0000
0000
3100
,
2100
0000
0000
3010
,
0102
0000
0000
0013
,
0100
0100
0100
0100
,
0010
0010
0010
0010
,
0001
0001
0001
0001
,
1000
1000
1000
1000
,
1000
0100
0010
0001
,
1000
0001
1000
0001
,
0001
0100
0010
1000
,
1000
0001
1000
0001
,
0001
0010
0100
1000
,
1000
0001
1000
0001
,
1000
0010
0100
0001
,
0001
1000
0001
1000
,
0110
0000
0100
0100
,
1001
0000
0000
0000
,
0110
0000
0000
0000
,
0010
0010
1001
0000
,
1000
0100
0001
0100
,
1000
0100
0001
0100
,
1000
0010
0001
0010
,
1000
0010
0001
0010
,
2002
0000
0000
3003
,
1000
0001
1000
0001
,
2002
0000
0000
3003
,
0010
0100
0010
0100
,
0220
0000
0000
0330
,
0100
0010
0100
0010
,
2002
0000
0000
3003
,
2000
0001
0001
3001
,
0001
0001
0001
0101
,
1000
1000
1000
1100
,
0010
0010
0010
0110
,
0100
0100
0100
0110
,
1000
0100
0001
0010
,
0001
0100
1000
0010
,
0001
1000
0100
0001
,
1000
0001
0100
1000
,
1001
0010
0100
0100
,
1001
0100
0010
0010
,
1100
0010
0100
0010
,
0101
0010
0100
0010
,
0100
1000
0001
0001
,
0100
0001
1000
1000
,
0010
1000
0001
0001
,
0010
0001
1000
1000
,
0110
0000
0000
0000
;

//---------------dance-single - Chewi----------------
#NOTES:
     dance-single:
     Chewi:
     Hard:
     10:
     0.333,0.364,0.288,0.083,0.000:
0000
0000
0000
0000
,
0000
0000
0000
0000
,
0000
0000
0000
0000
,
0000
0000
0000
0000
,
1000
0000
1100
0000
0100
1000
0100
0000
,
0001
0000
0101
0000
0100
0001
0100
0000
,
0010
0000
1100
0000
1000
0100
1000
0000
,
0010
0000
0101
0000
0100
0010
0100
0000
,
0001
1000
0100
0000
1000
0000
0100
0000
,
1000
0001
0100
0000
0001
0000
0100
0000
,
0110
0000
1001
0000
1000
0001
1000
0000
,
1001
0000
0110
0000
0010
0100
0010
0000
,
2010
0001
0001
3001
,
0102
1000
1000
1003
,
0001
1100
1000
1000
,
1000
0101
0001
0001
,
0110
1001
1000
1100
,
0110
1001
0001
0101
,
1000
0100
1000
0000
0001
0100
0001
0000
,
1000
0010
1000
0000
0001
0010
0001
0000
,
1001
0100
0010
0100
,
1001
0010
0100
0010
,
0001
0010
0100
0000
1000
0000
0010
0000
,
1000
0100
0010
0000
0001
0000
0100
0000
,
0010
0001
0100
0000
1000
0000
0010
0000
,
0010
1000
0100
0000
0001
0000
0010
0000
,
1000
1100
0001
0101
,
0010
0100
0010
0000
0100
0010
0100
0000
,
2010
0001
0010
3001
,
0102
1000
0100
1003
,
0210
0001
1000
0301
,
0120
1000
0001
1030
,
0010
0000
0100
0000
0010
0100
0010
0000
,
0100
0000
0010
0000
0100
0010
0100
0000
,
0001
0100
1000
0010
,
1000
0010
0001
0000
1001
0000
1001
0000
,
2000
0001
0100
0100
,
0010
0100
0001
3001
,
0002
1000
0100
0100
,
0010
1000
0010
0013
,
0100
0000
0100
0000
1000
0010
1000
0000
,
0100
0000
0100
0000
0001
0010
0001
0000
,
0010
1100
0010
0101
,
2000
0000
0001
0000
0010
0000
0020
3030
,
0100
0001
0100
0101
,
0100
1000
0100
1100
,
0001
1000
0001
1001
,
1000
0001
1000
1001
,
1000
0010
0100
0000
0001
0000
1000
0000
,
0001
0010
0100
0000
1000
0000
0001
0000
,
0100
0010
0100
0000
0010
0000
0110
0000
,
1002
0010
0100
0103
,
1000
0100
1000
0100
1000
0000
0000
0000
,
0001
0010
0001
0010
0001
0000
0000
0000
,
0001
1000
0001
1000
0001
0000
0000
0000
,
1000
0001
1000
0001
1000
0000
0000
0000
,
0010
0100
0001
1000
0100
0000
0000
0000
,
0010
0100
1000
0001
0100
0000
0000
0000
,
0100
0010
1000
0000
1000
0000
1010
0000
,
1000
0010
0100
0000
0001
0000
1001
0000
,
0001
0000
0000
0000
;

//---------------dance-double - Chewi----------------
#NOTES:
     dance-double:
     Chewi:
     Hard:
     10:
     0.316,0.341,0.174,0.144,0.000:
00000000
00000000
00000000
00000000
,
00000000
00000000
00000000
00000000
,
00000000
00000000
00000000
00000000
,
00000000
00000000
00000000
00000000
,
00010000
00000000
00011000
00000000
00010000
00001000
00010000
00000000
,
00001000
00000000
00011000
00000000
00010000
00001000
00010000
00000000
,
00010000
00000000
01010000
00000000
00010000
01000000
00010000
00000000
,
00010000
00000000
00011000
00000000
00010000
00001000
00010000
00000000
,
00001000
00000000
00001100
00000000
00001000
00000100
00001000
00000000
,
00010000
00000000
00011000
00000000
00001000
00010000
00001000
00000000
,
00010000
00000000
01010000
00000000
00010000
01000000
00010000
00000000
,
10000000
01000000
00010000
01000000
10000000
00100000
00010000
00100000
,
20000000
00010000
00100000
30010000
,
00020000
01000000
10000000
00130000
,
00200000
00010000
00010000
00310000
,
00002000
00010000
00010000
00013000
,
00002000
00000010
00000001
00003010
,
00000002
00000100
00001000
00000013
,
00002000
00000100
00000010
00003001
,
00002000
00010000
00010000
00013000
,
00011000
00000000
00001000
00000000
00010000
00001000
00010000
00000000
,
00010000
00000000
01000000
00000000
10000000
01000000
10000000
00000000
,
10000000
00000000
00100000
00000000
00010000
00100000
00010000
00000000
,
00100000
00000000
00010000
00000000
00001000
00010000
00001000
00000000
,
00010000
00000000
00001000
00000000
00000010
00001000
00000010
00000000
,
00000010
00000000
00000001
00000000
00000001
00000100
00000001
00000000
,
00001000
00000000
00000100
00000000
00001000
00000100
00001000
00000000
,
00000100
00000000
00010000
00000000
00001000
00010000
00001000
00000000
,
00011000
00000000
00010000
00000000
00010000
01000000
10000000
01000000
,
00010000
00000000
01000000
00000000
10000000
00100000
00010000
00100000
,
10000000
00000000
00100000
00000000
00010000
00100000
00001000
00010000
,
00001000
00000000
00010000
00000000
00001000
00000010
00000001
00000010
,
00001000
00000000
00000010
00000000
00000100
00000001
00000100
00001000
,
00000100
00000000
00000100
00000000
00000100
00010000
00001000
00100000
,
00010000
00000000
00001000
00000000
00001000
00010000
00000000
00010000
,
00001000
00011000
00011000
00011000
,
00022000
00000000
00000000
00033000
,
00020000
00000000
00000000
00030000
,
02000000
00000000
00000000
03000000
,
00020000
00000000
00000000
00030000
,
00022000
00000000
00000000
00033000
,
00002000
00000000
00000000
00003000
,
00000020
00000000
00000000
00000030
,
00002000
00000000
00000000
00003000
,
00001000
00000000
00011000
00000000
00010000
00001000
00010000
00000000
,
00010000
00000000
01010000
00000000
01000000
00010000
01000000
00000000
,
10000000
00000000
11000000
00000000
10000000
01000000
10000000
00000000
,
00010000
00000000
00110000
00000000
00100000
00010000
00100000
00000000
,
00010000
00000000
00011000
00000000
00001000
00010000
00001000
00000000
,
00010000
00000000
00011000
00000000
00001000
00010000
00001000
00000000
,
00000010
00000000
00001010
00000000
00000010
00001000
00000010
00000000
,
00000100
00000100
00000100
00000000
00000010
00000010
00000010
00000000
,
00001000
00000001
00000100
00000010
00001000
00000000
00000000
00000000
,
00000001
00001000
00000100
00000010
00000001
00000000
00000000
00000000
,
00000100
00001000
00010000
01000000
10000000
00000000
00000000
00000000
,
10000000
01000000
00100000
00010000
00100000
00000000
00000000
00000000
,
00100000
00010000
00001000
00000010
00000001
00000000
00000000
00000000
,
00000001
00001000
00000010
00000100
00000001
00000000
00000000
00000000
,
00000001
00001000
00000100
00000010
00000001
00000000
00002000
00000000
,
00003001
00001100
00010000
00001000
,
00011000
00000000
00000000
00000000
;

//---------------dance-double - Chewi----------------
#NOTES:
     dance-double:
     Chewi:
     Medium:
     7:
     0.266,0.318,0.114,0.220,0.000:
00000000
00000000
00000000
00000000
,
00000000
00000000
00000000
00000000
,
00000000
00000000
00000000
00000000
,
00000000
00000000
00000000
00000000
,
00200000
00000000
01300000
00100000
,
02000000
00000000
03100000
01000000
,
00020000
00000000
00031000
00010000
,
00002000
00000000
00013000
00001000
,
00000020
00000000
00000130
00000010
,
00000200
00000000
00000310
00000100
,
00000020
00000000
00001030
00000001
,
00002000
00000000
00003001
00001000
,
00000200
00000000
00010300
00001000
,
00020000
00000000
00031000
00010000
,
02000000
00000000
03010000
01000000
,
00200000
00000000
01300000
00100000
,
10000000
00010000
00100000
01000000
,
10000000
01000000
00100000
00010000
,
01000000
01010000
00010000
00011000
,
00001000
00001100
00000001
00000101
,
00000220
00000000
00000000
00000330
,
00000010
00000010
00000010
00000000
00000010
00000000
00000010
00000000
,
00022000
00000000
00000000
00033000
,
00010000
00010000
00010000
00000000
00001000
00000000
00001000
00000000
,
02020000
00000000
00000000
03030000
,
10000000
10000000
10000000
00000000
00010000
00000000
00010000
00000000
,
02200000
00000000
00000000
03300000
,
01000000
01000000
01000000
00000000
00100000
00000000
00100000
00000000
,
00100000
00010000
00001000
00000010
,
00001000
00000010
00001000
00000010
,
00000010
00001000
00010000
01000000
,
00010000
01000000
00010000
01000000
,
00100000
00000000
01100000
00000000
10000000
00010000
10000000
00000000
,
00010000
00100000
00001000
00010000
,
00001000
00000000
00011000
00000000
00010000
00001000
00010000
00000000
,
00001000
00000010
00000001
00000100
,
00000200
00000000
00000000
00000000
,
00000320
00000000
00000000
00000000
,
00000032
00000000
00000000
00000000
,
00002003
00000000
00000000
00000000
,
00013000
00010000
00010000
00010000
,
00001000
00001000
00001000
00001000
,
00010000
00010000
00010000
00010000
,
02000000
00000000
00000000
03000000
,
00100000
00100000
00100000
00000000
10000000
00000000
10010000
00000000
,
01000000
01000000
01000000
00000000
00010000
00000000
10010000
00000000
,
00100000
00100000
00100000
00000000
00010000
00010000
00010000
00000000
,
00001000
00001000
00001000
00000000
00010000
00010000
00010000
00000000
,
00001000
00001000
00001000
00000000
00000010
00000000
00001001
00000000
,
00000001
00000001
00000001
00000000
00000100
00000000
00001001
00000000
,
00001000
00001000
00001000
00000000
00010000
00010000
00010000
00000000
,
00001000
00001000
00001000
00000000
00010000
00010000
00010000
00000000
,
02000000
00100000
00000000
00010000
,
03200000
10000000
00000000
01000000
,
20300000
00010000
00000000
01000000
,
30020000
00100000
00000000
00130000
,
00100000
00010000
00001000
00000100
,
00000001
00000000
00000010
00000000
00001000
00001000
00001000
00000000
,
00001000
00010000
01000000
10000000
,
00100000
00000000
00010000
00000000
00100000
00100000
00100000
00000000
,
01100000
00000000
00000000
00000000
;

//---------------dance-double - Chewi----------------
#NOTES:
     dance-double:
     Chewi:
     Easy:
     4:
     0.146,0.205,0.015,0.083,0.000:
00000000
00000000
00000000
00000000
,
00000000
00000000
00000000
00000000
,
00000000
00000000
00000000
00000000
,
00000000
00000000
00000000
00000000
,
10000000
00000000
00100000
00000000
,
00100000
00000000
10000000
00000000
,
00010000
00000000
01000000
00000000
,
01000000
00000000
00010000
00000000
,
00010000
00000000
00001000
00000000
,
00001000
00000000
00010000
00000000
,
00001000
00000000
00000010
00000000
,
00000010
00000000
00001000
00000000
,
00000001
00000000
00000100
00000000
,
00000100
00000000
00000001
00000000
,
00001000
00000000
00000100
00000000
,
00001000
00000000
00010000
00000000
,
00010000
00000000
00001000
00000000
,
00001000
00000000
00010000
00000000
,
00010000
00000000
01000000
00000000
,
10000000
00000000
01000000
00000000
,
20000000
00000000
00000000
30000000
,
01000000
01000000
01000000
00000000
,
00020000
00000000
00000000
00030000
,
00010000
00001000
00010000
00000000
,
00002000
00000000
00000000
00003000
,
00000010
00000010
00000010
00000000
,
00000200
00000000
00000000
00000300
,
00000001
00000001
00000001
00000000
,
00002000
00000000
00000000
00003000
,
00001000
00010000
00001000
00000000
,
00020000
00000000
00000000
00030000
,
01000000
01000000
01000000
00000000
,
00200000
00000000
00000000
00300000
,
10000000
10000000
10000000
00000000
,
00020000
00000000
00000000
00030000
,
00010000
00001000
00010000
00001000
,
00022000
00000000
00000000
00000000
,
00000000
00000000
00000000
00033000
,
00002000
00000000
00000000
00000000
,
00000000
00000000
00000000
00003000
,
00000010
00000000
00001000
00000000
,
00000010
00000000
00001000
00000000
,
00010000
00000000
00001000
00000000
,
00010000
00000000
00001000
00000000
,
00010000
00000000
01000000
00000000
,
00010000
00000000
01000000
00000000
,
10000000
00000000
01000000
00000000
,
10000000
00000000
01000000
00000000
,
10000000
01000000
00100000
00010000
,
00000000
00010000
00000000
00010000
,
00010000
00001000
00000100
00000010
,
00000001
00000000
00000001
00000000
,
00000001
00000100
00000010
00001000
,
00010000
01000000
00100000
10000000
,
00000000
10000000
00000000
00010000
,
00000000
00010000
00000000
10000000
,
01000000
00100000
00010000
00001000
,
00000100
00000010
00000001
00000001
,
00000001
00000000
00001000
00000000
,
00000001
00001000
00000001
00001000
,
00001001
00000000
00000000
00000000
;
