#TITLE:Blue Feather;
#SUBTITLE:;
#ARTIST:BINECKS;
#TITLETRANSLIT:;
#SUBTITLETRANSLIT:;
#ARTISTTRANSLIT:;
#GENRE:;
#CREDIT:Chewi☆;
#MENUCOLOR:#FFFFFF;
#METERTYPE:DDR X;
#BANNER:Blue Feather.png;
#BACKGROUND:Blue Feather-bg.png;
#LYRICSPATH:;
#CDTITLE:./CDTITLES/DanceDanceRevolution skyMIX3 -breeze-.png;
#MUSIC:Blue Feather.mp3;
#OFFSET:-1.056;
#SAMPLESTART:66.001;
#SAMPLELENGTH:15.000;
#SELECTABLE:YES;
#LISTSORT:;
#DISPLAYBPM:170.000;
#BPMS:0.000=170.000;
#STOPS:;
#BGCHANGES:;
#ATTACKS:;

//---------------dance-single - Chewi----------------
#NOTES:
     dance-single:
     Chewi:
     Beginner:
     3:
     0.177,0.171,0.000,0.000,0.000: // measure 1
0000
0000
0000
0000
,  // measure 2
0000
0000
0000
0000
,  // measure 3
0000
0000
0000
0000
,  // measure 4
0000
0000
0000
0000
,  // measure 5
0000
0000
0000
0000
,  // measure 6
0000
0000
0000
0000
,  // measure 7
0000
0000
0000
0000
,  // measure 8
0000
0000
0000
0000
,  // measure 9
1000
0000
0100
0000
,  // measure 10
1000
0000
0100
0000
,  // measure 11
0001
0000
0100
0000
,  // measure 12
0001
0000
0100
0000
,  // measure 13
0010
0000
0010
0000
,  // measure 14
0001
0000
0001
0000
,  // measure 15
0001
0000
0100
0000
,  // measure 16
0100
0000
0100
0000
,  // measure 17
1000
0000
0010
0000
,  // measure 18
0010
0000
0010
0000
,  // measure 19
0001
0000
0001
0000
,  // measure 20
0100
0000
0100
0000
,  // measure 21
0001
0000
0001
0000
,  // measure 22
0010
0000
0010
0000
,  // measure 23
0100
0000
0100
0000
,  // measure 24
1000
0000
0010
0000
,  // measure 25
1000
0000
1000
0000
,  // measure 26
0001
0000
0010
0000
,  // measure 27
0010
0000
0010
0000
,  // measure 28
0100
0000
1000
0000
,  // measure 29
1000
0000
1000
0000
,  // measure 30
0001
0000
0100
0000
,  // measure 31
0100
0000
0001
0000
,  // measure 32
1000
0000
0100
0000
,  // measure 33
0100
0000
1000
0000
,  // measure 34
0001
0000
0100
0000
,  // measure 35
0100
0000
0010
0000
,  // measure 36
1000
0000
0100
0000
,  // measure 37
0001
0000
0001
0000
,  // measure 38
0010
0000
0010
0000
,  // measure 39
0001
0000
0100
0000
,  // measure 40
1000
0000
0001
0000
,  // measure 41
1000
0000
0100
0000
,  // measure 42
0001
0000
1000
0000
,  // measure 43
0010
0000
0100
0000
,  // measure 44
0001
0000
0001
0000
,  // measure 45
0010
0000
0100
0000
,  // measure 46
0010
0000
0010
0000
,  // measure 47
0100
0000
0100
0000
,  // measure 48
1000
0000
1000
0000
,  // measure 49
0001
0000
0001
0000
,  // measure 50
0010
0000
0010
0000
,  // measure 51
0010
0000
0100
0000
,  // measure 52
1000
0000
1000
0000
,  // measure 53
0010
0000
1000
0000
,  // measure 54
0010
0000
1000
0000
,  // measure 55
1000
0000
1000
0000
,  // measure 56
0001
0000
0001
0000
,  // measure 57
1000
0000
1000
0000
,  // measure 58
1000
0000
1000
0000
,  // measure 59
0010
0000
0001
0000
,  // measure 60
0100
0000
1000
0000
,  // measure 61
0001
0000
1000
0000
,  // measure 62
0001
0000
1000
0000
,  // measure 63
0010
0000
0010
0000
,  // measure 64
0100
0000
0100
0000
,  // measure 65
1000
0000
1000
0000
,  // measure 66
0010
0000
0001
0000
,  // measure 67
0100
0000
0001
0000
,  // measure 68
0010
0000
0010
0000
,  // measure 69
0001
0000
0100
0000
,  // measure 70
0010
0000
0100
0000
,  // measure 71
1000
0000
0100
0000
,  // measure 72
0100
0000
0010
0000
,  // measure 73
1000
0000
0001
0000
,  // measure 74
0100
0000
0010
0000
,  // measure 75
0001
0000
0000
0000
1000
0000
0000
0001
;

//---------------dance-single - Chewi----------------
#NOTES:
     dance-single:
     Chewi:
     Easy:
     5:
     0.309,0.309,0.000,0.000,0.000: // measure 1
0000
0000
0000
0000
,  // measure 2
0000
0000
0000
0000
,  // measure 3
0000
0000
0000
0000
,  // measure 4
0000
0000
0000
0000
,  // measure 5
0000
0000
0000
0000
,  // measure 6
0000
0000
0000
0000
,  // measure 7
0000
0000
0000
0000
,  // measure 8
0000
0000
0000
0000
,  // measure 9
1000
1000
0100
0100
,  // measure 10
1000
1000
0100
0100
,  // measure 11
0001
0001
0100
0100
,  // measure 12
0001
0001
0100
0100
,  // measure 13
0010
0100
0010
0100
,  // measure 14
0001
1000
0001
1000
,  // measure 15
0001
0010
0100
0000
,  // measure 16
0100
0100
0100
0000
,  // measure 17
1000
0100
0010
0000
,  // measure 18
0010
0010
0010
0000
,  // measure 19
0001
1000
0001
0000
,  // measure 20
0100
0100
0100
0000
,  // measure 21
0001
1000
0001
0000
,  // measure 22
0010
0010
0010
0000
,  // measure 23
0100
0100
0100
0000
,  // measure 24
1000
0100
0010
0001
,  // measure 25
1000
1000
1000
0000
,  // measure 26
0001
0100
0010
1000
,  // measure 27
0010
0010
0010
0000
,  // measure 28
0100
0010
1000
0001
,  // measure 29
1000
1000
1000
0000
,  // measure 30
0001
0010
0100
1000
,  // measure 31
0100
0000
0001
0010
,  // measure 32
1000
0000
0100
1000
,  // measure 33
0100
0000
1000
0010
,  // measure 34
0001
0000
0100
0001
,  // measure 35
0100
0000
0010
0100
,  // measure 36
1000
0000
0100
0010
,  // measure 37
0001
1000
0001
1000
,  // measure 38
0010
0100
0010
0100
,  // measure 39
0001
0000
0100
0000
,  // measure 40
1000
0010
0001
0010
,  // measure 41
1000
0000
0100
0000
,  // measure 42
0001
0100
1000
0100
,  // measure 43
0010
0000
0100
0000
,  // measure 44
0001
1000
0001
1000
,  // measure 45
0010
0000
0100
0000
,  // measure 46
0010
0100
0010
0100
,  // measure 47
0010
1000
0010
1000
,  // measure 48
0010
0001
0010
0001
,  // measure 49
0100
0001
0100
0001
,  // measure 50
0010
0001
0010
0001
,  // measure 51
0010
0000
0100
0010
,  // measure 52
1000
0000
1000
0100
,  // measure 53
0010
0001
1000
0100
,  // measure 54
0010
0001
1000
0001
,  // measure 55
1000
0010
1000
0010
,  // measure 56
0001
0010
0001
0010
,  // measure 57
1000
0010
1000
0010
,  // measure 58
1000
0100
1000
0100
,  // measure 59
0010
0000
0001
0010
,  // measure 60
0100
0000
1000
0010
,  // measure 61
0001
0100
1000
0100
,  // measure 62
0001
0010
1000
0100
,  // measure 63
0010
0001
0010
0001
,  // measure 64
0010
0100
0010
0100
,  // measure 65
0010
1000
0010
1000
,  // measure 66
0010
0100
0001
0010
,  // measure 67
0100
0010
0001
0100
,  // measure 68
0010
0100
0010
1000
,  // measure 69
0001
1000
0100
0000
,  // measure 70
0010
0010
0100
0100
,  // measure 71
1000
0001
0100
0000
,  // measure 72
0100
0100
0010
0010
,  // measure 73
1000
0010
0001
0000
,  // measure 74
0100
0100
0010
0010
,  // measure 75
0001
0000
0010
0000
0100
0000
1000
0001
;

//---------------dance-single - Chewi----------------
#NOTES:
     dance-single:
     Chewi:
     Medium:
     8:
     0.402,0.446,0.119,0.000,0.000: // measure 1
0000
0000
0000
0000
,  // measure 2
0000
0000
0000
0000
,  // measure 3
0000
0000
0000
0000
,  // measure 4
0000
0000
0000
0000
,  // measure 5
0000
0000
0000
0000
,  // measure 6
0000
0000
0000
0000
,  // measure 7
0000
0000
0000
0000
,  // measure 8
0000
0000
0000
0000
,  // measure 9
1000
0100
0011
0101
,  // measure 10
0001
0100
1010
1100
,  // measure 11
1000
0100
0001
0010
,  // measure 12
0001
0100
1000
0010
,  // measure 13
0100
0010
0100
0000
0010
0000
0100
0000
,  // measure 14
0010
0100
0010
0000
1000
0000
0100
0000
,  // measure 15
0010
0001
0000
0010
0001
0000
0010
0000
,  // measure 16
0010
0100
0100
1000
,  // measure 17
1000
0100
0000
1000
0100
0000
1000
0000
,  // measure 18
1000
0010
0010
0100
,  // measure 19
0001
0100
0000
0001
0100
0000
0001
0000
,  // measure 20
0001
0100
0100
1000
,  // measure 21
1000
0010
0000
1000
0010
0000
0010
0000
,  // measure 22
0010
0100
0010
0100
,  // measure 23
0100
0010
0001
0100
,  // measure 24
1000
0010
0100
0001
,  // measure 25
0100
0010
1000
0001
,  // measure 26
0010
0100
1000
0001
,  // measure 27
0100
1000
0010
0001
,  // measure 28
0100
0001
0010
1000
,  // measure 29
0100
0010
1000
0100
,  // measure 30
0010
0100
0010
0001
,  // measure 31
0010
0000
0010
0000
0010
0100
0010
0000
,  // measure 32
0001
0000
0001
0000
0001
1000
0001
0000
,  // measure 33
1000
0000
1000
0000
1000
0001
1000
0000
,  // measure 34
0010
0000
0010
0000
0010
0100
0010
0000
,  // measure 35
0100
0000
0100
0000
0100
0001
0100
0000
,  // measure 36
0010
0000
0010
0000
0010
1000
0010
0000
,  // measure 37
1000
0100
0010
0001
,  // measure 38
1000
0100
0010
0001
,  // measure 39
1000
0000
0100
1000
0100
0000
0000
0000
,  // measure 40
0010
0001
0100
1000
,  // measure 41
0010
0000
1000
0010
1000
0000
0000
0000
,  // measure 42
1000
0100
0001
0010
,  // measure 43
0100
0000
0010
0100
0010
0000
0000
0000
,  // measure 44
0001
0010
0100
1000
,  // measure 45
0001
0000
1000
0001
0100
0000
1000
0000
,  // measure 46
0010
0001
0010
1000
,  // measure 47
0100
0000
0100
0000
0100
0010
0100
0000
,  // measure 48
0010
0000
0010
0000
0010
0100
0010
0000
,  // measure 49
0001
0000
0001
0000
0001
1000
0001
0000
,  // measure 50
1000
0000
1000
0000
1000
0001
1000
0010
,  // measure 51
0000
0000
0100
0000
0010
0000
0100
0001
,  // measure 52
0000
0100
0010
1000
,  // measure 53
0001
0010
0100
1000
,  // measure 54
0010
0100
0001
0100
,  // measure 55
0010
0000
0100
0000
0010
0100
0010
0000
,  // measure 56
1000
0000
0001
0000
1000
0001
1000
0000
,  // measure 57
0001
0010
0100
1000
,  // measure 58
0001
0000
0010
0000
0100
0000
1000
0100
,  // measure 59
0000
0000
0010
0000
0001
0000
0010
0001
,  // measure 60
0000
0010
0100
1000
,  // measure 61
0001
1000
0010
0100
,  // measure 62
0001
0100
0010
1000
,  // measure 63
0001
0101
1000
1100
,  // measure 64
0001
0011
1000
1010
,  // measure 65
0001
1001
1000
1001
,  // measure 66
0100
0110
0010
0110
,  // measure 67
0010
0000
0010
0000
1000
0010
1000
0000
,  // measure 68
0100
0000
0100
0000
0010
0001
0010
0000
,  // measure 69
0100
0010
0000
0010
0100
0000
0001
0000
,  // measure 70
1000
0010
0100
1000
,  // measure 71
0010
0100
0000
0100
0010
0000
0100
0000
,  // measure 72
1000
0010
0001
0010
,  // measure 73
0100
1000
0000
1000
0100
0000
0010
0000
,  // measure 74
0100
1000
0010
0100
,  // measure 75
0001
0100
0000
0010
1000
0000
0001
1001
;

//---------------dance-single - Chewi----------------
#NOTES:
     dance-single:
     Chewi:
     Hard:
     12:
     0.564,0.720,0.284,0.238,0.000: // measure 1
0000
0000
0000
0000
,  // measure 2
0000
0000
0000
0000
,  // measure 3
0000
0000
0000
0000
,  // measure 4
0000
0000
0000
0000
,  // measure 5
0000
0000
0000
0000
,  // measure 6
0000
0000
0000
0000
,  // measure 7
0000
0000
0000
0000
,  // measure 8
0000
0000
0000
0000
,  // measure 9
1000
0000
0010
0000
0100
0001
0010
0000
,  // measure 10
0001
0000
0010
0000
0100
1000
0010
0000
,  // measure 11
0100
0000
0010
0000
1000
0001
0010
0000
,  // measure 12
0100
0100
0010
0000
0001
0010
0100
1100
,  // measure 13
0000
0000
0010
0000
0100
0000
1000
1001
,  // measure 14
0000
0000
0100
0000
0001
0000
0001
0100
,  // measure 15
0010
0020
0030
0001
0002
0003
0100
0200
,  // measure 16
0300
1000
2000
3000
0100
0000
1000
0000
,  // measure 17
0010
0200
0300
0001
2000
3000
0100
0020
,  // measure 18
0030
0001
0020
0030
0100
1000
0010
1000
,  // measure 19
0110
0110
0000
1001
1001
0000
1010
1010
,  // measure 20
0000
1001
1001
0000
0001
0000
0010
0000
,  // measure 21
0200
2300
3000
0020
0032
0003
0200
0302
,  // measure 22
0003
0020
2030
3000
0100
0010
0001
1000
,  // measure 23
0010
0000
0100
0000
0001
0000
0100
0001
,  // measure 24
0000
0001
0100
0010
1000
0001
0010
0000
,  // measure 25
0100
0000
0010
0000
0001
0000
0100
0010
,  // measure 26
0000
0010
1000
0100
0001
0010
0001
0000
,  // measure 27
0001
0010
0000
0010
0001
0000
0010
1000
,  // measure 28
0100
0010
0100
0001
,  // measure 29
0100
0010
0100
0000
0010
0000
0100
0000
,  // measure 30
0001
1000
0100
0000
1000
0001
0100
0000
,  // measure 31
0010
0000
1010
0000
0010
1000
0100
0001
,  // measure 32
0010
0000
0011
0000
0010
0001
0100
1000
,  // measure 33
0010
0000
1100
0000
0010
0100
0010
0000
,  // measure 34
0100
0000
0011
0000
0100
0010
0100
0000
,  // measure 35
0010
0000
1000
0000
0100
0100
1000
0000
,  // measure 36
0010
0000
0001
0000
0100
0100
0001
0000
,  // measure 37
0010
0100
0001
0000
0010
0100
1000
0000
,  // measure 38
0001
1000
0100
0000
1000
0001
0100
0010
,  // measure 39
0100
0000
0001
0000
0010
0000
0100
0010
,  // measure 40
0000
0010
0001
0010
0100
0000
1000
0000
,  // measure 41
0010
0000
0100
0000
0001
0000
0100
0010
,  // measure 42
0000
0010
0100
0001
0010
0100
1000
0010
,  // measure 43
0100
0000
0010
0000
1000
0000
0001
1000
,  // measure 44
0000
1000
0001
0010
0100
1000
0010
0000
,  // measure 45
0100
0000
0001
0000
0100
0010
1000
0000
,  // measure 46
0001
0000
0010
0000
0100
1000
0100
0010
,  // measure 47
0001
0000
1000
0000
0010
0100
1000
0010
,  // measure 48
0100
0000
0010
0000
0010
0100
0001
0010
,  // measure 49
0010
0000
0100
0000
0001
1000
0010
0100
,  // measure 50
0001
1000
0100
0000
0010
0000
0001
0011
,  // measure 51
0000
0001
0001
0010
0100
1000
0010
0100
,  // measure 52
0000
0100
0100
0010
1000
0001
0010
0000
,  // measure 53
0100
0011
0100
1100
,  // measure 54
1000
0100
0001
0000
0100
1000
0010
0000
,  // measure 55
0100
0000
0001
0000
0010
0001
0100
0000
,  // measure 56
0010
1000
0100
0000
0010
0100
0010
0000
,  // measure 57
0001
0000
0100
0000
0010
0100
0001
0000
,  // measure 58
0010
0100
0100
0000
1000
0100
0010
0001
,  // measure 59
0000
1001
1001
0000
0001
0000
0100
0010
,  // measure 60
0001
0100
1000
0000
0010
0100
1000
0000
,  // measure 61
0010
1010
0100
0101
,  // measure 62
1000
0100
0010
0001
1000
0100
0010
0001
,  // measure 63
1000
0000
0100
0000
1000
0100
0100
0000
,  // measure 64
1000
0000
0001
0000
0100
0001
0001
0000
,  // measure 65
0100
0000
0010
0000
1000
0001
0010
0000
,  // measure 66
0010
0000
0100
0000
0001
0010
0100
1000
,  // measure 67
0000
1010
1010
0000
0100
0000
0001
0100
,  // measure 68
0010
1000
0010
0000
1000
0001
0010
0000
,  // measure 69
0100
0200
0300
0010
0020
0030
0001
0002
,  // measure 70
0003
0001
0010
0100
1000
0000
0100
0000
,  // measure 71
1000
2000
3000
0001
0002
0003
0100
0200
,  // measure 72
0300
0010
0100
0001
1000
0100
0010
0001
,  // measure 73
0011
0011
0000
0101
0101
0000
1001
1001
,  // measure 74
0000
1000
0010
0100
0001
1000
0010
1000
,  // measure 75
0020
2030
3000
2000
3002
0003
0011
0011
;
