#TITLE:Blow;
#SUBTITLE:;
#ARTIST:Ke$ha;
#TITLETRANSLIT:;
#SUBTITLETRANSLIT:;
#ARTISTTRANSLIT:;
#GENRE:;
#CREDIT:Chewi☆;
#MENUCOLOR:#FFFFFF;
#METERTYPE:DDR X;
#BANNER:Blow.png;
#BACKGROUND:Blow-bg.png;
#LYRICSPATH:;
#CDTITLE:./CDTITLES/DanceDanceRevolution skyMIX3 -breeze-.png;
#MUSIC:Blow.mp3;
#OFFSET:-1.087;
#SAMPLESTART:41.083;
#SAMPLELENGTH:15.000;
#SELECTABLE:YES;
#LISTSORT:;
#DISPLAYBPM:120.000;
#BPMS:0.000=120.000;
#STOPS:;
#BGCHANGES:0.000=Blow.avi=1.000=1=1=0,
99999=-nosongbg-=1.000=0=0=0 // don't automatically add -songbackground-
;
#ATTACKS:;

//---------------dance-single - Chewi----------------
#NOTES:
     dance-single:
     Chewi:
     Beginner:
     1:
     0.074,0.089,0.012,0.049,0.000: // measure 1
0000
0000
0000
0000
,  // measure 2
0000
0000
0000
0000
,  // measure 3
0000
0000
0000
0000
,  // measure 4
0000
0000
0000
0000
,  // measure 5
0100
0000
0000
0000
,  // measure 6
0010
0000
0000
0000
,  // measure 7
1000
0000
0000
0000
,  // measure 8
0001
0000
0000
0000
,  // measure 9
0010
0000
0000
0000
,  // measure 10
0100
0000
0000
0000
,  // measure 11
1000
0000
0000
0000
,  // measure 12
0001
0000
0000
0000
,  // measure 13
1000
0000
0000
0000
,  // measure 14
0100
0000
0000
0000
,  // measure 15
0001
0000
0000
0000
,  // measure 16
1001
0000
0000
0000
,  // measure 17
0100
0000
0000
0000
,  // measure 18
0010
0000
0000
0000
,  // measure 19
1000
0000
0000
0000
,  // measure 20
0001
0000
0000
0000
,  // measure 21
2000
0000
0000
3000
,  // measure 22
1000
0000
0000
0000
,  // measure 23
0002
0000
0000
0003
,  // measure 24
0001
0000
0000
0000
,  // measure 25
0020
0000
0000
0030
,  // measure 26
0010
0000
0000
0000
,  // measure 27
0200
0000
0000
0300
,  // measure 28
0100
0000
0000
0000
,  // measure 29
1000
0000
1000
0000
,  // measure 30
0010
0000
0000
0000
,  // measure 31
0010
0000
0010
0000
,  // measure 32
1000
0000
0000
0000
,  // measure 33
0001
0000
0001
0000
,  // measure 34
0010
0000
0000
0000
,  // measure 35
0010
0000
0010
0000
,  // measure 36
0001
0000
0000
0000
,  // measure 37
1000
0000
0000
0000
;

//---------------dance-single - Chewi----------------
#NOTES:
     dance-single:
     Chewi:
     Easy:
     3:
     0.157,0.182,0.049,0.309,0.000: // measure 1
0000
0000
0000
0000
,  // measure 2
0000
0000
0000
0000
,  // measure 3
0000
0000
0000
0000
,  // measure 4
0000
0000
0000
0000
,  // measure 5
0001
0000
0001
0000
,  // measure 6
1000
0000
1000
0000
,  // measure 7
0010
0000
0010
0000
,  // measure 8
0001
0000
0001
0000
,  // measure 9
1000
0000
1000
0000
,  // measure 10
0001
0000
0001
0000
,  // measure 11
0100
0000
0100
0000
,  // measure 12
1000
0000
1000
0000
,  // measure 13
2000
0000
0000
0010
,  // measure 14
3002
0000
0000
0010
,  // measure 15
2000
0000
0000
3003
,  // measure 16
1001
0000
0000
0000
,  // measure 17
0002
0000
0000
0100
,  // measure 18
2003
0000
0000
0100
,  // measure 19
0002
0000
0000
3003
,  // measure 20
1001
0000
0010
0010
,  // measure 21
2000
0000
0000
3000
,  // measure 22
0200
0300
0002
0003
,  // measure 23
0002
0000
0000
0003
,  // measure 24
0200
0300
2000
3000
,  // measure 25
0020
0000
0000
0030
,  // measure 26
2000
3000
0020
0030
,  // measure 27
0002
0000
0000
0003
,  // measure 28
0020
0030
2000
3000
,  // measure 29
2002
0000
0000
3003
,  // measure 30
0100
0010
0100
0000
,  // measure 31
0020
0000
0000
0030
,  // measure 32
0010
0001
0100
0000
,  // measure 33
0220
0000
0000
0330
,  // measure 34
0100
0010
0100
0000
,  // measure 35
2000
0000
0000
3000
,  // measure 36
0100
1000
0010
0001
,  // measure 37
2000
0000
0000
3000
;

//---------------dance-single - Chewi----------------
#NOTES:
     dance-single:
     Chewi:
     Medium:
     6:
     0.215,0.250,0.086,0.198,0.000: // measure 1
0000
0000
0000
0000
,  // measure 2
0000
0000
0000
0000
,  // measure 3
0000
0000
0000
0000
,  // measure 4
0000
0000
0000
0000
,  // measure 5
2000
0100
3001
0000
,  // measure 6
0010
0100
0110
0000
,  // measure 7
0010
0000
0100
0000
,  // measure 8
1000
0000
0001
0000
,  // measure 9
0002
0100
1003
0000
,  // measure 10
0010
0100
0110
0000
,  // measure 11
0100
0000
0010
0000
,  // measure 12
1000
0000
1000
0000
,  // measure 13
0002
0000
0010
0000
,  // measure 14
2003
0000
0010
0000
,  // measure 15
3002
0000
0100
0000
,  // measure 16
2003
0000
0100
0100
,  // measure 17
3020
0000
0001
0000
,  // measure 18
0032
0000
0100
0000
,  // measure 19
0203
0000
1000
0000
,  // measure 20
2300
0000
0001
0010
,  // measure 21
3010
0100
0010
0100
,  // measure 22
0200
1000
1000
0300
,  // measure 23
1000
0100
0001
0010
,  // measure 24
0020
0100
0100
0030
,  // measure 25
0010
0100
0001
1000
,  // measure 26
0002
0000
0100
1003
,  // measure 27
0001
0010
0100
1000
,  // measure 28
0200
0000
1000
0301
,  // measure 29
0010
0001
0100
1000
,  // measure 30
0010
0010
0010
0000
0110
0000
0000
0000
,  // measure 31
0010
1000
0100
0001
,  // measure 32
0100
0100
0100
0000
0110
0000
0000
0000
,  // measure 33
1000
0001
0100
0010
,  // measure 34
1000
0001
1000
0000
1001
0000
0000
0000
,  // measure 35
0001
0010
0100
1000
,  // measure 36
0001
1000
0001
0000
1001
0000
0000
0000
,  // measure 37
0220
0000
0000
0330
;

//---------------dance-single - Chewi----------------
#NOTES:
     dance-single:
     Chewi:
     Hard:
     9:
     0.311,0.341,0.185,0.259,0.037: // measure 1
0000
0000
0000
0000
,  // measure 2
0000
0000
0000
0000
,  // measure 3
0000
0000
0000
0000
,  // measure 4
0000
0000
0000
0000
,  // measure 5
1000
0100
0010
0001
,  // measure 6
0010
1000
0100
0001
0000
0000
0000
0000
,  // measure 7
0001
1000
0100
0010
0000
0000
0000
0000
,  // measure 8
0010
0100
1000
0001
0000
0000
0000
0000
,  // measure 9
1000
0100
1000
0100
,  // measure 10
0001
0010
1000
0100
0000
0000
0000
0000
,  // measure 11
0100
0010
0100
0010
0000
0000
0000
0000
,  // measure 12
0010
0001
1000
0100
0000
0000
0000
0000
,  // measure 13
0001
0000
1000
0100
0000
0000
1000
0010
,  // measure 14
0000
0000
0001
0010
0000
0100
0000
1000
,  // measure 15
0000
0000
0001
1000
0000
0010
0000
0200
,  // measure 16
0000
0000
0000
0310
0001
0100
0010
1000
,  // measure 17
1000
0000
1000
0001
0000
0000
0010
1000
,  // measure 18
0000
0000
0100
0001
0000
0010
0000
1000
,  // measure 19
0100
0000
0010
0001
0000
1000
0000
0020
,  // measure 20
0000
0000
0000
0130
1000
0010
1000
0100
,  // measure 21
1010
0000
1000
0100
0000
1000
0100
0010
,  // measure 22
0002
0023
0032
0003
,  // measure 23
0011
0000
0001
0010
0000
0100
1000
0010
,  // measure 24
0200
0320
0230
0300
,  // measure 25
0110
0000
0010
0100
0000
0010
1000
0001
,  // measure 26
0020
0230
0320
0030
,  // measure 27
0011
0000
0000
0000
0000
0000
0001
0000
0000
0010
0000
0000
0000
0000
0000
0000
1000
0000
0000
0000
0010
0000
0000
0000
,  // measure 28
0001
0000
0000
1000
0000
0000
0010
0000
0100
0000
0000
0000
0010
0000
0000
0000
,  // measure 29
0210
0000
0000
0320
0000
1030
0001
0010
,  // measure 30
0100
1100
1001
0000
,  // measure 31
0210
0000
0000
0320
0000
0031
0010
0100
,  // measure 32
1000
1010
1001
0000
,  // measure 33
1002
0000
0000
2003
0000
3001
0010
0100
,  // measure 34
1000
1010
0101
0000
,  // measure 35
0102
0000
0000
0000
0000
0000
0000
0000
0000
2003
0000
0000
0000
0000
0000
3000
0001
0000
0000
0000
0010
0000
0000
0000
,  // measure 36
0100
0000
0000
1000
0000
0000
1000
0000
0010
0000
0000
0000
0100
0000
0000
0000
,  // measure 37
0220
0000
0000
0330
;
