#VERSION:0.83;
#TITLE:Blow;
#SUBTITLE:;
#ARTIST:Beyoncé;
#TITLETRANSLIT:;
#SUBTITLETRANSLIT:;
#ARTISTTRANSLIT:;
#GENRE:Pop;
#ORIGIN:;
#CREDIT:chewi;
#BANNER:Blow.png;
#BACKGROUND:Blow-bg.png;
#PREVIEWVID:;
#JACKET:Blow-jacket.png;
#CDIMAGE:;
#DISCIMAGE:;
#LYRICSPATH:;
#CDTITLE:cdtitle.png;
#MUSIC:Blow.ogg;
#OFFSET:-0.281883;
#SAMPLESTART:32.291000;
#SAMPLELENGTH:15.000000;
#SELECTABLE:YES;
#DISPLAYBPM:120.000000;
#BPMS:0.000=120.000;
#STOPS:;
#DELAYS:;
#WARPS:;
#TIMESIGNATURES:0.000=4=4;
#TICKCOUNTS:0.000=4;
#COMBOS:0.000=1;
#SPEEDS:0.000=1.000=0.000=0;
#SCROLLS:0.000=1.000;
#FAKES:;
#LABELS:0.000=Song Start;
#BGCHANGES:-0.582=Blow.avi=1.000=1=0=0=StretchNoLoop==CrossFade==,
158.000=Blow-bg.png=1.000=1=0=1===CrossFade==,
99999=-nosongbg-=1.000=0=0=0 // don't automatically add -songbackground-
;
#KEYSOUNDS:;
#ATTACKS:
;

//---------------dance-single - ----------------
#NOTEDATA:;
#CHARTNAME:;
#STEPSTYPE:dance-single;
#DESCRIPTION:;
#CHARTSTYLE:;
#DIFFICULTY:Beginner;
#METER:3;
#RADARVALUES:0.109669,0.170170,0.051179,0.102358,0.000000,60.000000,56.000000,4.000000,8.000000,0.000000,0.000000,0.000000,0.000000,0.000000,0.109669,0.170170,0.051179,0.102358,0.000000,60.000000,56.000000,4.000000,8.000000,0.000000,0.000000,0.000000,0.000000,0.000000;
#CREDIT:;
#DISPLAYBPM:120.000000;
#NOTES:
0000
0000
0000
0000
,
0000
0000
0000
0000
,
0000
0000
0000
0000
,
0000
0000
0000
0000
,
1000
0000
0000
0000
,
0100
0000
0100
0000
,
0001
0000
0000
0000
,
0100
0000
0100
0000
,
0200
0000
0000
0300
,
0100
0000
0000
0000
,
0020
0000
0000
0030
,
0010
0000
0000
0000
,
2000
0000
0000
3000
,
1000
0000
0000
0000
,
0002
0000
0000
0003
,
0001
0000
0000
0000
,
1001
0000
1000
0000
,
0001
0000
1000
0000
,
1001
0000
0001
0000
,
1000
0000
0001
0000
,
0110
0000
0010
0000
,
0100
0000
0010
0000
,
0110
0000
0100
0000
,
0010
0000
0100
0000
,
1000
1000
1000
0000
,
0001
0000
1000
0000
,
0200
0000
0000
0300
,
0020
0000
0000
0030
,
0001
0001
0001
0000
,
0000
1000
0000
0000
,
0020
0000
0000
0030
,
0200
0000
0000
0300
,
0001
0000
0100
0000
,
1000
0000
0010
0000
,
0001
0000
0100
0000
,
1000
0000
0100
0000
,
1000
0000
0100
0000
,
0001
0000
0010
0000
,
1000
0000
0000
0000
;

//---------------dance-single - ----------------
#NOTEDATA:;
#CHARTNAME:;
#STEPSTYPE:dance-single;
#DESCRIPTION:;
#CHARTSTYLE:;
#DIFFICULTY:Hard;
#METER:8;
#RADARVALUES:0.292452,0.340341,0.089563,0.179127,0.000000,160.000000,153.000000,7.000000,14.000000,0.000000,0.000000,0.000000,0.000000,0.000000,0.292452,0.340341,0.089563,0.179127,0.000000,160.000000,153.000000,7.000000,14.000000,0.000000,0.000000,0.000000,0.000000,0.000000;
#CREDIT:;
#DISPLAYBPM:120.000000;
#NOTES:
0000
0000
0000
0000
,
0000
0000
0000
0000
,
0000
0000
0000
0000
,
0000
0000
0000
0000
,
2000
0000
3001
0000
1000
0100
1000
0000
,
0001
0000
1000
0000
0010
0010
0010
0000
,
0200
0000
0310
0000
1000
0001
1000
0000
,
0001
0000
1000
0000
0001
0001
0001
0000
,
1000
0100
0001
0010
,
1000
0000
0100
0000
0001
1000
0001
0000
,
0001
0100
1000
0010
,
0001
0000
0100
0000
1000
0001
1000
0000
,
0001
0010
0100
1000
,
0001
0000
0010
0000
0100
1000
0100
0000
,
1000
0010
0100
0001
,
0202
0000
0303
0000
0100
0000
0001
0100
,
0002
1000
1003
0000
0010
0000
0100
0000
,
2000
0001
3001
0000
0010
0000
0100
0000
,
0200
0010
0310
0000
0001
0000
1000
0000
,
0020
0100
0130
0000
1000
0000
0001
0000
,
2000
0100
3100
0000
1000
0000
1100
0000
,
0002
0100
0103
0000
0001
0000
0101
0000
,
2000
0010
3010
0000
0010
0000
1010
0000
,
1000
0001
2000
3000
,
1000
0100
0001
1000
,
0010
0000
0001
0000
1000
1000
0001
0000
,
1002
0000
0100
0000
,
0010
0000
1003
1000
,
0001
0100
1000
0001
,
0010
0000
1000
0000
0001
1000
1000
0000
,
2001
0000
0010
0000
,
0100
0000
3010
0010
,
1000
0000
0001
1000
0100
0000
0100
0000
,
1000
0001
0100
0000
0010
0010
0000
0000
,
1000
0000
0001
1000
0100
0000
0100
0000
,
1000
0001
0100
0000
0100
0000
0110
0000
,
1000
0000
0001
0000
1000
0100
0010
0000
,
0001
0000
1000
0000
0001
0100
0001
0100
,
0001
0000
0000
0000
;

//---------------dance-single - ----------------
#NOTEDATA:;
#CHARTNAME:;
#STEPSTYPE:dance-single;
#DESCRIPTION:;
#CHARTSTYLE:;
#DIFFICULTY:Easy;
#METER:5;
#RADARVALUES:0.164504,0.218790,0.025590,0.127948,0.000000,90.000000,88.000000,2.000000,10.000000,0.000000,0.000000,0.000000,0.000000,1.000000,0.164504,0.218790,0.025590,0.127948,0.000000,90.000000,88.000000,2.000000,10.000000,0.000000,0.000000,0.000000,0.000000,1.000000;
#CREDIT:;
#DISPLAYBPM:120.000000;
#NOTES:
// measure 0
0000
0000
0000
0000
,  // measure 1
0000
0000
0000
0000
,  // measure 2
0000
0000
0000
0000
,  // measure 3
0000
0000
0000
0000
,  // measure 4
1000
0000
0100
0000
,  // measure 5
1000
0100
1000
0000
,  // measure 6
0001
0000
0100
0000
,  // measure 7
0001
0100
0001
0000
,  // measure 8
1000
1000
0001
0001
,  // measure 9
0001
0001
1000
1000
,  // measure 10
0100
0100
0010
0010
,  // measure 11
0010
0010
0100
0100
,  // measure 12
0010
0010
0001
0001
,  // measure 13
0001
0001
0010
0010
,  // measure 14
0100
0100
1000
1000
,  // measure 15
0100
0000
0000
0000
,  // measure 16
2000
0000
3100
0000
,  // measure 17
0002
0000
0103
0000
,  // measure 18
2000
0000
3010
0000
,  // measure 19
0002
0000
0013
0000
,  // measure 20
0020
0000
0130
0000
,  // measure 21
0200
0000
0310
0000
,  // measure 22
0020
0000
0031
0000
,  // measure 23
2000
0100
3100
0000
,  // measure 24
1000
0000
0001
0000
,  // measure 25
1000
0001
1000
0000
,  // measure 26
1001
0000
0100
0000
,  // measure 27
1000
0000
0010
0000
,  // measure 28
0001
0000
1000
0000
,  // measure 29
0001
1000
0001
0000
,  // measure 30
1001
0000
0100
0000
,  // measure 31
0001
0000
0010
0000
,  // measure 32
0020
0030
0010
0000
,  // measure 33
0010
0100
1000
0000
,  // measure 34
0200
0300
0100
0000
,  // measure 35
0100
0010
0001
0000
,  // measure 36
0001
0000
0100
0000
,  // measure 37
1000
0000
0100
0000
,  // measure 38
F000
0000
0000
0000
;

//---------------dance-single - ----------------
#NOTEDATA:;
#CHARTNAME:;
#STEPSTYPE:dance-single;
#DESCRIPTION:;
#CHARTSTYLE:;
#DIFFICULTY:Medium;
#METER:7;
#RADARVALUES:0.237617,0.291721,0.127948,0.243100,0.000000,130.000000,120.000000,10.000000,19.000000,0.000000,0.000000,0.000000,0.000000,1.000000,0.237617,0.291721,0.127948,0.243100,0.000000,130.000000,120.000000,10.000000,19.000000,0.000000,0.000000,0.000000,0.000000,1.000000;
#CREDIT:;
#DISPLAYBPM:120.000000;
#NOTES:
0000
0000
0000
0000
,
0000
0000
0000
0000
,
0000
0000
0000
0000
,
0000
0000
0000
0000
,
1000
0000
0100
0000
0010
0010
0010
0000
,
0001
0100
0010
0000
,
0100
0000
0010
0000
1000
1000
1000
0000
,
0100
0010
0002
0003
,
0001
1000
0001
1001
,
1000
0001
1000
1001
,
0100
0010
0100
0110
,
0010
0100
0010
0110
,
0010
1000
0001
1001
,
0001
1000
0010
1001
,
0010
0001
1000
1001
,
0220
0000
0000
0330
,
1000
0001
2000
3100
,
0001
1000
0002
0103
,
1000
0100
0020
0031
,
0001
0100
0020
1030
,
0100
0010
0200
0310
,
0010
0100
0020
0130
,
0010
0001
2000
3001
,
2000
0001
0200
3300
,
1000
0100
0010
0001
,
1000
0100
0001
0000
,
1001
0000
0100
0000
,
0010
0000
0100
0000
,
0010
1000
0001
0000
,
0000
1000
0001
0000
,
1001
0000
0100
0000
,
1000
0000
0001
0000
,
2000
3001
0002
1003
,
0001
1000
0100
0000
0020
0000
0030
0000
,
0200
0310
0020
0130
,
0010
0100
1000
0000
0200
0000
0300
0000
,
2000
0001
3010
0010
,
1000
0000
0001
0010
0100
0000
0000
0000
,
F000
0000
0000
0000
;

//---------------dance-single - ----------------
#NOTEDATA:;
#CHARTNAME:;
#STEPSTYPE:dance-single;
#DESCRIPTION:;
#CHARTSTYLE:;
#DIFFICULTY:Challenge;
#METER:12;
#RADARVALUES:0.497168,0.534821,0.435022,0.153537,0.083166,272.000000,238.000000,34.000000,12.000000,2.000000,0.000000,0.000000,0.000000,0.000000,0.497168,0.534821,0.435022,0.153537,0.083166,272.000000,238.000000,34.000000,12.000000,2.000000,0.000000,0.000000,0.000000,0.000000;
#CREDIT:;
#DISPLAYBPM:120.000000;
#NOTES:
0000
0000
0000
0000
,
0000
0000
0000
0000
,
0000
0000
0000
0000
,
0000
0000
0000
0000
,
1000
0000
0010
0000
1000
0000
0100
0000
1000
0000
0000
1000
0001
0000
0000
0000
,
0001
1000
0001
0000
1000
0000
0100
0000
1000
0000
0000
0000
1001
0000
0000
0000
,
0001
0000
0100
0000
0001
0000
0010
0000
0001
0000
0000
0001
1000
0000
0000
0000
,
1000
0001
1000
0000
0001
0000
0010
0000
0001
1000
0001
1000
0001
0000
0000
0000
,
1000
0100
0010
0100
1000
0100
1100
0000
,
0001
0010
0100
0010
0001
0010
0011
0000
,
0001
1000
0100
1000
0001
1000
1001
0000
,
1000
0001
0100
0001
1000
0001
1001
0000
,
1000
0010
0001
1000
0100
0001
0101
0000
,
0001
0100
1000
0001
0010
1000
1010
0000
,
1000
0010
0100
0010
1000
0100
0110
0000
,
2002
0000
0000
0000
3003
0000
0000
0000
0001
0000
0100
0000
0010
0000
1000
0001
,
1000
0100
1100
1100
0001
0100
0001
0001
,
1000
0010
1010
1010
0001
0010
0001
0001
,
1000
0001
1001
1001
1000
0001
0100
0100
,
0100
0010
0110
0110
0010
0100
0001
0001
,
0001
0010
1100
1100
1000
0001
1000
1000
,
1000
0010
0101
0101
0001
1000
0001
0001
,
1000
0001
1001
1001
1000
0100
0010
0010
,
0210
0000
0000
0000
2300
0000
0000
0000
3001
0100
0001
0100
0001
0000
0000
0000
,
1000
0010
0001
1000
0001
0010
1000
0001
,
0010
1000
0001
1000
0010
0001
1001
0000
,
0102
0103
2100
3100
,
1002
1003
2001
3001
,
0001
0100
1000
0001
1000
0100
0001
1000
,
0100
0001
1000
0001
0100
1000
1001
0000
,
2010
3010
0012
0013
,
2001
0000
0000
0000
3001
0000
0000
0000
1000
0001
1000
0001
1000
0000
0000
0000
,
0010
1000
0100
0001
1000
00M0
0001
0100
,
1000
0010
0001
1000
0100
0100
0000
0000
,
0100
0001
0010
1000
0001
0M00
1000
0010
,
0001
0100
1000
0001
0010
0000
0011
0000
,
0001
0000
0010
0000
0100
0000
0001
0000
0001
1000
0000
0100
0000
0000
0000
0000
,
1000
0010
0100
0001
2000
0000
3001
0000
,
0010
0000
0000
0000
;
