#TITLE:Black or White;
#SUBTITLE:;
#ARTIST:Michael Jackson;
#TITLETRANSLIT:;
#SUBTITLETRANSLIT:;
#ARTISTTRANSLIT:;
#GENRE:;
#CREDIT:Chewi☆;
#MENUCOLOR:#FFFF00;
#METERTYPE:DDR X;
#BANNER:Black or White.png;
#BACKGROUND:Black or White-bg.png;
#LYRICSPATH:;
#CDTITLE:;
#MUSIC:Black or White.mp3;
#OFFSET:-0.525;
#SAMPLESTART:33.935;
#SAMPLELENGTH:15.000;
#SELECTABLE:YES;
#LISTSORT:;
#DISPLAYBPM:115.000;
#BPMS:0.000=115.000;
#STOPS:;
#BGCHANGES:;
#ATTACKS:;

//---------------dance-single - Chewi----------------
#NOTES:
     dance-single:
     Chewi:
     Beginner:
     1:
     0.067,0.088,0.055,0.000,0.000:
0000
0000
0000
0000
,
0000
0000
0000
0000
,
0000
0000
0000
0000
,
0000
0000
0000
0000
,
1000
0000
0000
0000
,
1000
0000
0000
0000
,
0001
0000
0000
0000
,
0001
0000
0000
0000
,
1000
0000
0000
0000
,
0001
0000
0000
0000
,
0001
0000
0000
0000
,
1000
0000
0000
0000
,
0110
0000
0000
0000
,
0100
0000
0000
0000
,
0100
0000
0000
0000
,
0001
0000
0000
0000
,
0010
0000
0000
0000
,
0100
0000
0000
0000
,
0010
0000
0000
0000
,
1000
0000
0000
0000
,
0100
0000
0000
0000
,
0100
0000
0000
0000
,
1001
0000
0000
0000
,
0100
0000
0000
0000
,
0010
0000
0000
0000
,
0010
0000
0000
0000
,
0110
0000
0000
0000
,
1000
0000
0000
0000
,
0001
0000
0000
0000
,
0001
0000
0000
0000
,
0110
0000
0000
0000
,
0100
0000
0000
0000
,
0010
0000
0000
0000
,
0100
0000
0000
0000
,
0010
0000
0000
0000
,
0001
0000
0000
0000
,
1000
0000
0000
0000
,
0010
0000
0000
0000
,
0110
0000
0000
0000
,
0010
0000
0000
0000
,
0010
0000
0000
0000
,
0100
0000
0000
0000
,
0010
0000
0000
0000
,
0100
0000
0000
0000
,
1001
0000
0000
0000
,
1000
0000
0000
0000
,
0100
0000
0000
0000
,
0001
0000
0000
0000
,
0100
0000
0000
0000
;

//---------------dance-single - Chewi----------------
#NOTES:
     dance-single:
     Chewi:
     Easy:
     2:
     0.147,0.177,0.064,0.165,0.000:
0000
0000
0000
0000
,
0000
0000
0000
0000
,
0000
0000
0000
0000
,
0000
0000
0000
0000
,
2000
0000
0000
3000
,
1000
0001
1000
0000
,
0002
0000
0000
0003
,
0001
1000
0001
0000
,
1000
0000
0100
0000
,
0001
0000
0010
0000
,
0001
0000
0100
0000
,
1000
0000
0010
0000
,
0110
0000
0000
0000
,
0100
0100
0100
0100
,
0100
0000
1000
0000
,
0001
1000
0001
0000
,
0010
0000
0001
0000
,
0100
0000
1000
0000
,
0010
0000
0001
0000
,
1000
0001
1000
0000
,
0100
0000
0010
0000
,
0100
0010
0100
0000
,
2002
0000
0000
3003
,
0200
0000
0000
0300
,
0020
0000
0000
0030
,
0020
0000
0000
0030
,
0220
0000
0000
0330
,
2000
0000
0000
3000
,
0002
0000
0000
0003
,
0002
0000
0000
0003
,
0220
0000
0000
0330
,
0100
0000
1000
0000
,
0010
0000
0001
0000
,
0100
0000
0001
0000
,
0010
0000
1000
0000
,
0001
0000
0001
0000
,
1000
0000
1000
0000
,
0010
0100
0010
0000
,
0110
0000
0000
0000
,
0010
0010
0100
0000
,
0010
0000
0100
0000
,
0100
0100
0010
0000
,
0010
0100
0010
0000
,
0100
0000
1000
0000
,
2002
0000
0000
3003
,
2000
0000
3010
0000
,
0100
0100
0100
0000
,
0002
0000
0013
0000
,
0000
0110
0000
0000
;

//---------------dance-single - Chewi----------------
#NOTES:
     dance-single:
     Chewi:
     Medium:
     5:
     0.222,0.243,0.082,0.156,0.000:
0000
0000
0000
0000
,
0000
0000
0000
0000
,
0000
0000
0000
0000
,
0000
0000
0000
0000
,
0000
2000
3002
0003
,
0100
0000
0010
0100
0000
0000
0000
0000
,
0000
0020
0230
0300
,
0010
0000
1000
0001
0000
0000
0000
0000
,
0001
0010
0100
1000
,
0100
0001
0010
0000
,
1000
0010
0100
0001
,
0010
1000
0100
0000
,
0001
0001
0010
0000
,
1000
0100
0001
0100
,
1000
0020
0230
0300
,
0010
0000
1000
0001
0000
0000
0000
0000
,
1000
0100
0001
0010
,
0100
0010
0001
0100
,
0010
2000
3002
0003
,
0010
0000
0100
0010
0000
0000
0000
0000
,
0000
2000
3002
0003
,
0100
0000
0010
1000
0000
0000
0000
0000
,
1000
0001
0010
0110
,
0100
1000
0001
0100
,
0010
0100
0001
0101
,
1000
0010
1000
0010
,
1000
0100
0010
0011
,
0001
1000
0001
0100
,
0100
0010
0100
1001
,
1000
0100
0010
0001
,
2000
0000
0000
3000
,
0010
0000
0001
0000
,
0100
0001
0010
1000
,
0100
0000
1000
0000
,
0010
1000
0100
0001
,
0010
0100
0010
1001
,
1000
0010
0100
0001
,
0010
0100
0010
1001
,
0202
0000
0000
0303
,
0100
0010
1000
0010
,
0001
1000
0100
1000
,
0100
0020
0032
0003
,
0010
0000
0100
0010
0000
0000
0000
0000
,
0001
0100
1000
0100
,
2002
0000
0000
3003
,
1000
0000
0000
0010
0010
0000
0000
0000
,
0100
0001
0010
0100
,
0010
0000
0000
0100
0100
0000
0000
0000
,
0000
0110
0000
0000
;

//---------------dance-single - Chewi----------------
#NOTES:
     dance-single:
     Chewi:
     Hard:
     9:
     0.344,0.377,0.055,0.101,0.023:
0000
0000
0000
0000
,
0000
0000
0000
0000
,
0000
0000
0000
0000
,
0000
0000
0000
0000
,
0000
0000
1000
0001
0100
0010
0000
0000
,
0100
0010
0100
0020
0000
0000
0030
0000
,
0000
0000
1000
0100
0010
0001
0000
0000
,
0010
0001
0010
0002
0000
0000
0003
0000
,
0000
0001
1000
0010
0100
0001
1000
0100
,
0010
0001
0010
0001
0000
0000
0000
0000
,
0000
0001
0010
0100
1000
0001
0100
1000
,
0100
0001
1000
0100
0000
0000
0000
0000
,
0010
0000
0000
0010
0000
0000
0001
0000
0000
1000
0000
0000
0000
0000
0000
0000
,
0010
0001
0010
0000
0100
1000
0100
0000
,
0000
0000
1000
0001
0100
0010
0000
0000
,
0100
0100
0010
0020
0000
0000
0030
0000
,
1000
0100
1000
0100
0010
0001
0010
0001
,
0010
0100
1000
0001
0100
0010
0000
0010
,
0100
0010
0100
0001
0010
0010
0000
0000
,
0100
0010
0001
2000
0000
0001
3001
0000
,
0000
0000
1000
0010
0100
0001
0000
0000
,
1000
0001
1000
0002
0000
1000
1003
0000
,
0001
0010
0100
1000
0100
0010
0001
0000
,
1000
0100
0001
0100
1000
0010
0001
0000
,
0001
0010
0100
1000
0001
0010
0100
1000
,
0010
0100
1000
0001
0100
0010
1000
0000
,
0001
0100
0001
0100
0001
0010
0100
0000
,
1000
0010
1000
0010
1000
0010
0100
0000
,
0001
1000
0100
0010
0001
1000
0010
0100
,
0001
0100
0001
0100
1000
0100
1000
0100
,
0020
0000
0000
0000
,
0031
0000
0101
0000
1000
0100
0001
0000
,
0100
0000
0010
0000
0100
0010
0100
0010
,
1000
0000
1010
0000
0001
0010
1000
0000
,
0001
0000
0010
0000
0100
1000
0100
1000
,
0001
1000
0100
1000
0001
0100
0010
0000
,
1000
1001
0010
0110
,
0010
0001
0100
0001
0010
0001
0100
0000
,
0220
0000
0000
0000
0000
0000
0000
0330
,
0010
0000
0000
1000
0000
0000
0001
0000
0000
0010
0000
0000
0000
0000
0100
0000
,
1000
0000
0100
0000
0001
0100
1000
0001
,
0100
0000
0010
1000
0100
0001
0000
0000
,
0010
1000
0001
0020
0000
0000
0030
0000
,
0100
0010
0001
0010
0100
1000
0001
1000
,
0220
0000
0000
0330
,
1000
0010
0001
0000
0001
0100
1000
0000
,
1000
0100
0010
0001
0010
0010
0000
0010
,
0001
0100
1000
0000
1000
0010
0001
0000
,
0001
0000
0000
0000
0010
0000
0000
0000
0100
0000
0000
0000
0000
0100
0000
0000
0000
0000
0000
0000
0000
0000
0000
0000
0000
0000
0000
0000
0000
0000
0000
0000
;

//---------------dance-double - Chewi----------------
#NOTES:
     dance-double:
     Chewi:
     Easy:
     3:
     0.190,0.200,0.082,0.082,0.000: // measure 1
00000000
00000000
00000000
00000000
,  // measure 2
00000000
00000000
00000000
00000000
,  // measure 3
00000000
00000000
00000000
00000000
,  // measure 4
00000000
00000000
00000000
00000000
,  // measure 5
00000000
00010000
00001000
00000000
,  // measure 6
00001000
00000010
00000001
00000000
,  // measure 7
00000000
00000001
00001000
00000000
,  // measure 8
00001000
00010000
01000000
00000000
,  // measure 9
00000000
10000000
10000000
00100000
,  // measure 10
00200000
00000000
00000000
00300000
,  // measure 11
00000000
00010000
00010000
00001000
,  // measure 12
00000020
00000000
00000000
00000030
,  // measure 13
00000110
00000000
00001001
00000000
,  // measure 14
00000001
00001000
00000100
00010000
,  // measure 15
00001000
00100000
01000000
00000000
,  // measure 16
01000000
00100000
00010000
00000000
,  // measure 17
00010000
01000000
10000000
00100000
,  // measure 18
00020000
00000000
00230000
00000000
,  // measure 19
00310000
00001000
00000010
00000000
,  // measure 20
00000010
00001000
00000100
00000000
,  // measure 21
00000000
00000010
00000001
00000000
,  // measure 22
00001000
00000100
00010000
00000000
,  // measure 23
00001000
00001000
00010000
00010000
,  // measure 24
00001000
00010000
01000000
00010000
,  // measure 25
00100000
00100000
00010000
00010000
,  // measure 26
00010000
00001000
00000010
00001000
,  // measure 27
00000100
00000100
00001000
00001000
,  // measure 28
00010000
00001000
00010000
01000000
,  // measure 29
00010000
00010000
00100000
00100000
,  // measure 30
01000000
00100000
00010000
10000000
,  // measure 31
00200000
00000000
00000000
00300000
,  // measure 32
01000000
00000000
01100000
00000000
,  // measure 33
01000000
00010000
00001000
00000010
,  // measure 34
00000100
00000000
00001001
00000000
,  // measure 35
00000010
00001000
00010000
01000000
,  // measure 36
10000000
00000000
10010000
00000000
,  // measure 37
00100000
00010000
00001000
00000100
,  // measure 38
00000010
00000000
00000110
00000000
,  // measure 39
00002002
00000000
00000000
00003003
,  // measure 40
00000001
00000100
00001000
00000000
,  // measure 41
00001000
00001000
00010000
00010000
,  // measure 42
00001000
00010000
01000000
00000000
,  // measure 43
00100000
01000000
00100000
00000000
,  // measure 44
10000000
00000000
00010000
00000000
,  // measure 45
01100000
00000000
00000000
00000000
,  // measure 46
00100000
00010000
00001000
00000000
,  // measure 47
00000100
00000010
00000001
00000000
,  // measure 48
00000100
00000010
00001000
00000000
,  // measure 49
00000000
00022000
00033000
00000000
;

//---------------dance-double - Chewi----------------
#NOTES:
     dance-double:
     Chewi:
     Medium:
     6:
     0.259,0.266,0.128,0.046,0.000:
00000000
00000000
00000000
00000000
,
00000000
00000000
00000000
00000000
,
00000000
00000000
00000000
00000000
,
00000000
00000000
00000000
00000000
,
00000000
11000000
00110000
00000000
,
00010000
00000000
00001000
00000010
00000000
00000000
00000010
00000000
,
00000000
00000101
00001010
00000000
,
00000010
00000000
00001000
00010000
00000000
00000000
01000000
00000000
,
00100000
00000000
01000000
00000000
00100000
00010000
01000000
00000000
,
10000000
00100000
00010000
00100000
,
00001000
00000000
00010000
00000000
00001000
00000010
00000001
00000000
,
00000100
00001000
00000010
00000100
,
00001001
00000000
00000110
00000000
,
00000010
00001000
00000100
00010000
,
00001000
00000000
00100000
00000000
01000000
01000000
00000000
00000000
,
00100000
00000000
00010000
01000000
00000000
00000000
00000000
00000000
,
01000000
00100000
10000000
00010000
,
00100000
00001000
00011000
00001000
,
00000010
00000000
00000100
00000000
00000001
00000001
00000000
00000000
,
00000001
00000000
00000010
00000100
00000000
00000000
00001100
00000000
,
00000000
00000000
00000100
00000000
00010000
00001000
00000000
00000000
,
00100000
00000000
00010000
01000000
00000000
00000000
00000000
00000000
,
10000000
00000000
10000000
00000000
00100000
00100000
00100000
00000000
,
00010000
00000000
00010000
00000000
00001000
00001000
00001000
00000000
,
00000100
00000000
00000100
00000000
00000010
00000010
00000010
00000000
,
00000001
00001000
00000010
00000000
00001000
00000001
00000010
00000000
,
00000001
00000000
00000001
00000000
00000001
00000001
00000001
00000000
,
00000100
00000000
00000100
00000000
00000100
00000100
00000100
00000000
,
00001000
00000000
00010000
00000000
00001000
00010000
00001000
00000000
,
00010000
00000000
01000000
00000000
00100000
00100000
00100000
00000000
,
20020000
00000000
00000000
30030000
,
10000000
01000000
00100000
00010000
,
00001000
00000100
00010000
00001000
,
00001000
00000010
00000100
00000001
,
00000001
00000100
00001000
00000100
,
00000010
00001000
00000100
00010000
,
00001000
00100000
00010000
01000000
,
00100000
01000000
00010000
10000000
,
20020000
00000000
00000000
30030000
,
00100000
00000000
00100000
00000000
01000000
00100000
01000000
00000000
,
01000000
00000000
01000000
00000000
00010000
01000000
00010000
00000000
,
00100000
00000000
00001000
00010000
00001000
00010000
00000000
00000000
,
00010000
00000000
00001000
00000010
00000000
00000000
00000100
00000000
,
00000001
00000100
00001000
00000000
00001000
00000100
00000001
00000000
,
00001000
00000001
00001000
00000000
00000001
00000000
00000000
00000000
,
00001010
00000100
00001100
00000100
,
00010000
00001000
00100000
00010000
,
01010000
00100000
10100000
00010000
,
10000000
02000000
03000000
00000000
;

//---------------dance-double - Chewi----------------
#NOTES:
     dance-double:
     Chewi:
     Hard:
     9:
     0.340,0.355,0.073,0.082,0.005:
00000000
00000000
00000000
00000000
,
00000000
00000000
00000000
00000000
,
00000000
00000000
00000000
00000000
,
00000000
00000000
00000000
00000000
,
00000000
00000000
00000010
00000100
00000001
00001000
00000000
00000000
,
00000100
00000100
00001000
00001000
00000000
00000000
00011000
00000000
,
00000000
00000000
00001000
00010000
01000000
00010000
00000000
00000000
,
01000000
01000000
00100000
00100000
00000000
00000000
10000000
00000000
,
00010000
00000000
00100000
00000000
01000000
10000000
00100000
00000000
,
01000000
01000000
00100000
00100000
00000000
00000000
10000000
00000000
,
01000000
00000000
00100000
00010000
01000000
00000000
00010000
00000000
,
00001000
00001000
00000100
00000100
00000000
00000000
00000010
00000000
,
00000102
00000010
00001003
00000000
,
00001000
00000010
00000100
00000010
,
00002010
00000001
00003100
00010000
,
00000100
00010000
00001000
00100000
,
10000000
01000000
00010000
00000000
00010000
01000000
10000000
00000000
,
00200000
10000000
02300000
00100000
,
03100000
01000000
00010000
10000000
01000000
01000000
00000000
00000000
,
00100000
00010000
01000000
00010000
00000000
00000000
00110000
00000000
,
00000000
00000000
00100000
00010000
00001000
00000100
00000000
00000000
,
00001000
00000100
00000001
00000010
00000000
00000000
00000011
00000000
,
00000001
00000100
00000010
00000100
00000001
00000100
00000010
00000000
,
00001000
00000100
00000010
00000100
00001000
00000100
00001000
00000000
,
00000010
00001000
00000100
00010000
00001000
00010000
00001000
00000000
,
00001000
00010000
01000000
00010000
00100000
00010000
00100000
00000000
,
00010000
00100000
01000000
10000000
00100000
00100000
01000000
00000000
,
10000000
00100000
01000000
00010000
10000000
10000000
00010000
00000000
,
10000000
01000000
00100000
00010000
00100000
00100000
01000000
00000000
,
01000000
00100000
00010000
00001000
00000100
00000010
00000001
00000100
,
00000020
00000000
00000000
00000000
,
00001030
00000000
00001010
00000000
00000001
00000010
00001000
00000000
,
00000001
00000010
00000100
00001000
00000001
00000010
00000100
00001000
,
00000010
00001000
00000000
00000000
00000100
00010000
00001000
00000000
,
00001000
00001000
00010000
00010000
00100000
10000000
00100000
00010000
,
00100000
10000000
01000000
00000000
00100000
00010000
01000000
00000000
,
00100000
01000000
00010000
10000000
01000000
00100000
00010000
10000000
,
01000000
10000000
00100000
00000000
01000000
00010000
00100000
00000000
,
02200000
00000000
00000000
03300000
,
00010000
00000000
00100000
00000000
01000000
00100000
00010000
00000000
,
01000000
00000000
01000000
00000000
00100000
01000000
00010000
10000000
,
01000000
00000000
00100000
00010000
01000000
00010000
00000000
00000000
,
00100000
00100000
00001000
00001000
00000000
00000010
00000000
00000010
,
00000001
00000010
00001000
00000100
00000010
00000001
00000100
00000010
,
00002002
00000000
00000000
00003003
,
00000010
00000010
00000010
00000000
00001000
00001000
00001000
00000000
,
00000010
00001000
00000100
00010000
00001000
00100000
00010000
01000000
,
00100000
00100000
00100000
00000000
01000000
01000000
01000000
00000000
,
00010000
00000000
00000000
00100000
00000000
00000000
00001000
00000000
00000000
00000000
00010000
00000000
00000000
00000000
00000000
00000000
00000000
00000000
00000000
00000000
00000000
00000000
00000000
00000000
;
