#VERSION:0.83;
#TITLE:Bitch I'm Madonna (feat. Nicki Minaj);
#SUBTITLE:;
#ARTIST:Madonna;
#TITLETRANSLIT:;
#SUBTITLETRANSLIT:;
#ARTISTTRANSLIT:;
#GENRE:Trap-Pop;
#ORIGIN:;
#CREDIT:chewi;
#BANNER:Bitch I'm Madonna (feat. Nicki Minaj).png;
#BACKGROUND:Bitch I'm Madonna (feat. Nicki Minaj)-bg.png;
#PREVIEWVID:;
#JACKET:Bitch I'm Madonna (feat. Nicki Minaj)-jacket.png;
#CDIMAGE:;
#DISCIMAGE:;
#LYRICSPATH:;
#CDTITLE:cdtitle.png;
#MUSIC:Bitch I'm Madonna (feat. Nicki Minaj).ogg;
#OFFSET:-0.112000;
#SAMPLESTART:25.709999;
#SAMPLELENGTH:15.000000;
#SELECTABLE:YES;
#BPMS:0.000=150.000;
#STOPS:;
#DELAYS:;
#WARPS:;
#TIMESIGNATURES:0.000=4=4;
#TICKCOUNTS:0.000=4;
#COMBOS:0.000=1;
#SPEEDS:0.000=1.000=0.000=0;
#SCROLLS:0.000=1.000;
#FAKES:;
#LABELS:0.000=Song Start;
#BGCHANGES:0.000=Bitch I'm Madonna (feat. Nicki Minaj).avi=1.000=1=0=0=StretchNoLoop==CrossFade==,
99999=-nosongbg-=1.000=0=0=0 // don't automatically add -songbackground-
;
#KEYSOUNDS:;
#ATTACKS:
;

//---------------dance-single - ----------------
#NOTEDATA:;
#CHARTNAME:;
#STEPSTYPE:dance-single;
#DESCRIPTION:;
#CHARTSTYLE:;
#DIFFICULTY:Beginner;
#METER:2;
#RADARVALUES:0.082370,0.147282,0.075208,0.100277,0.000000,46.000000,40.000000,6.000000,8.000000,0.000000,0.000000,0.000000,0.000000,0.000000,0.082370,0.147282,0.075208,0.100277,0.000000,46.000000,40.000000,6.000000,8.000000,0.000000,0.000000,0.000000,0.000000,0.000000;
#CREDIT:;
#NOTES:
// measure 0
0000
0000
0000
0000
,  // measure 1
0000
0000
0000
0000
,  // measure 2
0000
0000
0000
0000
,  // measure 3
0000
0000
0000
0000
,  // measure 4
1000
0000
0000
0000
,  // measure 5
0001
0000
0000
0000
,  // measure 6
1001
0000
0000
0000
,  // measure 7
0110
0000
0000
0000
,  // measure 8
0200
0000
0000
0000
,  // measure 9
0000
0000
0000
0300
,  // measure 10
0020
0000
0000
0000
,  // measure 11
0000
0000
0000
0030
,  // measure 12
2000
0000
0000
0000
,  // measure 13
0000
0000
0000
3000
,  // measure 14
0002
0000
0000
0000
,  // measure 15
0000
0000
0000
0003
,  // measure 16
0001
0000
0000
0000
,  // measure 17
1000
0000
0000
0000
,  // measure 18
1001
0000
0000
0000
,  // measure 19
0110
0000
0000
0000
,  // measure 20
0100
0000
0000
0000
,  // measure 21
0010
0000
0000
0000
,  // measure 22
0110
0000
0000
0000
,  // measure 23
1001
0000
0000
0000
,  // measure 24
2000
0000
0000
0000
,  // measure 25
0000
0000
0000
3000
,  // measure 26
0002
0000
0000
0000
,  // measure 27
0000
0000
0000
0003
,  // measure 28
0020
0000
0000
0000
,  // measure 29
0000
0000
0000
0030
,  // measure 30
0200
0000
0000
0000
,  // measure 31
0000
0000
0000
0300
,  // measure 32
0100
0000
0100
0000
,  // measure 33
0100
0000
0000
0000
,  // measure 34
0100
0000
0100
0000
,  // measure 35
0100
0000
0000
0000
,  // measure 36
0010
0000
0010
0000
,  // measure 37
0010
0000
0000
0000
,  // measure 38
0010
0000
0010
0000
,  // measure 39
0010
0000
0000
0000
,  // measure 40
1000
0000
0000
0000
,  // measure 41
0001
0000
0000
0000
,  // measure 42
1000
0000
0000
0000
,  // measure 43
0001
0000
0000
0000
,  // measure 44
0100
0000
0000
0000
,  // measure 45
0010
0000
0000
0000
,  // measure 46
0100
0000
0000
0000
,  // measure 47
0010
0000
0000
0000
;

//---------------dance-single - ----------------
#NOTEDATA:;
#CHARTNAME:;
#STEPSTYPE:dance-single;
#DESCRIPTION:;
#CHARTSTYLE:;
#DIFFICULTY:Easy;
#METER:5;
#RADARVALUES:0.196973,0.269338,0.100277,0.100277,0.000000,110.000000,102.000000,8.000000,8.000000,0.000000,0.000000,0.000000,0.000000,0.000000,0.196973,0.269338,0.100277,0.100277,0.000000,110.000000,102.000000,8.000000,8.000000,0.000000,0.000000,0.000000,0.000000,0.000000;
#CREDIT:;
#NOTES:
// measure 0
0000
0000
0000
0000
,  // measure 1
0000
0000
0000
0000
,  // measure 2
0000
0000
0000
0000
,  // measure 3
0000
0000
0000
0000
,  // measure 4
2000
0000
0000
3000
,  // measure 5
0002
0000
0000
0003
,  // measure 6
1000
0001
1000
0000
,  // measure 7
0001
1000
0001
0000
,  // measure 8
1001
0000
0000
0000
,  // measure 9
0110
0000
0000
0000
,  // measure 10
1001
0000
0000
0000
,  // measure 11
0110
0000
0000
0000
,  // measure 12
1001
0000
1000
0000
,  // measure 13
1001
0000
0001
0000
,  // measure 14
1001
0000
0010
0000
,  // measure 15
1001
0000
0100
0000
,  // measure 16
0001
0001
0001
0001
,  // measure 17
0010
0010
0010
0010
,  // measure 18
1000
1000
1000
1000
,  // measure 19
0200
0000
0000
0300
,  // measure 20
1000
1000
1000
1000
,  // measure 21
0010
0010
0010
0010
,  // measure 22
0001
0001
0001
0001
,  // measure 23
0200
0000
0000
0300
,  // measure 24
0100
0000
0100
0000
,  // measure 25
0010
0000
0010
0000
,  // measure 26
1000
0000
1000
0000
,  // measure 27
0001
0000
0001
0000
,  // measure 28
1000
0000
1000
0000
,  // measure 29
0001
0000
0001
0000
,  // measure 30
0010
0000
0010
0000
,  // measure 31
0100
0000
0100
0000
,  // measure 32
0010
0000
0100
0000
,  // measure 33
1000
0001
1000
0000
,  // measure 34
0010
0000
0100
0000
,  // measure 35
0001
1000
0001
0000
,  // measure 36
1000
0000
0100
0000
,  // measure 37
0010
0001
0010
0000
,  // measure 38
0001
0000
0100
0000
,  // measure 39
0010
1000
0010
0000
,  // measure 40
2000
0000
0010
0000
,  // measure 41
0100
0000
0010
3010
,  // measure 42
0002
0000
0010
0000
,  // measure 43
0100
0000
0010
0013
,  // measure 44
2000
0000
0100
0000
,  // measure 45
0001
0000
0001
3001
,  // measure 46
0002
0000
0100
0000
,  // measure 47
1000
0000
1000
1003
;

//---------------dance-single - ----------------
#NOTEDATA:;
#CHARTNAME:;
#STEPSTYPE:dance-single;
#DESCRIPTION:;
#CHARTSTYLE:;
#DIFFICULTY:Medium;
#METER:7;
#RADARVALUES:0.361713,0.538676,0.589127,0.175485,0.000000,202.000000,155.000000,47.000000,14.000000,0.000000,0.000000,0.000000,0.000000,0.000000,0.361713,0.538676,0.589127,0.175485,0.000000,202.000000,155.000000,47.000000,14.000000,0.000000,0.000000,0.000000,0.000000,0.000000;
#CREDIT:;
#NOTES:
// measure 0
0000
0000
0000
0000
,  // measure 1
0000
0000
0000
0000
,  // measure 2
0000
0000
0000
0000
,  // measure 3
0000
0000
0000
0000
,  // measure 4
1010
0000
0100
0000
,  // measure 5
0001
0100
0101
0000
,  // measure 6
1001
1000
0001
0010
,  // measure 7
0100
1000
0001
1000
,  // measure 8
1001
0000
0010
0000
,  // measure 9
0000
1001
0010
0000
,  // measure 10
1001
0000
0010
0000
,  // measure 11
0000
1001
0010
0000
,  // measure 12
1001
0000
0010
1001
,  // measure 13
0000
1001
0010
0000
,  // measure 14
0100
0010
0100
0010
0100
0010
0100
0010
,  // measure 15
0100
0000
1000
0000
0001
1000
1000
0000
,  // measure 16
0012
1000
0100
1003
,  // measure 17
2010
0001
0100
3001
,  // measure 18
1000
0100
0010
0001
,  // measure 19
1000
0000
0100
1000
0100
0000
1100
0000
,  // measure 20
0001
1000
0010
0100
,  // measure 21
0001
1000
0100
0010
,  // measure 22
0001
0010
0100
1000
,  // measure 23
0001
0000
0010
0001
1000
0000
1001
0000
,  // measure 24
1020
0000
0230
0000
,  // measure 25
0302
0010
1000
0100
,  // measure 26
2003
0000
3002
0000
,  // measure 27
0023
0001
0100
0001
,  // measure 28
0032
0000
2003
0000
,  // measure 29
3200
1000
0010
1000
,  // measure 30
2300
0000
3002
0000
,  // measure 31
0203
0010
0001
0310
,  // measure 32
0010
0000
0010
0000
0100
0010
0100
0010
,  // measure 33
0000
0100
0010
0000
0000
0000
0000
0000
,  // measure 34
0000
0000
0000
0000
1000
0001
1000
0001
,  // measure 35
0000
1000
0001
0000
0000
0000
0000
0000
,  // measure 36
0000
0000
0000
0000
1000
0100
1000
0100
,  // measure 37
0000
1000
0100
0000
0000
0000
0000
0000
,  // measure 38
0000
0000
0000
0000
0010
0001
0010
0001
,  // measure 39
0000
0010
0001
0000
0000
0000
0000
0000
,  // measure 40
0011
0101
1100
1010
,  // measure 41
0011
0101
1100
1010
,  // measure 42
0011
0101
1100
1010
,  // measure 43
0011
1010
0011
1010
,  // measure 44
1010
1100
0101
0011
,  // measure 45
1010
1100
0101
0011
,  // measure 46
1010
1100
0101
0011
,  // measure 47
1010
0011
1010
0011
;

//---------------dance-single - ----------------
#NOTEDATA:;
#CHARTNAME:;
#STEPSTYPE:dance-single;
#DESCRIPTION:;
#CHARTSTYLE:;
#DIFFICULTY:Hard;
#METER:11;
#RADARVALUES:0.415433,0.448113,0.626731,0.025069,0.112812,232.000000,182.000000,50.000000,2.000000,0.000000,0.000000,0.000000,0.000000,0.000000,0.415433,0.448113,0.626731,0.025069,0.112812,232.000000,182.000000,50.000000,2.000000,0.000000,0.000000,0.000000,0.000000,0.000000;
#CREDIT:;
#OFFSET:-0.112000;
#BPMS:0.000000=75.000000
,16.000000=150.000000
,80.000000=75.000000
,112.000000=300.000000
;
#STOPS:112.000000=0.199997
,113.000000=0.200005
,114.000000=0.200005
,115.000000=0.200005
,116.000000=0.200005
,117.000000=0.200005
,118.000000=0.200005
,119.000000=0.200005
,120.000000=0.200005
,121.000000=0.200005
,122.000000=0.200005
,123.000000=0.200005
,124.000000=0.200005
,125.000000=0.200005
,126.000000=0.200005
,127.000000=0.200005
,128.000000=0.200005
,129.000000=0.200005
,130.000000=0.200005
,131.000000=0.200005
,132.000000=0.200005
,133.000000=0.200005
,134.000000=0.200005
,135.000000=0.200005
,136.000000=0.200005
,137.000000=0.200005
,138.000000=0.200005
,139.000000=0.200005
,140.000000=0.200005
,141.000000=0.200005
,142.000000=0.200005
,143.000000=0.200005
;
#DELAYS:;
#WARPS:;
#TIMESIGNATURES:0.000000=4=4
;
#TICKCOUNTS:0.000000=4
;
#COMBOS:0.000000=1
;
#SPEEDS:0.000000=1.000000=0.000000=0
;
#SCROLLS:0.000000=1.000000
;
#FAKES:;
#LABELS:0.000000=Song Start
;
#NOTES:
// measure 0
0000
0000
0000
0000
,  // measure 1
0000
0000
0000
0000
,  // measure 2
1000
0000
1000
0000
0001
0000
0001
0000
0100
0000
0100
0000
0010
0010
0010
0000
,  // measure 3
0000
0000
0000
0000
0000
0000
0100
0000
0000
0010
0000
0000
0100
0000
0000
0000
0010
0000
0000
0000
0000
1000
0000
0000
0000
0000
0000
1000
0000
0000
0001
0000
0000
0000
0000
0000
1000
0000
0000
0000
0000
0000
0010
0000
0000
0000
0000
0000
,  // measure 4
1010
0000
1001
0000
,  // measure 5
0000
1010
1001
0000
,  // measure 6
0011
0000
1001
0000
,  // measure 7
0000
0000
0000
0000
0011
0000
0000
0000
1001
0000
1000
0001
1000
0000
0000
0000
,  // measure 8
1001
0000
0101
1001
,  // measure 9
0000
1001
1100
0000
,  // measure 10
0220
0000
0000
0330
,  // measure 11
0010
0100
1000
0001
0100
0010
0100
0000
,  // measure 12
0010
1000
0100
0010
0001
0100
0010
0000
,  // measure 13
0100
0010
1000
0001
0100
0010
0100
0000
,  // measure 14
0001
0010
0100
1000
0001
0010
0100
0000
,  // measure 15
1000
0000
0001
1000
0100
0000
1001
0000
,  // measure 16
1000
0010
0100
0001
0010
0100
1000
0000
,  // measure 17
0010
0100
0001
0010
0100
1000
0010
0000
,  // measure 18
1000
0100
0010
0001
1000
0100
1000
0000
,  // measure 19
1001
0000
0100
0100
0010
0000
0010
0000
,  // measure 20
0110
0100
0010
0010
1000
1000
0100
0100
,  // measure 21
0001
0001
0010
0010
1000
1000
0100
0100
,  // measure 22
0110
0010
0100
0100
1000
1000
0010
0010
,  // measure 23
0001
0001
0100
0100
1000
1000
0010
0010
,  // measure 24
0000
0000
0000
0000
0100
0001
0100
0001
0000
0001
0100
0000
0000
0000
0000
0000
,  // measure 25
0000
0000
0000
0000
0100
0010
0100
0010
0000
0010
1000
0000
0000
0000
0000
0000
,  // measure 26
0000
0000
0000
0000
1000
0010
1000
0010
0000
0010
1000
0000
0000
0000
0000
0000
,  // measure 27
0000
0000
0000
0000
1000
0100
0010
0001
0000
1000
0001
0000
0000
0000
0000
0000
,  // measure 28
0101
0110
1010
0110
,  // measure 29
0101
0110
1010
1010
,  // measure 30
1100
0110
0011
0110
,  // measure 31
1100
0110
0011
0011
,  // measure 32
0101
1100
1010
0011
,  // measure 33
0101
1100
1010
0011
,  // measure 34
0011
1010
1100
0101
,  // measure 35
0011
1010
1100
0101
;
