#TITLE:Biometrics Warrior;
#SUBTITLE:;
#ARTIST:GUHROOVY fw. NO+CHIN;
#TITLETRANSLIT:;
#SUBTITLETRANSLIT:;
#ARTISTTRANSLIT:;
#GENRE:;
#CREDIT:Chewphoria~;
#MENUCOLOR:;
#METERTYPE:DDR;
#BANNER:Biometrics Warrior.png;
#BACKGROUND:Biometrics Warrior-bg.png;
#LYRICSPATH:;
#CDTITLE:;
#MUSIC:Biometrics Warrior.mp3;
#OFFSET:-8.978;
#SAMPLESTART:35.736;
#SAMPLELENGTH:15.000;
#SELECTABLE:YES;
#LISTSORT:;
#BPMS:0.000=107.510,48.000=215.020,112.000=107.510,160.000=215.020;
#STOPS:;
#BGCHANGES:;
#ATTACKS:;

//---------------dance-single - Chewphoria~----------------
#NOTES:
     dance-single:
     Chewphoria~:
     Beginner:
     3:
     0.126,0.177,0.099,0.000,0.000: // measure 1
0010
0000
0000
0000
,  // measure 2
0100
0000
0000
0000
,  // measure 3
0001
0000
1000
0000
,  // measure 4
0001
0000
1000
0000
,  // measure 5
1001
0000
0000
0000
,  // measure 6
0100
0000
0000
0000
,  // measure 7
0001
0000
0000
0000
,  // measure 8
0100
0000
0000
0000
,  // measure 9
1000
1000
0000
0000
,  // measure 10
0001
0001
0000
0000
,  // measure 11
0100
0100
0000
0000
,  // measure 12
0010
0010
0000
0000
,  // measure 13
0110
0000
0000
0000
,  // measure 14
1000
0000
0000
0000
,  // measure 15
0001
0000
0000
0000
,  // measure 16
0001
0001
0001
0000
,  // measure 17
1000
0000
0000
0000
,  // measure 18
0100
0000
0000
0000
,  // measure 19
0001
0000
0000
0000
,  // measure 20
0010
0000
0000
0000
,  // measure 21
0110
0000
0000
0000
,  // measure 22
1000
0000
0000
0000
,  // measure 23
1000
1000
1000
0000
,  // measure 24
1000
0000
0000
0000
,  // measure 25
0001
0000
0000
0000
,  // measure 26
0100
0000
0000
0000
,  // measure 27
0010
0000
0000
0000
,  // measure 28
0100
0000
0100
0000
,  // measure 29
0010
0000
0000
0000
,  // measure 30
0100
0000
0000
0000
,  // measure 31
1001
0000
1000
0000
,  // measure 32
0001
0000
0001
0000
,  // measure 33
0010
0000
0000
0000
,  // measure 34
1000
0000
0000
0000
,  // measure 35
1001
0000
0000
0000
,  // measure 36
0001
0000
0000
0000
,  // measure 37
0100
0000
0010
0000
,  // measure 38
0100
0000
0000
0000
,  // measure 39
0001
0000
1000
0000
,  // measure 40
0001
0000
0000
0000
,  // measure 41
0110
0000
0000
0000
,  // measure 42
1000
0000
0000
0000
,  // measure 43
0001
0000
0000
0000
,  // measure 44
0001
0001
0001
0000
,  // measure 45
1000
0000
0000
0000
,  // measure 46
0100
0000
0000
0000
,  // measure 47
0001
0000
0000
0000
,  // measure 48
0010
0000
0000
0000
,  // measure 49
0110
0000
0000
0000
,  // measure 50
1000
0000
0000
0000
,  // measure 51
1000
1000
1000
0000
,  // measure 52
1000
0000
0000
0000
,  // measure 53
0001
0000
0000
0000
,  // measure 54
0100
0000
0000
0000
,  // measure 55
0010
0000
0000
0000
,  // measure 56
0100
0000
0100
0000
,  // measure 57
0010
0000
0010
0000
,  // measure 58
0110
0000
0000
0000
,  // measure 59
0100
0000
0000
0000
,  // measure 60
0110
0000
0000
0000
,  // measure 61
1000
0000
1000
0000
,  // measure 62
1001
0000
0000
0000
,  // measure 63
0001
0000
0000
0000
,  // measure 64
1001
0000
0000
0000
,  // measure 65
1000
0000
0000
0000
,  // measure 66
0010
0000
0000
0000
,  // measure 67
0001
0000
0000
0000
,  // measure 68
0010
0000
0000
0000
,  // measure 69
1000
0000
0000
0000
,  // measure 70
0010
0000
0000
0000
,  // measure 71
0001
0000
0000
0000
,  // measure 72
0010
0000
0000
0000
,  // measure 73
0110
0000
0000
0000
;

//---------------dance-single - Chewphoria~----------------
#NOTES:
     dance-single:
     Chewphoria~:
     Easy:
     7:
     0.329,0.330,0.181,0.090,0.000: // measure 1
1000
0010
0001
0010
,  // measure 2
0000
0100
0000
0100
,  // measure 3
1000
0001
0001
1000
,  // measure 4
0010
0100
0100
0010
,  // measure 5
2000
0001
0000
3001
,  // measure 6
0002
1000
0000
1003
,  // measure 7
0020
0100
0000
0130
,  // measure 8
0200
0010
0000
0310
,  // measure 9
1000
0100
0001
0010
,  // measure 10
1000
0100
0001
0010
,  // measure 11
0010
0001
0100
1000
,  // measure 12
0010
0001
0100
2000
,  // measure 13
3001
1000
1001
0000
,  // measure 14
1000
0010
0001
0000
,  // measure 15
0001
0100
1000
0001
,  // measure 16
0100
0010
1000
0001
,  // measure 17
1001
0000
0110
0000
,  // measure 18
1001
0000
0110
0000
,  // measure 19
1000
0010
0100
0010
,  // measure 20
1000
0100
0010
0001
,  // measure 21
0010
0100
1001
0000
,  // measure 22
1000
0010
0001
0000
,  // measure 23
0001
0100
0010
0001
,  // measure 24
0100
0010
1000
0001
,  // measure 25
1001
0000
1000
0000
,  // measure 26
1000
0100
0001
0000
,  // measure 27
0001
0100
1000
0010
,  // measure 28
0100
1000
0010
0100
,  // measure 29
0001
0010
1000
0000
,  // measure 30
1000
0010
0001
0000
,  // measure 31
0001
0100
0010
0001
,  // measure 32
0100
1000
0010
0100
,  // measure 33
0020
1000
0000
1000
,  // measure 34
2030
0001
0000
0001
,  // measure 35
3002
0010
0000
0010
,  // measure 36
0023
0100
0000
0130
,  // measure 37
0011
0010
1000
0100
,  // measure 38
0101
0100
1000
0010
,  // measure 39
0001
1000
0001
1000
,  // measure 40
0010
0100
0010
0200
,  // measure 41
0301
1000
1001
0000
,  // measure 42
1000
0010
0001
0000
,  // measure 43
0001
0100
1000
0001
,  // measure 44
0100
0010
1000
0001
,  // measure 45
1001
0000
0110
0000
,  // measure 46
1001
0000
0110
0000
,  // measure 47
1000
0010
0100
0010
,  // measure 48
1000
0100
0010
0001
,  // measure 49
0010
0100
1001
0000
,  // measure 50
1000
0010
0001
0000
,  // measure 51
0001
0100
0010
0001
,  // measure 52
0100
0010
1000
0001
,  // measure 53
1001
0000
1000
0000
,  // measure 54
1000
0100
0001
0000
,  // measure 55
0001
0100
1000
0010
,  // measure 56
0100
1000
0010
0100
,  // measure 57
0100
0010
0100
0000
,  // measure 58
0110
0000
0110
0000
,  // measure 59
1000
0001
1000
0000
,  // measure 60
1001
0000
1001
0000
,  // measure 61
1000
0100
0010
0001
,  // measure 62
0011
0000
0011
0000
,  // measure 63
0001
0010
0100
1000
,  // measure 64
0100
0001
0100
1000
,  // measure 65
0010
0010
0010
0010
,  // measure 66
0100
0100
0100
0100
,  // measure 67
0001
0001
0001
0001
,  // measure 68
1000
1000
1000
1000
,  // measure 69
0001
1000
0001
1000
,  // measure 70
0010
0100
0010
0100
,  // measure 71
0010
0001
0100
1000
,  // measure 72
0010
0100
1000
0010
,  // measure 73
0200
0000
0000
0000
,  // measure 74
0300
0000
0000
0000
;

//---------------dance-single - Chewphoria~----------------
#NOTES:
     dance-single:
     Chewphoria~:
     Medium:
     10:
     0.447,0.450,0.214,0.107,0.004: // measure 1
0010
0000
0000
0000
0100
0000
0000
0000
0001
0000
0000
0001
0000
0000
0000
0000
,  // measure 2
0000
1000
1000
0000
0000
0010
0010
0000
,  // measure 3
1000
0100
0010
0001
,  // measure 4
0001
0010
0100
1000
,  // measure 5
0001
1000
0001
0000
1000
0000
1001
0000
,  // measure 6
1000
0001
1000
0000
0001
0000
1001
0000
,  // measure 7
0010
0001
0100
0000
1000
0000
0100
0000
,  // measure 8
0100
0001
0010
0000
0010
0000
1000
0000
,  // measure 9
1002
0010
0100
1003
,  // measure 10
2000
0100
0001
3010
,  // measure 11
0210
0001
0010
0310
,  // measure 12
0020
0000
0100
0000
1000
1000
1030
1000
,  // measure 13
0001
0000
0010
1000
0010
0000
0000
0000
,  // measure 14
1000
0000
0100
0010
0101
0000
0000
0000
,  // measure 15
0010
0100
1100
0010
,  // measure 16
0100
0001
0101
0010
,  // measure 17
1000
0010
1000
0000
0001
0000
0000
0100
,  // measure 18
0000
0100
0001
0100
0001
0000
0010
0000
,  // measure 19
1000
0001
1000
0000
0001
0000
0010
0000
,  // measure 20
0100
1000
0100
0010
,  // measure 21
0001
0010
0001
0000
0100
0000
0010
0000
,  // measure 22
1000
0010
1000
0000
0100
0000
1000
0000
,  // measure 23
0100
0001
0010
1000
,  // measure 24
0010
0001
0100
1000
,  // measure 25
0010
0100
0010
0000
0100
0001
0100
0000
,  // measure 26
0001
0101
1000
1100
,  // measure 27
1000
0001
1000
0000
0001
1000
0001
0000
,  // measure 28
0010
0010
0010
0000
0100
0100
0100
0000
,  // measure 29
1001
0000
1000
0000
0001
1000
0001
0000
,  // measure 30
0100
0000
0010
0000
0010
0100
0010
0000
,  // measure 31
1000
0000
0100
0000
0001
0100
0001
0000
,  // measure 32
0001
0000
0010
0000
1000
0010
1000
0000
,  // measure 33
0002
0000
1000
0000
0010
0010
0013
0000
,  // measure 34
2000
0000
0010
0000
0001
0001
3001
0000
,  // measure 35
0020
0000
0100
0000
1000
1000
1030
0000
,  // measure 36
2000
0000
0001
0000
0100
0100
3100
0000
,  // measure 37
1000
0100
0010
0000
0001
0000
0011
0000
,  // measure 38
0001
0100
0010
0000
1000
0000
1010
0000
,  // measure 39
0100
0010
1000
0000
0100
0000
0010
0000
,  // measure 40
0100
0010
0001
0100
1000
0010
0200
0000
,  // measure 41
0301
0000
0010
1000
0010
0000
0000
0000
,  // measure 42
1000
0000
0100
0010
0101
0000
0000
0000
,  // measure 43
0010
0100
1100
0010
,  // measure 44
0100
0001
0101
0010
,  // measure 45
1000
0010
1000
0000
0001
0000
0000
0100
,  // measure 46
0000
0100
0001
0100
0001
0000
0010
0000
,  // measure 47
1000
0001
1000
0000
0001
0000
0010
0000
,  // measure 48
0100
1000
0100
0010
,  // measure 49
0001
0010
0001
0000
0100
0000
0010
0000
,  // measure 50
1000
0010
1000
0000
0100
0000
1000
0000
,  // measure 51
0100
0001
0010
1000
,  // measure 52
0010
0001
0100
1000
,  // measure 53
0010
0100
0010
0000
0100
0001
0100
0000
,  // measure 54
0001
0101
1000
1100
,  // measure 55
1000
0001
1000
0000
0001
1000
0001
0000
,  // measure 56
0010
0010
0010
0000
0100
0100
0100
0000
,  // measure 57
0010
0000
0001
0010
0100
0000
1000
0000
,  // measure 58
1100
1100
1100
1100
,  // measure 59
1000
0100
0010
0000
0001
0010
0100
0000
,  // measure 60
0110
0110
0110
0110
,  // measure 61
0010
0001
0010
0000
0100
0000
1000
0000
,  // measure 62
1000
0010
1000
0000
0100
0000
0001
0000
,  // measure 63
0100
0010
1000
0001
,  // measure 64
0010
0010
0010
0010
,  // measure 65
0100
0010
0100
0000
0010
0000
0001
0000
,  // measure 66
1000
0100
1000
0000
0001
0000
1000
0000
,  // measure 67
0010
0100
0010
0000
0100
0000
0001
0000
,  // measure 68
0100
0010
0100
0000
0001
0000
1000
0000
,  // measure 69
0200
0010
0001
0310
,  // measure 70
0020
1000
0100
1030
,  // measure 71
1000
0010
0100
0001
,  // measure 72
0100
0010
0100
0000
0001
1000
0001
0000
,  // measure 73
2002
0000
0000
0000
,  // measure 74
3003
0000
0000
0000
;

//---------------dance-single - Chewphoria~----------------
#NOTES:
     dance-single:
     Chewphoria~:
     Hard:
     13:
     0.626,0.750,0.288,0.016,0.119: // measure 1
1000
0000
0000
0000
1000
0000
0000
0000
0001
0000
0000
0001
0000
0000
0000
0000
,  // measure 2
0000
0000
0010
0100
0010
0000
0000
0000
0000
0000
0100
0010
0100
0000
0000
0000
,  // measure 3
0010
0001
0100
0000
0010
1000
0100
0000
,  // measure 4
0100
1000
0010
0100
0001
0010
0100
0000
,  // measure 5
0011
0010
0100
1000
1100
0100
0010
0001
,  // measure 6
0110
0100
0001
0100
1010
1000
0100
0010
,  // measure 7
0001
0010
0001
0000
1000
0000
0100
0000
1000
0100
1000
0000
0001
0000
0010
0000
,  // measure 8
0100
0000
0100
0000
0010
0000
0010
0000
0001
0010
0100
1000
0010
0000
0100
0000
,  // measure 9
1001
1000
1000
1000
1000
1000
1000
1000
,  // measure 10
0010
0010
0010
0010
0010
0010
0010
0010
,  // measure 11
0010
0100
0001
0100
0010
1000
0100
0010
,  // measure 12
0001
0000
0010
0000
0100
0000
1000
0000
0001
1000
0001
1000
0001
1000
0001
0000
,  // measure 13
0001
0100
0010
1000
0001
0000
0000
1000
,  // measure 14
0000
0100
0010
0001
0010
0000
0000
0000
,  // measure 15
0100
0000
1000
0010
0000
0000
0100
0000
,  // measure 16
0001
0000
0001
0000
1010
0101
0000
0000
,  // measure 17
0001
0010
0100
1000
0001
0010
0100
0000
,  // measure 18
1000
0010
0100
0001
1000
0010
0100
0000
,  // measure 19
0001
0100
0001
0100
0010
0100
0010
0100
,  // measure 20
0010
1000
0010
1000
0001
1000
0001
0000
,  // measure 21
1000
0100
0010
0001
0010
0000
1000
0001
,  // measure 22
1000
0010
0100
0001
0100
0000
0010
0000
,  // measure 23
0010
1000
0100
0010
0001
0010
0100
1000
,  // measure 24
1001
1010
0101
0011
,  // measure 25
0001
0010
0100
1000
0001
0010
0100
1000
,  // measure 26
0010
0100
0001
0100
0010
1000
0001
0010
,  // measure 27
0100
0100
0010
0010
0001
0001
0010
0010
,  // measure 28
0100
1000
0001
0100
0010
1000
0001
0010
,  // measure 29
0100
0000
0000
0100
0000
0000
0010
0000
0001
0000
0000
0001
0000
0000
0100
0000
,  // measure 30
0010
0000
0000
0010
0000
0000
1000
0000
0001
0000
0000
0001
0000
0000
1000
0000
,  // measure 31
0100
0000
0000
0100
0000
0000
1000
0000
0010
0000
0000
0010
0000
0000
0100
0000
,  // measure 32
0001
0000
0000
0001
0000
0000
0100
0000
0010
0000
0000
1000
0001
0000
0010
0000
,  // measure 33
0100
0000
0000
0100
0000
0000
0010
0000
0001
0000
0000
0001
0000
0000
1000
0000
,  // measure 34
0100
0000
0000
0100
0000
0000
1000
0000
0001
0000
0000
1000
0001
0000
0100
0000
,  // measure 35
0010
0000
0000
0010
0000
0000
0100
0000
0001
0000
0000
0001
0000
0000
1000
0000
,  // measure 36
0100
0000
0000
0001
0000
0000
0100
0000
1000
0000
0000
0010
0100
0000
0000
0000
,  // measure 37
0001
0100
0010
1000
0001
0001
0001
0001
,  // measure 38
1000
0100
0010
0001
1000
1000
1000
1000
,  // measure 39
1001
0000
0010
0000
1010
0000
0100
0000
0001
0000
0100
0001
0100
0000
0010
0000
,  // measure 40
1001
0000
0010
0000
0110
0000
1000
0000
1001
0000
0100
0001
0100
0001
0100
0000
,  // measure 41
0001
0100
0010
1000
0001
0000
0000
1000
,  // measure 42
0000
0100
0010
0001
0010
0000
0000
0000
,  // measure 43
0100
0000
1000
0010
0000
0000
0100
0000
,  // measure 44
0001
0000
0001
0000
1010
0101
0000
0000
,  // measure 45
0001
0010
0100
1000
0001
0010
0100
0000
,  // measure 46
1000
0010
0100
0001
1000
0010
0100
0000
,  // measure 47
0001
0100
0001
0100
0010
0100
0010
0100
,  // measure 48
0010
1000
0010
1000
0001
1000
0001
0000
,  // measure 49
1000
0100
0010
0001
0010
0000
1000
0001
,  // measure 50
1000
0010
0100
0001
0100
0000
0010
0000
,  // measure 51
0010
1000
0100
0010
0001
0010
0100
1000
,  // measure 52
1001
1010
0101
0011
,  // measure 53
0001
0010
0100
1000
0001
0010
0100
1000
,  // measure 54
0010
0100
0001
0100
0010
1000
0001
0010
,  // measure 55
0100
0100
0010
0010
0001
0001
0010
0010
,  // measure 56
0100
1000
0001
0100
0010
1000
0001
0010
,  // measure 57
0100
1000
0010
0100
0001
0100
0010
0100
,  // measure 58
0110
0110
1001
1001
,  // measure 59
1000
0100
0010
0001
0010
0100
1000
0001
,  // measure 60
1010
0101
0011
1100
,  // measure 61
1000
0100
0010
0001
0100
0010
1000
0001
,  // measure 62
1010
0011
0101
1100
,  // measure 63
1000
0100
0010
0001
0010
0100
1000
0010
,  // measure 64
0100
0001
0100
0010
1000
0001
1000
0000
,  // measure 65
0001
0010
0100
0010
0001
0010
0100
0000
,  // measure 66
0010
0001
0010
0100
1000
0010
0100
0000
,  // measure 67
0010
0100
1000
0100
0001
0010
0100
0010
,  // measure 68
0001
0010
0100
1000
0010
0100
0001
0000
,  // measure 69
0100
0010
1000
0001
0010
0100
0010
0000
,  // measure 70
0001
0010
0100
0000
1000
0100
1000
0000
,  // measure 71
1000
0100
0010
0001
0010
0100
1000
0010
,  // measure 72
0100
0001
0100
0010
1000
0001
1000
0000
,  // measure 73
2002
0000
0000
0000
,  // measure 74
3003
0000
0000
0000
;
