#TITLE:Bingo Highway;
#SUBTITLE:;
#ARTIST:杉山圭一;
#TITLETRANSLIT:;
#SUBTITLETRANSLIT:;
#ARTISTTRANSLIT:Keiichi Sugiyama;
#GENRE:Video Game Music;
#CREDIT:steps by chewi;
#BANNER:Bingo Highway.png;
#BACKGROUND:Bingo Highway-bg.png;
#LYRICSPATH:;
#CDTITLE:cdtitle.png;
#MUSIC:Bingo Highway.ogg;
#OFFSET:-0.229000;
#SAMPLESTART:0.160000;
#SAMPLELENGTH:12.000000;
#SELECTABLE:YES;
#BPMS:0.000000=161.000000
;
#STOPS:
;
#BGCHANGES:;
#KEYSOUNDS:;
#ATTACKS:;

//---------------dance-single - ----------------
#NOTES:
     dance-single:
     :
     Beginner:
     2:
     0.132343,0.197633,0.061760,0.000000,0.000000,90.000000,84.000000,6.000000,0.000000,0.000000,0.000000,0.132343,0.197633,0.061760,0.000000,0.000000,90.000000,84.000000,6.000000,0.000000,0.000000,0.000000:
0000
0000
0000
0000
,
0000
0000
0000
0000
,
0000
0000
0000
0000
,
0000
0000
0000
0000
,
0000
0000
0000
0000
,
1001
0000
0000
0000
,
1000
0000
0000
0000
,
0001
0000
0000
0000
,
0100
0000
0000
0000
,
0110
0000
0000
0000
,
0010
0000
0000
0000
,
0100
0000
0000
0000
,
0001
0000
0000
0000
,
1001
0000
0000
0000
,
1000
0000
0000
0000
,
0001
0000
0000
0000
,
0010
0000
0000
0000
,
0110
0000
0000
0000
,
0100
0100
0100
0000
,
0010
0000
0000
0000
,
0010
0010
0010
0000
,
0100
0000
0000
0000
,
1000
1000
1000
0000
,
0001
0000
0000
0000
,
0001
0001
0001
0000
,
1000
0000
0000
0000
,
0100
0000
0000
0000
,
0001
0000
0000
0000
,
0010
0000
0000
0000
,
1000
0000
0000
0000
,
0010
0000
0000
0000
,
0001
0000
0000
0000
,
0100
0000
0000
0000
,
1000
0000
1000
0000
,
1000
0000
1000
0000
,
0001
0000
0001
0000
,
0001
0000
0001
0000
,
0100
0000
0100
0000
,
0100
0000
0100
0000
,
0010
0000
0010
0000
,
0010
0000
0010
0000
,
1000
0000
0001
0000
,
1000
0000
0001
0000
,
0001
0000
1000
0000
,
0001
0000
1000
0000
,
0100
0000
0010
0000
,
0100
0000
0010
0000
,
0001
0000
0010
0000
,
0001
0000
0010
0000
,
0001
0000
0000
0000
,
1000
0000
0000
0000
,
0001
0000
0000
0000
,
1000
0000
0000
0000
,
0010
0000
0000
0000
,
0100
0000
0000
0000
,
0010
0000
0000
0000
,
0100
0000
0000
0000
,
0110
0000
0000
0000
,
1000
0000
0000
0000
,
0001
0000
0000
0000
,
1000
0000
0000
0000
,
1001
0000
0000
0000
,
0010
0000
0000
0000
,
0100
0000
0000
0000
,
0010
0000
0000
0000
;

//---------------dance-single - ----------------
#NOTES:
     dance-single:
     :
     Easy:
     5:
     0.311742,0.333248,0.041173,0.082347,0.000000,212.000000,208.000000,4.000000,8.000000,0.000000,0.000000,0.311742,0.333248,0.041173,0.082347,0.000000,212.000000,208.000000,4.000000,8.000000,0.000000,0.000000:
// measure 0
0000
0000
0000
0000
,  // measure 1
0000
0000
0000
0000
,  // measure 2
0000
0000
0000
0000
,  // measure 3
0000
0000
0000
0000
,  // measure 4
0000
0000
0000
0000
,  // measure 5
1000
1000
0100
0100
,  // measure 6
0010
0010
0001
0001
,  // measure 7
1000
1000
0010
0010
,  // measure 8
0100
0100
0100
0100
,  // measure 9
0010
0010
0100
0100
,  // measure 10
0001
0001
1000
1000
,  // measure 11
0100
0100
0010
0010
,  // measure 12
0001
0001
1000
1000
,  // measure 13
0100
0100
0010
0010
,  // measure 14
0001
0001
1000
1000
,  // measure 15
0010
0010
0100
0100
,  // measure 16
0010
0100
0010
0100
,  // measure 17
0001
1000
0100
0010
,  // measure 18
0001
1000
0001
1000
,  // measure 19
0001
0100
0010
1000
,  // measure 20
0001
1000
0001
1000
,  // measure 21
0100
0010
0001
0010
,  // measure 22
0100
0010
0001
0010
,  // measure 23
0100
1000
0010
1000
,  // measure 24
0100
1000
0010
1000
,  // measure 25
0200
0000
0000
0300
,  // measure 26
0020
0000
0000
0030
,  // measure 27
0002
0000
0000
0003
,  // measure 28
2000
0000
0000
3000
,  // measure 29
0002
0000
0000
0003
,  // measure 30
0200
0000
0000
0300
,  // measure 31
0020
0000
0000
0030
,  // measure 32
2000
0000
0000
3000
,  // measure 33
1000
1000
1000
1000
,  // measure 34
0010
0010
0010
0010
,  // measure 35
0001
0001
0001
0001
,  // measure 36
0100
0100
0100
0100
,  // measure 37
1000
1000
1000
1000
,  // measure 38
0010
0010
0010
0010
,  // measure 39
0001
0001
0001
0001
,  // measure 40
0100
0100
0100
0100
,  // measure 41
1000
0100
0001
0100
,  // measure 42
1000
0100
0001
0100
,  // measure 43
1000
0001
1000
0001
,  // measure 44
1001
0000
0110
0000
,  // measure 45
0010
0100
0010
0100
,  // measure 46
0001
1000
0001
1000
,  // measure 47
0100
0010
0100
0010
,  // measure 48
0110
0000
1001
0000
,  // measure 49
0001
0010
0100
0001
,  // measure 50
0010
0100
0001
0000
,  // measure 51
0001
0010
1000
0100
,  // measure 52
0001
0010
1000
0000
,  // measure 53
1000
0100
0010
1000
,  // measure 54
0100
0010
1000
0000
,  // measure 55
0100
0001
0010
1000
,  // measure 56
0100
0001
0010
0000
,  // measure 57
0100
0100
0010
0010
,  // measure 58
0001
0001
1000
1000
,  // measure 59
0100
0100
0010
0010
,  // measure 60
0001
0001
1000
1000
,  // measure 61
0010
0010
0100
0100
,  // measure 62
0001
0001
1000
1000
,  // measure 63
0001
0001
0010
0010
,  // measure 64
0100
0100
0100
0100
;

//---------------dance-single - ----------------
#NOTES:
     dance-single:
     :
     Medium:
     7:
     0.366150,0.464745,0.205867,0.000000,0.000000,249.000000,229.000000,20.000000,0.000000,0.000000,0.000000,0.366150,0.464745,0.205867,0.000000,0.000000,249.000000,229.000000,20.000000,0.000000,0.000000,0.000000:
// measure 0
0000
0000
0000
0000
,  // measure 1
0000
0000
0000
0000
,  // measure 2
0000
0000
0000
0000
,  // measure 3
0000
0000
0000
0000
,  // measure 4
0000
0000
0000
0000
,  // measure 5
1000
0100
0001
0100
,  // measure 6
1000
0100
0001
0100
,  // measure 7
1000
0010
0001
0010
,  // measure 8
0010
0000
0000
0000
,  // measure 9
0010
0100
0001
0100
,  // measure 10
0010
0100
0001
0100
,  // measure 11
0010
0100
0001
0100
,  // measure 12
0010
1000
0100
0010
,  // measure 13
0100
1000
0100
0010
,  // measure 14
0100
1000
0100
0010
,  // measure 15
0100
1000
0100
0010
,  // measure 16
0001
0100
1000
0010
,  // measure 17
0001
0100
0010
0100
,  // measure 18
0001
0100
0010
0100
,  // measure 19
0001
0100
0010
0100
,  // measure 20
0010
1000
0100
0001
,  // measure 21
0010
0100
0001
0100
,  // measure 22
0010
0100
1000
0100
,  // measure 23
0010
0100
0001
0100
,  // measure 24
0010
0100
0001
1000
,  // measure 25
0100
0100
0100
0100
,  // measure 26
0010
0010
0010
0010
,  // measure 27
0001
0001
0001
0001
,  // measure 28
1000
1000
1000
1000
,  // measure 29
0010
0010
0010
0010
,  // measure 30
0100
0100
0100
0100
,  // measure 31
0001
0001
0001
0001
,  // measure 32
1000
1000
1000
1000
,  // measure 33
0001
0101
1000
1100
,  // measure 34
0001
0101
1000
1100
,  // measure 35
0001
0011
1000
1010
,  // measure 36
0001
0011
1000
1010
,  // measure 37
0001
0101
1000
1100
,  // measure 38
0001
0101
1000
1100
,  // measure 39
0001
0011
1000
1010
,  // measure 40
0001
0011
1000
1010
,  // measure 41
0010
0010
0010
0010
,  // measure 42
0001
0001
0001
0001
,  // measure 43
0100
0100
0100
0100
,  // measure 44
1000
1000
1000
1000
,  // measure 45
0010
0001
0010
0001
,  // measure 46
0100
1000
0100
1000
,  // measure 47
0010
0001
0010
0001
,  // measure 48
0100
1000
0100
1000
,  // measure 49
0010
0001
0100
0000
,  // measure 50
1000
0010
0001
0000
,  // measure 51
0100
1000
0010
0000
,  // measure 52
0001
0100
1000
0010
,  // measure 53
0001
0010
1000
0000
,  // measure 54
0100
0001
0010
0000
,  // measure 55
1000
0100
0001
0000
,  // measure 56
0010
1000
0100
0001
,  // measure 57
0010
1000
0100
0001
,  // measure 58
0010
0001
0010
0100
,  // measure 59
0010
0001
0010
0100
,  // measure 60
0110
1000
0110
0001
,  // measure 61
1000
0100
1000
0001
,  // measure 62
1000
0100
1000
0010
,  // measure 63
1000
0100
1000
0001
,  // measure 64
1100
0000
0101
0000
;

//---------------dance-single - ----------------
#NOTES:
     dance-single:
     :
     Hard:
     11:
     0.560253,0.599846,0.319094,0.000000,0.000000,381.000000,350.000000,31.000000,0.000000,108.000000,0.000000,0.560253,0.599846,0.319094,0.000000,0.000000,381.000000,350.000000,31.000000,0.000000,108.000000,0.000000:
// measure 0
0000
0000
0000
0000
,  // measure 1
0000
MMMM
0000
0000
0000
MMMM
0000
0000
,  // measure 2
0000
MMMM
0000
0000
0000
MMMM
0000
0000
,  // measure 3
0000
MMMM
0000
0000
0000
MMMM
0000
0000
,  // measure 4
0000
MMMM
0000
0000
0000
MMMM
0000
MMMM
,  // measure 5
1000
0000
0100
0000
0001
0010
1000
0000
,  // measure 6
0100
0000
0001
0000
0010
1000
0100
0000
,  // measure 7
0001
0000
0010
0000
1000
0100
0001
0000
,  // measure 8
0010
0000
0000
0000
,  // measure 9
0010
0000
0001
0000
0010
0001
0010
0000
,  // measure 10
0100
0000
1000
0000
0100
1000
0100
0000
,  // measure 11
1000
0000
0001
0000
1000
0001
1000
0000
,  // measure 12
0001
0000
1000
0000
0001
1000
0001
0000
,  // measure 13
0100
0000
0010
0000
0100
0010
0100
0000
,  // measure 14
0010
0000
0100
0000
0010
0100
0010
0000
,  // measure 15
0100
0000
0010
0000
1000
0010
1000
0000
,  // measure 16
0010
0000
0100
0000
0001
0100
0001
0000
,  // measure 17
1000
0100
0010
0001
,  // measure 18
1000
0100
0010
0001
1000
0100
0010
0001
,  // measure 19
1000
0010
0100
0001
,  // measure 20
1000
0010
0100
0001
1000
0010
0100
0001
,  // measure 21
1000
0100
0001
0100
,  // measure 22
1000
0100
0001
0100
1000
0100
0001
0000
,  // measure 23
0100
1000
0010
1000
,  // measure 24
0100
1000
0010
1000
0100
1000
0010
0000
,  // measure 25
1010
MMMM
0001
0000
0011
MMMM
1000
0000
,  // measure 26
1010
MMMM
0001
0000
0011
MMMM
1000
0000
,  // measure 27
1100
MMMM
0001
0000
0101
MMMM
1000
0000
,  // measure 28
1100
MMMM
0001
0000
0101
MMMM
1000
MMMM
,  // measure 29
1001
MMMM
0110
0000
1001
MMMM
0110
0000
,  // measure 30
1001
MMMM
1001
0000
1100
MMMM
1100
0000
,  // measure 31
1001
MMMM
0110
0000
1001
MMMM
0110
0000
,  // measure 32
1001
MMMM
1001
0000
0101
MMMM
0101
MMMM
,  // measure 33
0001
0100
0001
0100
0001
0100
0001
0100
,  // measure 34
0010
1000
0010
1000
0010
1000
0010
1000
,  // measure 35
0001
1000
0001
1000
0001
1000
0001
1000
,  // measure 36
0100
0010
0100
0010
0100
0010
0100
0010
,  // measure 37
0100
0010
0001
0010
0100
0010
0001
0010
,  // measure 38
0100
1000
0100
0010
0100
1000
0100
0010
,  // measure 39
0100
1000
0001
0010
0100
1000
0001
0010
,  // measure 40
0100
1000
0010
0100
0001
0100
0010
1000
,  // measure 41
1000
0010
1000
0010
1000
0010
1000
0010
,  // measure 42
0100
0001
0100
0001
0100
0001
0100
0001
,  // measure 43
1000
0001
1000
0001
1000
0001
1000
0001
,  // measure 44
0010
0100
0010
0100
0010
0100
0010
0100
,  // measure 45
0010
0100
1000
0100
0010
0100
1000
0100
,  // measure 46
0010
0001
0010
0100
0010
0001
0010
0100
,  // measure 47
0010
0001
1000
0100
0010
0001
1000
0100
,  // measure 48
0010
0001
0100
0010
1000
0010
0100
0001
,  // measure 49
1000
0001
0010
0100
1000
0000
1001
0000
,  // measure 50
0001
0010
0100
1000
0001
0000
1001
0000
,  // measure 51
1000
0001
0100
0010
1000
0000
1001
0000
,  // measure 52
1000
0001
0100
0010
1000
0000
1001
0000
,  // measure 53
1000
0000
0100
0000
0001
0010
1000
0000
,  // measure 54
0100
0000
0001
0000
0010
1000
0100
0000
,  // measure 55
0001
0000
0010
0000
1000
0100
0001
0000
,  // measure 56
0010
1000
0100
0001
,  // measure 57
0010
0000
1000
0000
0100
0010
0001
0000
,  // measure 58
1000
0100
0010
0100
1000
0000
1100
0000
,  // measure 59
0001
0000
0100
0000
0010
0100
0001
0000
,  // measure 60
0100
0001
0010
0001
0100
0000
0101
0000
,  // measure 61
0001
0000
1000
0000
0001
0010
0100
0000
,  // measure 62
1000
0001
1000
0100
1000
0000
1001
0000
,  // measure 63
1000
0000
0001
0000
1000
0001
0100
0000
,  // measure 64
0001
1000
0001
1000
0001
1000
0001
0000
;
