#TITLE:Best Friend's Brother;
#SUBTITLE:;
#ARTIST:Victorious Cast feat. Victoria Justice;
#TITLETRANSLIT:;
#SUBTITLETRANSLIT:;
#ARTISTTRANSLIT:;
#CREDIT:Chewi☆;
#BANNER:Best Friend's Brother.png;
#BACKGROUND:Best Friend's Brother-bg.png;
#LYRICSPATH:;
#CDTITLE:;
#MUSIC:Best Friend's Brother.mp3;
#OFFSET:-0.211;
#SAMPLESTART:34.513;
#SAMPLELENGTH:15.000;
#SELECTABLE:YES;
#DISPLAYBPM:140.000;
#BPMS:0.000=140.000;
#STOPS:;
#BGCHANGES:;

//---------------dance-single - Chewi----------------
#NOTES:
     dance-single:
     Chewi:
     Hard:
     10:
     0.397,0.449,0.375,0.023,0.000: // measure 1
0000
0000
0000
0000
,  // measure 2
0000
0000
0000
0000
,  // measure 3
0000
0000
0000
0000
,  // measure 4
0000
0000
0000
0000
,  // measure 5
0000
0000
0001
1000
0010
0000
1000
0001
,  // measure 6
0010
0100
1000
0010
0000
0000
1000
0010
,  // measure 7
0100
0001
0010
0100
0000
0000
0100
0010
,  // measure 8
0001
1000
0010
0110
0000
0000
0000
0000
,  // measure 9
0000
0010
1000
0001
0010
0000
0100
1000
,  // measure 10
0010
1000
0100
0010
0000
0000
0100
1000
,  // measure 11
0010
0000
0100
0001
0000
0000
0001
0100
,  // measure 12
0010
1000
0001
1000
0000
0000
0000
0000
,  // measure 13
0000
0000
0010
1000
0100
0000
0010
0001
,  // measure 14
0100
0000
0010
0100
0010
0000
1001
0000
,  // measure 15
0000
0000
0100
0010
0001
0000
0100
0010
,  // measure 16
1000
0001
0010
0000
1100
0000
0101
0000
,  // measure 17
0000
0000
1000
0001
0100
0000
0010
1000
,  // measure 18
0001
0010
0100
1000
0000
0010
0100
0001
,  // measure 19
0000
0000
0010
0000
0010
0100
1000
2020
,  // measure 20
0000
0000
0000
3030
,  // measure 21
1001
0000
1000
0001
0000
0000
0001
1000
,  // measure 22
0000
0000
1000
0010
0000
1010
0000
0000
,  // measure 23
1000
0000
0010
0000
0100
0001
0010
0100
,  // measure 24
1100
0101
1100
0000
,  // measure 25
1001
0000
0001
0010
0000
0000
0010
0001
,  // measure 26
0000
0000
0001
0100
0000
0101
0000
0000
,  // measure 27
0001
0100
0010
0000
1000
0100
0010
0000
,  // measure 28
0011
0000
0101
0000
0011
0000
0001
0010
,  // measure 29
0100
1000
0010
0000
1000
0100
1000
0000
,  // measure 30
1000
0100
0010
0000
0001
0100
0001
0000
,  // measure 31
0100
0010
1000
0000
0001
0010
0100
0000
,  // measure 32
1000
0001
1000
0001
0100
0001
0100
0001
,  // measure 33
0101
0000
0100
0010
0000
0000
0010
1000
,  // measure 34
0000
0000
1000
0100
0000
1100
0000
0000
,  // measure 35
1000
0100
0010
0000
0001
0100
0010
1000
,  // measure 36
1001
1100
1001
0000
,  // measure 37
0101
0000
1100
0000
1001
0001
1000
0000
,  // measure 38
0110
0000
1001
0000
0110
0010
0010
0000
,  // measure 39
0001
0100
1000
0010
1000
0100
0001
0010
,  // measure 40
0100
0010
0100
0010
0001
1000
0001
1000
,  // measure 41
1010
0000
0101
0000
1010
0001
0001
0000
,  // measure 42
1100
0000
0011
0000
1100
1000
1000
0000
,  // measure 43
0001
1000
0010
0100
0001
1000
0100
0000
,  // measure 44
0010
0100
1000
0001
1000
0010
0100
0000
,  // measure 45
0110
0000
0000
0000
;

//---------------dance-single - Chewi----------------
#NOTES:
     dance-single:
     Chewi:
     Medium:
     7:
     0.266,0.325,0.272,0.068,0.000: // measure 1
0000
0000
0000
0000
,  // measure 2
0000
0000
0000
0000
,  // measure 3
0000
0000
0000
0000
,  // measure 4
0000
0000
0000
0000
,  // measure 5
0000
1000
0100
0010
,  // measure 6
1000
0100
0010
0000
,  // measure 7
0001
1000
1001
0000
,  // measure 8
1000
0001
1001
0000
,  // measure 9
0000
0001
0100
0010
,  // measure 10
0001
0100
0010
0000
,  // measure 11
0001
1000
1001
0000
,  // measure 12
1000
0001
1001
0000
,  // measure 13
1000
0000
0000
1000
1000
0000
0000
0000
,  // measure 14
0010
0100
0001
0010
,  // measure 15
0001
0000
0000
0001
0001
0000
0000
0000
,  // measure 16
0010
0100
1000
0001
,  // measure 17
0100
0000
0000
0100
0100
0000
0100
0000
,  // measure 18
0010
1000
0001
0000
,  // measure 19
0010
0000
0000
0010
0010
0000
0100
0000
,  // measure 20
0220
0000
0000
0000
0000
0000
0000
0330
,  // measure 21
0010
0000
0000
0010
0000
0000
0000
0010
,  // measure 22
0000
0000
0000
0010
0000
0010
0000
0000
,  // measure 23
1010
0101
1010
0000
,  // measure 24
1001
1001
1001
0000
,  // measure 25
1000
0000
0000
1000
0000
0000
0000
1000
,  // measure 26
0000
0000
0000
1000
0000
1000
0000
0000
,  // measure 27
1001
1001
1001
0000
,  // measure 28
1100
1100
1100
0000
,  // measure 29
0001
0010
0100
1000
,  // measure 30
0001
0100
0010
1000
,  // measure 31
0001
0000
1000
0000
0001
1000
0001
0000
,  // measure 32
1000
0000
0001
0000
1000
0001
1000
0000
,  // measure 33
0010
0000
0000
0010
0000
0000
0000
0010
,  // measure 34
0000
0000
0000
0010
0000
0010
0000
0000
,  // measure 35
0110
0110
0110
0000
,  // measure 36
1001
1001
1001
0000
,  // measure 37
1000
1000
1000
0000
2000
0000
3000
0000
,  // measure 38
0001
0001
0001
0000
0002
0000
0003
0000
,  // measure 39
0001
0100
1000
0010
,  // measure 40
0001
0100
1000
0010
,  // measure 41
0010
0010
0010
0000
0020
0000
0030
0000
,  // measure 42
0100
0100
0100
0000
0200
0000
0300
0000
,  // measure 43
0100
0001
0010
1000
,  // measure 44
0100
0001
0010
1000
,  // measure 45
1001
0000
0000
0000
;

//---------------dance-single - Chewi----------------
#NOTES:
     dance-single:
     Chewi:
     Easy:
     5:
     0.233,0.325,0.170,0.182,0.000: // measure 1
0000
0000
0000
0000
,  // measure 2
0000
0000
0000
0000
,  // measure 3
0000
0000
0000
0000
,  // measure 4
0000
0000
0000
0000
,  // measure 5
1000
1000
1000
0000
,  // measure 6
1000
0001
1001
0000
,  // measure 7
0001
0001
0001
0000
,  // measure 8
0001
1000
1001
0000
,  // measure 9
0001
0100
0001
0000
,  // measure 10
0100
1000
0100
0000
,  // measure 11
1000
0010
1000
0000
,  // measure 12
0010
0001
0010
0000
,  // measure 13
0002
0003
0001
0000
,  // measure 14
0001
0001
1000
1000
,  // measure 15
2000
3000
1000
0000
,  // measure 16
1000
1000
0001
0001
,  // measure 17
1000
0100
0010
0000
,  // measure 18
0010
0001
0100
0000
,  // measure 19
0001
0100
0010
0000
,  // measure 20
1001
0000
0000
0000
,  // measure 21
2000
3000
2000
3000
,  // measure 22
1000
1000
1000
0000
,  // measure 23
0002
0003
0002
0003
,  // measure 24
0001
0001
0001
0000
,  // measure 25
0200
0300
0200
0300
,  // measure 26
0100
0100
0100
0000
,  // measure 27
0020
0030
0020
0030
,  // measure 28
0010
0010
0010
0000
,  // measure 29
0010
1000
0100
0000
,  // measure 30
0010
0001
0100
0000
,  // measure 31
0100
0010
0100
0000
,  // measure 32
0010
0100
0010
0000
,  // measure 33
2000
3000
0002
0003
,  // measure 34
2000
0001
3001
0000
,  // measure 35
0002
0003
2000
3000
,  // measure 36
0002
1000
1003
0000
,  // measure 37
1001
1001
1001
0000
,  // measure 38
1001
1001
1001
0000
,  // measure 39
0100
0010
0100
0000
,  // measure 40
0010
0100
0010
0000
,  // measure 41
0110
0110
0110
0000
,  // measure 42
0110
0110
0110
0000
,  // measure 43
1000
0001
1000
0000
,  // measure 44
0001
1000
0001
0000
,  // measure 45
0001
0000
0000
0000
;

//---------------dance-single - Chewi----------------
#NOTES:
     dance-single:
     Chewi:
     Beginner:
     3:
     0.133,0.225,0.102,0.091,0.000: // measure 1
0000
0000
0000
0000
,  // measure 2
0000
0000
0000
0000
,  // measure 3
0000
0000
0000
0000
,  // measure 4
0000
0000
0000
0000
,  // measure 5
1000
0000
0000
0000
,  // measure 6
1000
0000
0000
0000
,  // measure 7
0001
0000
0000
0000
,  // measure 8
0001
0000
0000
0000
,  // measure 9
0001
0000
0000
0000
,  // measure 10
0100
0000
0000
0000
,  // measure 11
1000
0000
0000
0000
,  // measure 12
0010
0000
0000
0000
,  // measure 13
0002
0000
0000
0003
,  // measure 14
0001
0000
0000
0000
,  // measure 15
2000
0000
0000
3000
,  // measure 16
1000
0000
0000
0000
,  // measure 17
1000
0000
0000
0000
,  // measure 18
0010
0000
0000
0000
,  // measure 19
0001
0000
0000
0000
,  // measure 20
1001
0000
0000
0000
,  // measure 21
2000
0000
0000
3000
,  // measure 22
1000
1000
1000
0000
,  // measure 23
0002
0000
0000
0003
,  // measure 24
0001
0001
0001
0000
,  // measure 25
0200
0000
0000
0300
,  // measure 26
0100
0100
0100
0000
,  // measure 27
0020
0000
0000
0030
,  // measure 28
0010
0010
0010
0000
,  // measure 29
0010
0000
0000
0000
,  // measure 30
0010
0000
0000
0000
,  // measure 31
0100
0000
0000
0000
,  // measure 32
0010
0000
0000
0000
,  // measure 33
2000
0000
0000
3000
,  // measure 34
0001
0001
0001
0000
,  // measure 35
0002
0000
0000
0003
,  // measure 36
1000
1000
1000
0000
,  // measure 37
1001
0000
1001
0000
,  // measure 38
0110
0000
0110
0000
,  // measure 39
0100
0100
0100
0000
,  // measure 40
0010
0010
0010
0000
,  // measure 41
0110
0000
0110
0000
,  // measure 42
1001
0000
1001
0000
,  // measure 43
1000
1000
1000
0000
,  // measure 44
0001
0001
0001
0000
,  // measure 45
0001
0000
0000
0000
;
