#VERSION:0.82;
#TITLE:倍儿爽;
#SUBTITLE:;
#ARTIST:大张伟;
#TITLETRANSLIT:Bei Er Shuang;
#SUBTITLETRANSLIT:;
#ARTISTTRANSLIT:Wowkie Zhang;
#GENRE:Electro Pop;
#ORIGIN:;
#CREDIT:chewi;
#BANNER:Bei Er Shuang.png;
#BACKGROUND:Bei Er Shuang-bg.png;
#PREVIEWVID:;
#JACKET:Bei Er Shuang-jacket.png;
#CDIMAGE:;
#DISCIMAGE:;
#LYRICSPATH:;
#CDTITLE:cdtitle.png;
#MUSIC:Bei Er Shuang.ogg;
#OFFSET:-0.584000;
#SAMPLESTART:62.830002;
#SAMPLELENGTH:15.000000;
#SELECTABLE:YES;
#BPMS:0.000=130.000;
#STOPS:32.000=1.385,
129.000=1.385;
#DELAYS:;
#WARPS:;
#TIMESIGNATURES:0.000=4=4;
#TICKCOUNTS:0.000=4;
#COMBOS:0.000=1;
#SPEEDS:0.000=1.000=0.000=0;
#SCROLLS:0.000=1.000;
#FAKES:;
#LABELS:0.000=Song Start;
#BGCHANGES:0.000=Bei Er Shuang.avi=1.000=1=0=0=StretchNoLoop==CrossFade==,
99999=-nosongbg-=1.000=0=0=0 // don't automatically add -songbackground-
;
#KEYSOUNDS:;
#ATTACKS:
;

//---------------dance-single - ----------------
#NOTEDATA:;
#CHARTNAME:;
#STEPSTYPE:dance-single;
#DESCRIPTION:;
#CHARTSTYLE:;
#DIFFICULTY:Beginner;
#METER:1;
#RADARVALUES:0.069569,0.073504,0.000000,0.146096,0.000000,28.000000,0.000000,12.000000,0.000000,0.000000,0.000000,0.000000,0.000000,0.069569,0.073504,0.000000,0.146096,0.000000,28.000000,0.000000,12.000000,0.000000,0.000000,0.000000,0.000000,0.000000;
#CREDIT:;
#NOTES:
0000
0000
0000
0000
,
0000
0000
0000
0000
,
0000
0000
0000
0000
,
0000
0000
0000
0000
,
0010
0000
0000
0000
,
0010
0000
0000
0000
,
0100
0000
0000
0000
,
0100
0000
0000
0000
,
0000
2000
0000
0000
,
0000
0000
0000
0000
,
3000
0002
0000
0000
,
0000
0000
0000
0000
,
0003
2000
0000
0000
,
0000
0000
0000
0000
,
3000
0002
0000
0000
,
0000
0000
0000
0000
,
0003
0010
0000
0000
,
0000
0010
0000
0000
,
0000
0100
0000
0000
,
0000
0100
0000
0000
,
0000
1000
0000
0000
,
0000
1000
0000
0000
,
0000
0001
0000
0000
,
0000
0001
0000
0000
,
0000
0020
0000
0000
,
0030
0010
0000
0000
,
0000
0020
0000
0000
,
0030
0010
0000
0000
,
0000
0200
0000
0000
,
0300
0100
0000
0000
,
0000
0200
0000
0000
,
0300
0100
0000
0000
,
0000
0000
2000
0000
,
0000
0000
0000
0000
,
0000
3000
0002
0000
,
0000
0000
0000
0000
,
0000
0003
2000
0000
,
0000
0000
0000
0000
,
0000
3000
0002
0000
,
0000
0000
0000
0000
,
0000
0003
0000
0000
;

//---------------dance-single - ----------------
#NOTEDATA:;
#CHARTNAME:;
#STEPSTYPE:dance-single;
#DESCRIPTION:;
#CHARTSTYLE:;
#DIFFICULTY:Easy;
#METER:3;
#RADARVALUES:0.166966,0.146096,0.097397,0.048699,0.000000,84.000000,8.000000,4.000000,0.000000,0.000000,0.000000,0.000000,0.000000,0.166966,0.146096,0.097397,0.048699,0.000000,84.000000,8.000000,4.000000,0.000000,0.000000,0.000000,0.000000,0.000000;
#CREDIT:;
#NOTES:
0000
0000
0000
0000
,
0000
0000
0000
0000
,
0000
0000
0000
0000
,
0000
0000
0000
0000
,
1000
1000
0100
0000
,
0001
0001
0100
0000
,
1000
1000
0010
0000
,
0001
0001
0010
0000
,
0000
1001
0000
1000
,
0000
0001
0000
1000
,
0000
0110
0000
0100
,
0000
0010
0000
0100
,
0000
1001
0000
1000
,
0000
0001
0000
1000
,
0000
0110
0000
0010
,
0000
0100
0000
0010
,
0000
2000
0000
0000
,
3000
1000
0001
1000
,
0000
0002
0000
0000
,
0003
1000
0001
1000
,
0000
0200
0000
0000
,
0300
0010
0100
0010
,
0000
0020
0000
0000
,
0030
0100
0010
0100
,
0000
0100
0100
0100
,
0000
1000
1000
1000
,
0000
0010
0010
0010
,
0000
0001
0001
0001
,
0000
0100
0100
0100
,
0000
1000
1000
1000
,
0000
0010
0010
0010
,
0000
0001
0001
0001
,
0000
0000
0110
0000
,
0100
0000
0010
0000
,
0100
0000
1001
0000
,
1000
0000
0001
0000
,
1000
0000
0110
0000
,
0100
0000
0010
0000
,
0100
0000
1001
0000
,
1000
0000
0001
0000
,
1000
0000
0000
0000
;

//---------------dance-single - ----------------
#NOTEDATA:;
#CHARTNAME:;
#STEPSTYPE:dance-single;
#DESCRIPTION:;
#CHARTSTYLE:;
#DIFFICULTY:Medium;
#METER:7;
#RADARVALUES:0.286973,0.269516,0.073048,0.036524,0.103484,156.000000,6.000000,3.000000,0.000000,0.000000,0.000000,0.000000,0.000000,0.286973,0.269516,0.073048,0.036524,0.103484,156.000000,6.000000,3.000000,0.000000,0.000000,0.000000,0.000000,0.000000;
#CREDIT:;
#NOTES:
// measure 0
0000
0000
0000
0000
,  // measure 1
0000
0000
0000
0000
,  // measure 2
0000
0000
0000
0000
,  // measure 3
0000
0000
0000
0000
,  // measure 4
1000
1000
0001
0001
,  // measure 5
0100
0100
0010
0010
,  // measure 6
1000
1000
0001
0001
,  // measure 7
0010
0010
0010
0000
,  // measure 8
0000
0001
1000
0010
,  // measure 9
1000
0000
0001
1000
0010
0000
1000
0000
,  // measure 10
1001
1000
0001
0100
,  // measure 11
0001
0000
1000
0001
0100
0000
0001
0000
,  // measure 12
1001
1000
0100
0010
,  // measure 13
0100
0000
1000
0001
1000
0000
0001
0000
,  // measure 14
0101
0100
0001
0010
,  // measure 15
0001
0000
0000
0000
1000
0000
0000
0001
0000
0000
1000
0000
0002
0000
0000
0000
,  // measure 16
0003
1000
0001
0010
,  // measure 17
0100
0000
1000
0000
0001
0001
0001
0000
,  // measure 18
0000
1000
0010
0100
,  // measure 19
0001
0000
0100
0000
0010
0010
0010
0000
,  // measure 20
0000
1000
0001
0010
,  // measure 21
0100
0000
0010
0000
0001
0001
0001
0000
,  // measure 22
0000
0010
0100
1000
,  // measure 23
0001
0000
1000
0000
0010
0010
0010
0000
,  // measure 24
0000
0000
0000
0000
1000
0000
0000
1000
0000
0000
1000
0000
0000
1000
0000
0000
,  // measure 25
1000
0000
0000
0000
0001
0000
0000
0001
0000
0000
0001
0000
0000
0001
0000
0000
,  // measure 26
0001
0000
0000
0000
0010
0000
0000
0010
0000
0000
0010
0000
0000
0010
0000
0000
,  // measure 27
0010
0000
0000
0000
0100
0000
0000
0100
0000
0000
0100
0000
0000
0100
0000
0000
,  // measure 28
0100
0000
0000
0000
0010
0000
0000
0001
0000
0000
0010
0000
0000
0001
0000
0000
,  // measure 29
0010
0000
0000
0000
0001
0000
0000
0100
0000
0000
0001
0000
0000
0100
0000
0000
,  // measure 30
0001
0000
0000
0000
0100
0000
0000
0010
0000
0000
0100
0000
0000
0010
0000
0000
,  // measure 31
0100
0000
0000
0000
1000
0000
0000
0001
0000
0000
1000
0000
0002
0000
0000
0000
,  // measure 32
0000
0003
1000
0001
,  // measure 33
0100
0000
0001
0000
1000
0001
0100
0000
,  // measure 34
0001
1001
0001
1000
,  // measure 35
0010
0000
1000
0000
0001
1000
0010
0000
,  // measure 36
1000
1001
0001
0010
,  // measure 37
0100
0000
0010
0000
0001
1000
0001
0000
,  // measure 38
1000
1010
0010
1000
,  // measure 39
0100
0000
0000
0000
1000
0000
0000
0000
0001
0000
0000
1000
0000
0000
0001
0000
,  // measure 40
2000
3000
0000
0000
;

//---------------dance-single - ----------------
#NOTEDATA:;
#CHARTNAME:;
#STEPSTYPE:dance-single;
#DESCRIPTION:;
#CHARTSTYLE:;
#DIFFICULTY:Hard;
#METER:11;
#RADARVALUES:0.443504,0.416525,0.073048,0.267842,0.499160,227.000000,6.000000,22.000000,0.000000,0.000000,0.000000,0.000000,0.000000,0.443504,0.416525,0.073048,0.267842,0.499160,227.000000,6.000000,22.000000,0.000000,0.000000,0.000000,0.000000,0.000000;
#CREDIT:;
#NOTES:
0000
0000
0000
0000
,
0000
0000
0000
0000
,
0000
0000
0000
0000
,
0000
0000
0000
0000
,
1000
0100
1000
0000
0001
0000
0010
0000
,
0001
0100
0001
0000
0100
0000
0010
0000
,
1000
0001
1000
0000
0001
0000
1000
0000
,
0100
0000
0000
0100
0000
0000
0100
0000
0220
0000
0000
0000
0000
0000
0000
0000
,
0330
0000
0000
0000
0010
0000
0000
0010
0001
0000
0000
0001
0010
0000
0000
0010
,
0100
0000
0000
0100
1000
0000
0000
1000
0010
0000
0000
0010
1000
0000
0000
1000
,
0100
0000
0000
0100
1000
0000
0000
1000
0001
0000
0000
0001
1000
0000
0000
1000
,
0010
0000
0000
0010
0100
0000
0000
0100
0010
0000
0000
0010
1000
0000
0000
1000
,
0001
0000
0000
0001
0010
0000
0000
0010
0100
0000
0000
0100
1000
0000
0000
1000
,
0100
0000
0000
0100
0010
0000
0000
0010
0001
0000
0000
0001
0010
0000
0000
0010
,
0100
0000
0000
0100
1000
0000
0000
1000
0001
0000
0000
0001
1000
0000
0000
1000
,
0001
0000
0000
0001
1000
0000
0000
1000
0000
0000
1000
0000
2002
0000
0000
0000
,
3003
0000
0000
0000
1000
0000
0000
1000
0001
0000
0010
0000
0200
0000
0000
0000
,
0320
0000
0000
0000
0031
0000
0000
0001
1000
0000
0001
0000
0200
0000
0000
0000
,
0300
0000
0000
0000
0001
0000
0000
0001
1000
0000
0100
0000
0020
0000
0000
0000
,
0032
0000
0000
0000
1003
0000
0000
1000
0001
0000
0100
0000
0220
0000
0000
0000
,
0330
0000
0000
0000
0001
0000
0000
0001
0010
0000
0100
0000
2000
0000
0000
0000
,
3002
0000
0000
0000
0103
0000
0000
0100
0010
0000
1000
0000
0002
0000
0000
0000
,
0003
0000
0000
0000
0010
0000
0000
0010
0100
0000
1000
0000
0002
0000
0000
0000
,
0203
0000
0000
0000
0310
0000
0000
0010
1000
0000
0001
0000
2002
0000
3003
0000
,
1000
0000
0010
0000
1000
0000
0000
1000
0000
0000
1000
0000
0000
1000
0000
0000
,
1000
0000
0000
0000
0100
0000
0000
0100
0000
0000
0100
0000
0000
0100
0000
0000
,
0100
0000
0010
0000
0001
0000
0000
0010
0000
0000
0100
0000
0000
1000
0000
0000
,
0100
0000
0000
0000
1000
0000
0000
0001
0000
0000
1000
0000
0000
0001
0000
0000
,
0100
0000
0100
0000
0010
0000
0000
0010
0000
0000
0010
0000
0000
0010
0000
0000
,
0010
0000
0000
0000
0100
0000
0000
0100
0000
0000
0100
0000
0000
0100
0000
0000
,
0100
0000
0001
0000
1000
0000
0000
0010
0000
0000
0100
0000
0000
0010
0000
0000
,
1000
0000
0000
0000
0001
0000
0000
0010
0000
0000
0100
0000
0220
0000
0000
0000
,
0000
0000
0000
0000
0330
0000
0000
0000
0100
0000
0000
0100
1000
0000
0000
1000
,
0100
0000
0000
0100
0010
0000
0000
0010
0001
0000
0000
0001
0100
0000
0000
0100
,
0001
0000
0000
0001
0010
0000
0000
0010
0001
0000
0000
0001
1000
0000
0000
1000
,
0001
0000
0000
0001
0100
0000
0000
0100
0010
0000
0000
0010
0100
0000
0000
0100
,
0001
0000
0000
0001
1000
0000
0000
1000
0100
0000
0000
0100
0010
0000
0000
0010
,
0001
0000
0000
0001
0010
0000
0000
0010
0100
0000
0000
0100
1000
0000
0000
1000
,
0100
0000
0000
0100
0010
0000
0000
0010
0001
0000
0000
0001
1000
0000
0000
1000
,
0001
0000
0000
0001
1000
0000
0000
1000
0001
0000
0000
0001
0000
0000
0001
0000
,
2002
3003
0000
0000
;
