#TITLE:Beggin' On Your Knees;
#SUBTITLE:;
#ARTIST:Victorious Cast feat. Victoria Justice;
#TITLETRANSLIT:;
#SUBTITLETRANSLIT:;
#ARTISTTRANSLIT:;
#GENRE:;
#CREDIT:Chewi☆;
#MENUCOLOR:;
#METERTYPE:DDR X;
#BANNER:Beggin' On Your Knees.png;
#BACKGROUND:Beggin' On Your Knees-bg.png;
#LYRICSPATH:;
#CDTITLE:;
#MUSIC:Beggin' On Your Knees.mp3;
#OFFSET:-0.289;
#SAMPLESTART:36.481;
#SAMPLELENGTH:15.000;
#SELECTABLE:YES;
#LISTSORT:;
#DISPLAYBPM:130.000;
#BPMS:0.000=130.000,149.500=65.000;
#STOPS:;
#BGCHANGES:;
#ATTACKS:;

//---------------dance-single - Chewi----------------
#NOTES:
     dance-single:
     Chewi:
     Hard:
     9:
     0.275,0.340,0.140,0.014,0.000: // measure 1
0000
0000
0000
0000
,  // measure 2
0000
0000
0000
0000
,  // measure 3
0000
0000
0000
0000
,  // measure 4
0000
0000
0000
0000
0000
0000
0000
1000
,  // measure 5
0100
0010
0001
0000
0000
0000
0000
0000
,  // measure 6
0000
0001
0010
0100
1000
0000
0001
0000
,  // measure 7
1000
0000
0010
0100
0010
0000
0110
0000
,  // measure 8
0000
0000
0000
0000
0000
0000
0000
0010
,  // measure 9
0001
0100
1000
0000
0000
0000
0000
0000
,  // measure 10
0000
0010
1000
0100
0010
0000
0001
0000
,  // measure 11
0010
0000
0100
1000
0001
0000
1001
0000
,  // measure 12
0000
0000
0000
0000
,  // measure 13
1000
0000
0000
0001
0000
0000
0100
0000
,  // measure 14
0010
0000
0000
1000
0000
0000
0100
0000
,  // measure 15
0010
0000
0000
0001
0000
0000
0010
0000
,  // measure 16
0100
0000
0000
1000
0000
1000
1000
0000
,  // measure 17
0001
0000
0000
0100
0000
0000
0010
0000
,  // measure 18
1000
0000
0000
0010
0000
0000
0100
0000
,  // measure 19
0001
0000
0000
1000
0000
0000
0100
0000
,  // measure 20
0011
0000
0000
0000
0000
0001
0010
0100
,  // measure 21
1000
0010
0001
0100
,  // measure 22
1000
0000
0010
0000
0001
0000
0010
0100
,  // measure 23
1000
0001
0100
0010
0100
0000
0101
0000
,  // measure 24
1010
0000
0000
0000
,  // measure 25
0001
0010
1000
0100
,  // measure 26
0001
0000
0010
0000
0100
0000
1000
0010
,  // measure 27
0100
0001
0001
0000
0010
0000
1001
0000
,  // measure 28
1100
0000
0000
0000
0000
1000
0100
1000
,  // measure 29
0100
0000
1100
0000
0000
0001
0100
0001
,  // measure 30
0100
0000
0101
0000
0000
0100
0010
0100
,  // measure 31
0010
0000
1000
0000
0100
0000
0001
0010
,  // measure 32
1000
0000
0000
0000
0000
0100
0010
0100
,  // measure 33
0000
0000
0000
1000
0000
0000
0000
0010
,  // measure 34
0000
0100
0001
0100
0001
0000
0100
0010
,  // measure 35
1000
0001
0010
0100
1000
0000
0001
0000
,  // measure 36
1001
0000
0000
0000
,  // measure 37
0100
0000
0000
0100
0000
0000
0010
0000
,  // measure 38
0010
0000
0000
0020
0030
0000
0000
0000
;

//---------------dance-single - Chewi----------------
#NOTES:
     dance-single:
     Chewi:
     Medium:
     6:
     0.217,0.235,0.112,0.000,0.000: // measure 1
0000
0000
0000
0000
,  // measure 2
0000
0000
0000
0000
,  // measure 3
0000
0000
0000
0000
,  // measure 4
0000
0000
0000
0000
,  // measure 5
1000
1100
0000
0000
,  // measure 6
0000
0001
0100
0010
,  // measure 7
1000
0001
1000
1001
,  // measure 8
0000
0000
0000
0000
,  // measure 9
0001
0011
0000
0000
,  // measure 10
0000
0010
0100
1000
,  // measure 11
0010
0100
0001
0100
,  // measure 12
0000
0000
0000
0000
,  // measure 13
0110
0000
0000
0010
0000
0000
0010
0000
,  // measure 14
1000
0000
0000
1000
0000
0000
1000
0000
,  // measure 15
0100
0000
0000
0100
0000
0000
0100
0000
,  // measure 16
0010
0000
0000
0010
0000
0010
0000
0010
,  // measure 17
0001
1000
0100
1000
,  // measure 18
0001
1000
0010
0100
,  // measure 19
0001
1000
0010
1000
,  // measure 20
1001
0000
0000
0000
,  // measure 21
1000
0100
0001
0010
,  // measure 22
1000
0100
0001
0000
,  // measure 23
0001
1000
0100
0010
,  // measure 24
0110
0000
0000
0000
,  // measure 25
0001
0010
1000
0100
,  // measure 26
0001
0010
1000
0000
,  // measure 27
1000
0010
0100
0010
,  // measure 28
0110
0000
0000
0000
0000
0000
0010
1000
,  // measure 29
0010
0000
1000
0000
0000
0000
1000
0001
,  // measure 30
1000
0001
0000
0001
,  // measure 31
0010
0100
1000
0100
,  // measure 32
0010
0000
0000
0001
,  // measure 33
1000
0010
0001
0010
,  // measure 34
1000
0100
0001
0010
,  // measure 35
1000
0100
0010
0001
,  // measure 36
1000
0000
0000
0000
,  // measure 37
1001
0000
0000
1000
0000
0000
0001
0000
,  // measure 38
1000
0000
0000
0010
0000
0000
0000
0000
;

//---------------dance-single - Chewi----------------
#NOTES:
     dance-single:
     Chewi:
     Beginner:
     1:
     0.088,0.129,0.014,0.000,0.000: // measure 1
0000
0000
0000
0000
,  // measure 2
0000
0000
0000
0000
,  // measure 3
0000
0000
0000
0000
,  // measure 4
0000
0000
0000
0000
,  // measure 5
0010
0000
0000
0000
,  // measure 6
0000
0000
0010
0000
,  // measure 7
0010
0000
0010
0000
,  // measure 8
0000
0000
0000
0000
,  // measure 9
0100
0000
0000
0000
,  // measure 10
0000
0000
0100
0000
,  // measure 11
0100
0000
0100
0000
,  // measure 12
0000
0000
0000
0000
,  // measure 13
1000
0000
0000
0000
,  // measure 14
0010
0000
0000
0000
,  // measure 15
0001
0000
0000
0000
,  // measure 16
0010
0000
0000
0000
,  // measure 17
1000
0000
0000
0000
,  // measure 18
0001
0000
0000
0000
,  // measure 19
0100
0000
0000
0000
,  // measure 20
0010
0000
0000
0000
,  // measure 21
0100
0000
0100
0000
,  // measure 22
0100
0000
0100
0000
,  // measure 23
1000
0000
0100
0000
,  // measure 24
0100
0000
0000
0000
,  // measure 25
0010
0000
0010
0000
,  // measure 26
0010
0000
0010
0000
,  // measure 27
0010
0000
0001
1000
,  // measure 28
0000
0000
0000
1000
,  // measure 29
0000
0000
0000
0001
,  // measure 30
0000
0000
0000
0100
,  // measure 31
0000
0010
0000
1000
,  // measure 32
0000
0000
0000
0001
,  // measure 33
0000
0000
1000
0000
,  // measure 34
0100
0000
0000
0000
,  // measure 35
1000
0000
0001
0000
,  // measure 36
0100
0000
0000
0000
,  // measure 37
0110
0000
0000
0000
,  // measure 38
0010
0000
0000
0000
;

//---------------dance-single - Chewi----------------
#NOTES:
     dance-single:
     Chewi:
     Easy:
     3:
     0.152,0.207,0.042,0.000,0.000: // measure 1
0000
0000
0000
0000
,  // measure 2
0000
0000
0000
0000
,  // measure 3
0000
0000
0000
0000
,  // measure 4
0000
0000
0000
0000
,  // measure 5
0010
0010
0000
0000
,  // measure 6
0000
0000
0010
0000
,  // measure 7
0010
0000
0110
0000
,  // measure 8
0000
0000
0000
0000
,  // measure 9
0100
0100
0000
0000
,  // measure 10
0000
0000
0100
0000
,  // measure 11
0100
0000
0110
0000
,  // measure 12
0000
0000
0000
0000
,  // measure 13
1000
0000
0100
0000
,  // measure 14
0010
0000
0010
0000
,  // measure 15
0001
0000
0100
0000
,  // measure 16
0010
0000
0010
0000
,  // measure 17
1000
0000
0001
0000
,  // measure 18
0001
0000
1000
0000
,  // measure 19
0100
0000
0010
0000
,  // measure 20
0010
0000
0100
0000
,  // measure 21
0100
0100
0100
0100
,  // measure 22
0100
0100
0100
0000
,  // measure 23
1000
0001
0100
0010
,  // measure 24
0100
0000
0000
0000
,  // measure 25
0010
0010
0010
0010
,  // measure 26
0010
0010
0010
0000
,  // measure 27
0010
0100
0001
1000
,  // measure 28
0100
0000
0000
1000
,  // measure 29
1000
0000
0000
0001
,  // measure 30
0001
0000
0000
0100
,  // measure 31
0100
0010
0010
1000
,  // measure 32
1000
0000
0000
0001
,  // measure 33
0001
0000
1000
0000
,  // measure 34
0100
0010
0100
0000
,  // measure 35
1000
0000
0001
0000
,  // measure 36
0100
0010
0100
0000
,  // measure 37
0110
0000
0000
0000
,  // measure 38
0010
0000
0000
0000
;
