#TITLE:Bass Down Low;
#SUBTITLE:;
#ARTIST:Dev feat. The Cataracs;
#TITLETRANSLIT:;
#SUBTITLETRANSLIT:;
#ARTISTTRANSLIT:;
#CREDIT:Chewi☆;
#BANNER:Bass Down Low.png;
#BACKGROUND:Bass Down Low-bg.png;
#LYRICSPATH:;
#CDTITLE:;
#MUSIC:Bass Down Low.mp3;
#MENUCOLOR:;
#METERTYPE:DDR X;
#OFFSET:-1.301;
#SAMPLESTART:69.264;
#SAMPLELENGTH:15.000;
#SELECTABLE:YES;
#DISPLAYBPM:113.000;
#BPMS:0.000=113.000;
#STOPS:;
#BGCHANGES:;

//---------------dance-single - Chewi----------------
#NOTES:
     dance-single:
     Chewi:
     Beginner:
     2:
     0.134,0.158,0.023,0.126,0.000:
0000
0000
0000
0000
,
0000
0000
0000
0000
,
0000
0000
0000
0000
,
0000
0000
0000
0000
,
0200
0000
0000
0000
,
0000
0000
0000
0300
,
0100
0100
0100
0000
,
1001
0000
0000
0000
,
0010
0010
0010
0000
,
0010
0010
0010
0000
,
0100
0100
0100
0000
,
0100
0100
0100
0000
,
2000
0000
0000
3000
,
1000
0000
1000
0000
,
0002
0000
0000
0003
,
0001
0000
0001
0000
,
0100
0100
0000
0100
,
0010
0010
0000
0010
,
0001
0001
0000
0001
,
1001
0000
0000
0000
,
2000
0000
0000
3000
,
1000
0000
0100
0000
,
0002
0000
0000
0003
,
0001
0000
0100
0000
,
0020
0000
0000
0000
,
0000
0000
0000
0030
,
0010
0010
0010
0000
,
0100
0100
0100
0000
,
0200
0000
0000
0000
,
0000
0000
0000
0300
,
0100
0100
0100
0000
,
0010
0100
0010
0000
,
2000
0000
0000
3000
,
1000
1000
1000
0000
,
0002
0000
0000
0003
,
0001
0001
0001
0000
,
0200
0000
0000
0300
,
0100
0100
0100
0000
,
0020
0000
0000
0030
,
0010
0010
0010
0000
;

//---------------dance-single - Chewi----------------
#NOTES:
     dance-single:
     Chewi:
     Easy:
     4:
     0.228,0.248,0.103,0.148,0.000:
0000
0000
0000
0000
,
0000
0000
0000
0000
,
0000
0000
0000
0000
,
0000
0000
0000
0000
,
1000
0100
0001
0000
,
0001
0100
1000
0000
,
1000
0010
0001
0000
,
0001
0010
1000
0000
,
0100
0010
1000
1000
,
0100
0010
0001
0001
,
1000
0001
0100
0100
,
0110
1001
0110
0000
,
0020
0000
0001
0001
,
0032
0000
1000
1000
,
0203
0000
0010
0010
,
0020
0000
0000
0330
,
0010
1000
0100
0100
,
0010
0001
0100
0100
,
0010
0100
0001
1000
,
2002
0000
0000
3003
,
2000
0001
0100
3010
,
0002
1000
0100
1003
,
0020
0100
1000
0130
,
0220
0000
0000
0330
,
0100
0001
0010
0000
,
0010
0010
0010
0000
,
0010
1000
0100
0000
,
0100
0100
0100
0000
,
0100
0010
0001
1001
,
0100
0010
1000
1001
,
2000
0100
0001
0010
,
0020
0000
0000
3030
,
0001
0100
1000
0100
,
0001
0010
1000
0010
,
1000
0001
0010
0100
,
1000
0001
0100
0010
,
1000
0010
0001
0010
,
1000
0100
0001
0100
,
1000
0001
0100
0000
,
0100
0110
1001
0000
;

//---------------dance-single - Chewi----------------
#NOTES:
     dance-single:
     Chewi:
     Medium:
     7:
     0.295,0.338,0.137,0.114,0.034:
0000
0000
0000
0000
,
0000
0000
0000
0000
,
0000
0000
0000
0000
,
0000
0000
0000
0000
,
2000
0100
0002
3003
,
0002
0100
2000
3003
,
0010
0100
0010
0000
0100
0000
0010
0000
,
0100
0010
0100
0000
0010
0000
0100
0000
,
1000
0000
1100
0000
0001
0010
0001
0000
,
1000
0000
1010
0000
0001
0010
0001
0000
,
0100
0010
0100
0000
0001
0000
1000
0000
,
1200
0001
2000
3300
,
1000
1000
0001
0001
,
0100
0100
0010
0010
,
0100
0100
0001
0001
,
0010
0010
0200
0300
,
0100
0000
0000
1000
0100
0000
0000
0000
1000
0000
0001
0000
1000
0000
0001
0000
,
0100
0000
0000
0100
0001
0000
0000
0000
0100
0000
0010
0000
0100
0000
0010
0000
,
1000
0000
0000
1000
0010
0000
0000
0000
1000
0000
0001
0000
1000
0000
0001
0000
,
0020
0000
0000
0030
,
0001
0000
0000
0001
0000
0000
0001
0000
0000
0000
1000
0000
0001
0000
0000
0000
,
0010
0000
0000
0010
0000
0000
0010
0000
0000
0000
0100
0000
0010
0000
0000
0000
,
1000
0000
0000
1000
0000
0000
1000
0000
0000
0000
0001
0000
1000
0000
0000
0000
,
1001
0000
0000
0000
,
0100
0001
0010
0000
0100
0000
1000
0000
,
0010
0100
0110
0000
,
0100
1000
0010
0000
0001
0000
0010
0000
,
0100
1000
0001
0000
,
0100
0010
0100
0010
0100
0000
0100
0000
,
0001
1000
0001
1000
0001
0000
0001
0000
,
1000
0001
1000
0001
1000
0000
1000
0000
,
1002
0010
0200
0303
,
0010
0100
0001
0100
0001
0000
0000
0000
,
0001
1100
0001
0000
,
1000
0010
0100
1000
0100
0000
0000
0000
,
0101
1000
0101
0000
,
0100
0010
1000
0100
0001
0000
0010
0000
,
0100
0001
0010
0100
,
0010
0001
0100
0010
0100
0000
0001
0000
,
1001
0110
0110
0000
;

//---------------dance-single - Chewi----------------
#NOTES:
     dance-single:
     Chewi:
     Hard:
     11:
     0.499,0.499,0.228,0.171,0.263:
0000
0000
0000
0000
,
0000
0000
0000
0000
,
0000
0000
0000
0000
,
0000
0000
0000
0000
,
0100
1000
0010
0001
0100
0000
0000
0000
,
0100
0001
0010
1000
0100
0000
0000
0000
,
1000
0100
0001
0100
1000
0010
0001
0010
,
0120
1000
0200
0330
,
0001
0000
0000
0010
0001
0000
0100
0000
0010
0000
1000
0000
0001
0000
0010
0000
,
0100
0000
0000
1000
0010
0000
1000
0000
0100
0000
0010
0000
0001
0000
0100
0000
,
0010
0000
0000
0100
0001
0000
0010
0000
0100
0000
1000
0000
0001
0000
1000
0000
,
0200
0000
0300
0010
0002
0000
0003
1000
0020
0000
0030
0000
1001
0000
0000
0000
,
0001
0000
0000
0001
1000
0000
0000
1000
0001
0000
0000
0001
0010
0000
0000
0000
,
0001
0000
0010
0000
0100
0000
1000
0000
0010
0000
0100
0000
0001
0100
0000
0000
,
0010
0100
0010
1000
0010
0100
0010
1000
,
1010
0100
0001
0010
0100
1000
1100
0100
,
0001
0000
0000
0001
1000
0000
0010
0000
0100
0001
0100
0000
0010
1000
0010
0000
,
0000
0000
1000
0000
0001
0000
0010
0001
0000
0010
0001
0000
0101
0000
1010
0000
,
0000
0000
0001
0100
0010
0000
1000
0001
0000
0010
0100
0000
0010
0000
0001
0000
,
1000
0100
0010
0000
2002
0000
0000
0000
0000
0000
0000
0000
3003
0000
0000
0000
,
0202
0000
0303
0001
0100
1000
0020
0000
,
0000
0000
0130
0001
1000
0100
0020
0000
,
0031
0010
0001
0000
0010
0000
0100
0000
1000
0000
0100
0000
1100
0000
0000
0000
,
0000
0000
1000
0000
0001
0000
0100
0000
0010
1000
0010
0000
0101
0000
0000
0000
,
0010
0000
0010
0000
1000
0000
0010
0100
0010
0000
0000
0000
0100
0000
0001
0000
,
0010
0000
0100
0000
1000
0000
0010
1000
0010
0000
0000
0000
0000
0000
1000
0000
,
0100
0000
0001
0000
0101
0000
0100
0000
1100
0000
0000
0000
0010
0100
1000
0000
,
0010
0000
0100
0001
0100
0000
0010
0000
1001
0000
0100
0000
0110
0000
0000
0000
,
0001
0010
0100
1000
0010
0000
0100
0000
0001
0000
0100
0000
0010
0000
0100
0000
,
0001
0100
0010
1000
0001
0000
0010
0000
0100
0000
1000
0000
0010
0000
0100
0000
,
1010
0100
0011
0100
1001
0100
0110
1001
,
0020
1000
0002
0033
,
0001
0000
0000
0010
0001
0000
0100
0000
0010
1000
0010
0000
0100
0001
0100
0000
,
0001
0000
0000
0001
0100
0000
0010
0000
1000
0010
1000
0000
0001
0010
0001
0000
,
1000
0000
0000
1000
0100
0000
0001
0100
0001
0000
1000
0100
1000
0000
0010
0000
,
0100
0000
0000
0100
0010
0000
0100
0000
0010
0100
0010
0000
1000
0001
1000
0000
,
0001
0000
0000
0001
0010
0000
0100
0000
1000
0100
1000
0000
0001
0100
0001
0000
,
1000
0000
0000
1000
0100
0000
0001
0000
0001
0100
0001
0000
1000
0100
1000
0000
,
1000
0010
0001
0100
1000
0100
0001
0010
,
2100
0001
0200
3300
;

//---------------dance-double - Chewi----------------
#NOTES:
     dance-double:
     Chewi:
     Hard:
     12:
     0.529,0.519,0.206,0.046,0.234: // measure 1
00000000
00000000
00000000
00000000
,  // measure 2
00000000
00000000
00000000
00000000
,  // measure 3
00000000
00000000
00000000
00000000
,  // measure 4
00000000
00000000
00000000
00000000
,  // measure 5
10000000
00000000
01000000
00100000
00010000
00000000
01000000
00000000
00100000
00000000
01000000
00000000
00010000
00000000
00100000
00000000
,  // measure 6
01000000
00000000
10000000
01000000
00100000
00000000
00010000
00000000
01000000
00000000
00010000
00000000
00100000
00000000
00001000
00000000
,  // measure 7
00010000
00000000
00000100
00001000
00000001
00000000
00000100
00000000
00000010
00000000
00001000
00000000
00000001
00000000
00000010
00000000
,  // measure 8
00000100
00000000
00001000
00000010
00000100
00000000
00000001
00000000
00001010
00000000
00000000
00000000
00000000
00000000
00000000
00000000
,  // measure 9
00000001
00000000
00000000
00000001
00000100
00000000
00000010
00000000
00001000
00000100
00001000
00000000
00000001
00000100
00000001
00000000
,  // measure 10
00001000
00000000
00000000
00001000
00000100
00000000
00010000
00000000
00001000
00010000
00001000
00000000
00010000
01000000
00010000
00000000
,  // measure 11
01000000
00000000
00000000
01000000
00100000
00000000
10000000
00000000
00010000
10000000
00010000
00000000
10000000
00010000
10000000
00000000
,  // measure 12
01020000
00100000
20000000
30030000
,  // measure 13
10000000
00000000
00000000
10000000
00010000
00000000
00000000
00010000
00100000
00000000
01000000
00000000
00100000
00000000
00010000
00000000
,  // measure 14
01000000
00000000
00000000
01000000
00010000
00000000
00000000
00010000
00100000
00000000
00001000
00000000
00010000
00000000
00000100
00000000
,  // measure 15
00001000
00000000
00000000
00001000
00000001
00000000
00000000
00000001
00001000
00000000
00000010
00000000
00000100
00000000
00000001
00000000
,  // measure 16
00000101
00000000
00000010
00000000
00000100
00000000
00001000
00000000
00000010
00000000
00000010
00000100
00000010
00000000
00000010
00000000
,  // measure 17
00001000
00000100
00000010
00001000
00000100
00001000
00001010
00001010
,  // measure 18
00000100
00010000
00001000
00100000
10000000
01000000
00100000
00010000
,  // measure 19
01000000
00000000
10000000
00000000
00100000
00000000
01000000
00010000
00000000
01000000
00100000
00000000
10000000
00000000
00010000
00000000
,  // measure 20
10000000
00010000
10000000
00000000
00010000
00000000
00000000
00000000
00100000
00000000
00100000
00000000
01000000
00000000
01000000
00000000
,  // measure 21
00110000
01000000
00100000
10000000
00010000
10000000
11000000
00000000
,  // measure 22
10000000
01000000
00100000
00010000
00001000
00000100
00000010
00000001
,  // measure 23
00000100
00000010
00000110
00000001
00000010
00000100
00001100
00000000
,  // measure 24
00001002
00000010
00000100
00001000
00000100
00000100
00000200
00000303
,  // measure 25
00000010
00000000
00001000
00000000
00000100
00000000
00001000
00000010
00001000
00000000
00000100
00000000
00010000
00000000
00000010
00000000
,  // measure 26
00001000
00000000
00010000
00000000
00010000
00000000
01000000
00000000
00100000
00000000
10000000
00010000
01000000
00000000
10000000
00000000
,  // measure 27
00100000
00000000
01000000
00000000
00010000
00000000
00100000
01000000
10000000
00000000
00100000
00000000
01000000
00000000
00010000
00000000
,  // measure 28
10000000
00000000
00010000
01000000
10000000
00000000
01000000
00000000
00100000
00000000
00010000
00000000
01000000
00000000
00010000
00000000
,  // measure 29
00100000
00001000
00010000
00000100
00001000
00000001
00000100
00000010
,  // measure 30
00001000
00000001
00000010
00000100
00001000
00000001
00000100
00000010
,  // measure 31
00001000
00000000
00001000
00000000
00000001
00000000
00000001
00000000
00000010
00000000
00000100
00000000
00001000
00000010
00001000
00000000
,  // measure 32
00000100
00010000
00001000
00000000
00010000
00001000
00010000
00000000
00010000
01000000
00010000
00000000
01000000
00000000
00100000
00000000
,  // measure 33
10010000
00000000
00000000
10000000
00010000
00000000
00100000
00000000
01000000
10000000
01000000
00000000
01000000
00010000
01000000
00000000
,  // measure 34
01100000
00000000
00000000
01000000
00010000
00000000
00100000
00000000
01000000
10000000
01000000
00000000
00010000
01000000
00010000
00000000
,  // measure 35
00100000
00001000
00010000
00000100
00001000
00000010
00000100
00000001
,  // measure 36
00000010
00001000
00000100
00000001
00000100
00001000
00000010
00000100
,  // measure 37
00000101
00000000
00000100
00000010
00000100
00000000
00000010
00000000
00001000
00000000
00000100
00000000
00010000
00000000
00001000
00000000
,  // measure 38
00100000
00000000
00010000
00100000
00010000
00000000
00010000
00000000
01000000
00000000
00100000
00000000
10000000
00000000
00010000
00000000
,  // measure 39
00100000
00000000
01000000
00100000
01000000
00000000
00100000
00000000
00010000
00000000
01000000
00100000
01000000
00000000
00010000
00000000
,  // measure 40
01010000
10100000
00110000
11000000
10010000
00000000
00000000
00000000
;

//---------------dance-double - Chewi----------------
#NOTES:
     dance-double:
     Chewi:
     Medium:
     6:
     0.281,0.293,0.137,0.069,0.000:
00000000
00000000
00000000
00000000
,
00000000
00000000
00000000
00000000
,
00000000
00000000
00000000
00000000
,
00000000
00000000
00000000
00000000
,
10000000
01000000
01010000
00000000
,
00010000
01000000
11000000
00000000
,
10000000
00100000
00010000
00000000
00100000
00000000
00001000
00010000
,
00022000
00000000
00000000
00033000
,
00010000
00001000
00000010
00000000
00000001
00000000
00000100
00000000
,
00001000
00000100
00000001
00000100
,
00001000
00010000
01000000
00000000
10000000
00000000
00100000
00000000
,
00010000
00100000
10010000
00000000
,
10000000
00000000
11000000
00000000
00010000
01000000
00010000
00000000
,
00100000
00001000
00000010
00000001
,
00000100
00000000
00000101
00000000
00000100
00001000
00000100
00000000
,
00001000
00000000
00001100
00000000
00000100
00000100
00000100
00000000
,
00000100
00010000
00001000
00000000
00100000
00000000
01000000
00000000
,
00100000
01000000
10000000
00000000
00100000
00000000
01000000
00000000
,
00010000
00100000
00001000
00000000
00010000
00000000
00000100
00000000
,
00000220
00000000
00000000
00000330
,
00000001
00000001
00000001
00000000
00001000
00000000
00001001
00000000
,
00000100
00000010
00001000
00010000
,
00010000
00010000
00010000
00000000
01000000
00000000
01100000
00000000
,
10010000
00000000
00000000
00000000
,
10000000
00100000
00010000
01000000
,
10000000
00100000
00010000
00010000
,
00001000
00000010
00000001
00000100
,
00001000
00000010
00000001
00000001
,
00000001
00000100
00000010
00000000
00001000
00000000
00000100
00000000
,
00010000
00001000
00100000
00000000
01000000
00000000
10000000
00000000
,
00100000
01000000
00100000
00000000
01000000
00000000
00010000
00000000
,
20010000
00010000
00020000
30030000
,
00010000
00100000
00001000
00000000
00010000
00000000
00000100
00000000
,
00001000
00000001
00001000
00000000
00000001
00000000
00000100
00000000
,
00000010
00000100
00000010
00000000
00000100
00000000
00000001
00000000
,
00000010
00000100
00000010
00000000
00000100
00000000
00001000
00000000
,
00000010
00001000
00010000
00000000
01000000
00000000
10000000
00000000
,
01000000
00100000
00010000
00000000
00001000
00000000
00000010
00000000
,
00001000
00010000
01000000
00010000
00001000
00000000
00000000
00000000
,
00010000
00001000
00000010
00001000
00010000
00000000
00000000
00000000
;

//---------------dance-double - Chewi----------------
#NOTES:
     dance-double:
     Chewi:
     Easy:
     4:
     0.220,0.248,0.103,0.023,0.000:
00000000
00000000
00000000
00000000
,
00000000
00000000
00000000
00000000
,
00000000
00000000
00000000
00000000
,
00000000
00000000
00000000
00000000
,
10000000
01000000
00010000
00000000
,
00010000
00001000
00010000
00000000
,
00001000
00000010
00000001
00000000
,
00002002
00000000
00000000
00003003
,
00000001
00000100
00000010
00001000
,
00000001
00000001
00000001
00000001
,
00000001
00000010
00000100
00001000
,
00010000
00010000
00010000
00010000
,
01000000
01000000
00100000
01100000
,
00100000
00100000
01000000
01100000
,
10000000
00010000
00100000
01000000
,
01100000
00000000
00010000
00000000
,
00010000
00001000
00000010
00000001
,
00000100
00001000
00010000
01000000
,
00100000
00010000
01000000
00100000
,
00010000
00000000
00001000
00000000
,
00000010
00000010
00000100
00000100
,
00000001
00000001
00001000
00001000
,
00000001
00000010
00001000
00010000
,
01000000
10000000
00100000
00010000
,
00100000
01000000
01000000
00100000
,
00010000
01000000
00100000
00000000
,
00100000
00010000
00001000
00000010
,
00000001
00000100
00000010
00000000
,
00000010
00000110
00000100
00000000
,
00001000
00011000
00001000
00000000
,
00010000
01010000
00010000
00000000
,
10010000
00000000
00000000
00000000
,
10000000
01000000
00100000
00010000
,
00001000
00000010
00000001
00000010
,
00000001
00000100
00000010
00001000
,
00010000
01000000
10000000
01000000
,
00100000
00010000
01000000
00100000
,
01000000
00010000
00100000
01000000
,
00100000
00010000
00001000
00000000
,
00010000
00001000
00011000
00000000
;
