#TITLE:Barcelona;
#SUBTITLE:;
#ARTIST:Plastiscines;
#TITLETRANSLIT:;
#SUBTITLETRANSLIT:;
#ARTISTTRANSLIT:;
#GENRE:;
#CREDIT:Chewphoria~;
#MENUCOLOR:;
#METERTYPE:DDR X;
#BANNER:Barcelona.png;
#BACKGROUND:Barcelona-bg.png;
#LYRICSPATH:;
#CDTITLE:;
#MUSIC:Barcelona.mp3;
#OFFSET:-9.515;
#SAMPLESTART:21.115;
#SAMPLELENGTH:15.000;
#SELECTABLE:YES;
#LISTSORT:;
#DISPLAYBPM:134.000;
#BPMS:0.000=134.000;
#STOPS:;
#BGCHANGES:-21.000=Barcelona.avi=1.000=1=1=0,
170.000=Barcelona-bg.png=1.000=1=0=1,
99999=-nosongbg-=1.000=0=0=0 // don't automatically add -songbackground-
;
#ATTACKS:;

//---------------dance-single - Chewphoria~----------------
#NOTES:
     dance-single:
     Chewphoria~:
     Beginner:
     2:
     0.149,0.166,0.034,0.034,0.000: // measure 1
2000
0000
0000
3000
,  // measure 2
1000
0000
0000
0000
,  // measure 3
0200
0000
0000
0300
,  // measure 4
0100
0000
0000
0000
,  // measure 5
1001
0000
1000
0000
,  // measure 6
1000
0000
0001
0001
,  // measure 7
0000
0000
0100
0000
,  // measure 8
0010
0000
1000
0000
,  // measure 9
0100
0000
0001
0001
,  // measure 10
0001
0000
0001
0001
,  // measure 11
0001
0000
0001
0000
,  // measure 12
0010
0000
1000
0000
,  // measure 13
0100
0000
0100
0100
,  // measure 14
0100
0000
0010
0010
,  // measure 15
0010
0000
1001
0000
,  // measure 16
1000
0000
0001
0000
,  // measure 17
0100
0000
0100
0000
,  // measure 18
0001
0000
1000
0000
,  // measure 19
0010
0000
2000
0000
,  // measure 20
0000
0000
0000
0000
,  // measure 21
0000
0000
0000
0000
,  // measure 22
0000
0000
0000
0000
,  // measure 23
0000
3000
1000
0000
,  // measure 24
0100
0000
0100
0000
,  // measure 25
0100
0000
0001
0000
,  // measure 26
0100
0000
0100
0000
,  // measure 27
0100
0000
1000
1000
,  // measure 28
1000
0000
0001
0001
,  // measure 29
0001
0000
0010
0010
,  // measure 30
0010
0000
0100
0100
,  // measure 31
0100
0100
0110
0000
,  // measure 32
0010
0000
1000
0000
,  // measure 33
0100
0000
0001
0000
,  // measure 34
0100
0000
1000
0000
,  // measure 35
0010
0000
0001
0000
,  // measure 36
1000
0000
0001
0000
,  // measure 37
1000
0000
0010
0000
,  // measure 38
0100
0000
0010
0010
,  // measure 39
0010
0010
1000
0000
,  // measure 40
1000
0000
0001
0000
,  // measure 41
0001
0000
0100
0000
,  // measure 42
0100
0000
0010
0010
,  // measure 43
0010
0010
0000
0000
;

//---------------dance-single - Chewphoria~----------------
#NOTES:
     dance-single:
     Chewphoria~:
     Easy:
     6:
     0.251,0.261,0.135,0.022,0.000: // measure 1
1001
0000
1000
0100
,  // measure 2
0001
0000
0001
0010
,  // measure 3
1000
0000
1000
0001
,  // measure 4
1000
1001
0100
0010
,  // measure 5
0110
0000
0110
0000
,  // measure 6
0110
0000
0000
0000
1000
0001
1000
0001
,  // measure 7
0000
0000
1000
0100
,  // measure 8
0001
0010
1000
0100
,  // measure 9
0001
0100
1000
0010
,  // measure 10
0001
0100
1000
0010
,  // measure 11
0100
0001
0001
0100
,  // measure 12
1000
0010
0001
0100
,  // measure 13
1000
0010
0001
0100
,  // measure 14
1000
0100
0001
0010
,  // measure 15
1000
0010
1001
0000
,  // measure 16
1000
1000
1001
0000
,  // measure 17
0010
0001
0100
0000
,  // measure 18
0001
0100
0110
0000
,  // measure 19
1000
0001
2002
0000
,  // measure 20
0000
0000
0000
0000
,  // measure 21
0000
0000
0000
0000
,  // measure 22
0000
0000
0000
0000
,  // measure 23
0000
3003
0100
0000
,  // measure 24
0100
0000
0010
0000
,  // measure 25
0010
0000
0100
0000
,  // measure 26
0100
0000
1000
1000
,  // measure 27
0001
0001
0100
0010
,  // measure 28
0100
0010
1000
0001
,  // measure 29
1000
0001
0010
0100
,  // measure 30
0010
0000
0100
0000
1000
0001
1000
0001
,  // measure 31
1000
0000
0001
0101
,  // measure 32
1000
0100
0001
0010
,  // measure 33
1000
1001
1000
0100
,  // measure 34
0010
0001
0001
0100
,  // measure 35
0010
1000
1000
0100
,  // measure 36
0001
0010
1000
0100
,  // measure 37
0001
0010
1000
0100
,  // measure 38
0010
0000
0001
0000
0100
0010
0100
0010
,  // measure 39
0100
0000
0010
1000
,  // measure 40
0100
0001
0001
0100
,  // measure 41
1000
0010
0001
0100
,  // measure 42
0010
0000
0100
0000
0010
0100
0010
0100
,  // measure 43
0010
0110
0000
0000
;

//---------------dance-single - Chewphoria~----------------
#NOTES:
     dance-single:
     Chewphoria~:
     Medium:
     8:
     0.324,0.333,0.202,0.067,0.000: // measure 1
1000
0000
0101
1000
,  // measure 2
1000
0000
1010
0001
,  // measure 3
0001
0000
0000
0000
1000
0001
1000
0000
,  // measure 4
0010
0000
0100
0000
0010
0100
0010
0000
,  // measure 5
2010
0000
0001
0000
,  // measure 6
3100
0000
0000
0000
0001
0001
1000
1000
,  // measure 7
0000
0000
0000
0000
1010
0000
0100
0001
,  // measure 8
0100
1000
0100
0001
,  // measure 9
0010
0000
1000
0000
0100
1000
0100
0000
,  // measure 10
0100
0000
0100
0000
0100
0001
0100
0000
,  // measure 11
0100
0000
0100
0000
0001
0010
0001
0000
,  // measure 12
1000
0000
1000
0000
1000
0010
1000
0000
,  // measure 13
0001
0000
0001
0000
0100
0100
0100
0000
,  // measure 14
0010
0000
0100
0000
0010
0010
0010
0000
,  // measure 15
0100
0010
1001
0000
,  // measure 16
0100
0100
1100
0000
,  // measure 17
0100
0100
0101
0000
,  // measure 18
0010
0010
1010
0000
,  // measure 19
0010
0010
0022
0000
,  // measure 20
0000
0000
0000
0000
,  // measure 21
0000
0000
0000
0000
,  // measure 22
0000
0000
0000
0000
,  // measure 23
0000
0000
0033
0000
1000
0100
1000
0000
,  // measure 24
0001
0010
0001
0000
1000
0100
1000
0000
,  // measure 25
0001
0100
0001
0000
0100
0000
0100
0000
,  // measure 26
0010
0000
0010
0000
1000
1000
1000
0000
,  // measure 27
0001
0001
0001
0000
2000
0000
0100
0000
,  // measure 28
0001
0010
3002
0100
,  // measure 29
1000
0010
2003
0010
,  // measure 30
0001
0000
0100
0000
3001
1000
0001
1000
,  // measure 31
0001
1000
0001
0000
1000
0000
1010
0010
,  // measure 32
0100
0000
0001
0000
0100
0001
0100
1000
,  // measure 33
0100
0000
1001
0000
0010
0010
0010
0000
,  // measure 34
0100
0000
0110
0000
0100
0100
0100
0000
,  // measure 35
0010
0000
1010
0000
1000
0010
1000
0000
,  // measure 36
0001
0000
0101
0000
1000
0100
1000
0000
,  // measure 37
0001
0000
1001
0000
0100
0100
0100
0000
,  // measure 38
0010
0010
0010
0000
1000
0000
1010
0000
,  // measure 39
0110
0000
0101
0000
0001
0100
0001
0000
,  // measure 40
0100
0000
0100
0000
1000
0100
1000
0000
,  // measure 41
0100
0000
0100
0000
1000
0001
1000
0000
,  // measure 42
0001
1000
0001
0000
1000
0000
0001
0000
,  // measure 43
0010
0010
0100
0100
0000
0000
0000
0000
;

//---------------dance-single - Chewphoria~----------------
#NOTES:
     dance-single:
     Chewphoria~:
     Hard:
     11:
     0.418,0.475,0.325,0.022,0.073: // measure 1
1000
0000
0000
0000
0000
0000
0000
0000
0001
0000
0000
0100
0000
0000
1000
0000
,  // measure 2
1001
0000
0000
0000
0000
0000
0000
0000
1000
0000
0000
0010
0000
0000
0100
0000
,  // measure 3
0101
0000
0000
0000
0000
0000
0000
0000
0001
0000
0000
0100
0000
0000
0001
0000
,  // measure 4
0010
0000
1000
0000
0100
0001
0100
1000
,  // measure 5
1001
0000
1001
0000
,  // measure 6
1001
0000
0000
0000
1000
0010
0001
0100
,  // measure 7
0000
0000
0000
0000
0101
0000
1100
1000
,  // measure 8
0100
0000
1000
0100
0010
0001
0100
0010
,  // measure 9
0100
0001
0010
0000
0100
1000
0100
0000
,  // measure 10
0100
0001
0100
0000
0101
0000
1010
0000
,  // measure 11
0101
0000
1100
0000
1000
0100
0010
0001
,  // measure 12
1000
0100
0010
0001
0100
0010
0100
0010
,  // measure 13
0100
0010
0100
0000
0001
0100
0010
1000
,  // measure 14
0001
1000
0001
0000
1000
0100
0010
0001
,  // measure 15
1000
0001
1000
0000
1001
0000
0000
0000
,  // measure 16
1000
0000
0000
1000
0000
0000
1000
0000
1010
0000
0000
0000
0000
0000
1000
0000
,  // measure 17
0010
0000
0000
0100
0000
0000
0001
0000
0101
0000
0000
0000
0000
0000
0001
0000
,  // measure 18
0010
0000
0000
0100
0000
0000
1000
0000
1100
0000
0000
0000
0000
0000
1000
0000
,  // measure 19
0001
0000
0000
0100
0000
0000
0010
0000
0220
0000
0000
0000
0000
0000
0000
0000
,  // measure 20
0000
0000
0000
0000
,  // measure 21
0000
0000
0000
0000
,  // measure 22
0000
0000
0000
0000
,  // measure 23
0000
0000
0000
0330
0000
0000
1000
0000
0100
0000
0000
0000
,  // measure 24
0001
0000
0100
0000
0000
0000
1000
0000
0010
0000
0000
0000
,  // measure 25
0001
0000
0000
0000
0000
0000
0000
0000
0010
0000
0000
0000
0000
0000
0000
0000
0000
0000
0000
0000
0000
0000
0000
0000
1000
0000
0000
0000
0000
0000
0000
0000
0000
0100
0000
0000
0000
0000
0000
0000
0000
0000
0000
0000
0000
0000
0000
0000
,  // measure 26
0001
0000
0000
0100
0000
0000
0000
0000
1000
0000
1000
0000
1000
0000
0000
0000
,  // measure 27
0001
0001
0001
0000
0101
0000
1000
0000
,  // measure 28
1000
0000
1000
0001
1010
0000
0010
0000
,  // measure 29
0010
0000
0010
1000
1001
0000
0001
0000
,  // measure 30
0001
0000
0001
0000
0001
0100
0010
1000
,  // measure 31
0001
0100
0010
1000
0001
0000
0101
1000
,  // measure 32
0100
0001
0100
0000
1000
0010
0001
0100
,  // measure 33
1000
0100
0101
0000
0100
0010
0100
0010
,  // measure 34
0100
0001
0100
0001
0100
0010
0100
0010
,  // measure 35
0100
1000
0100
1000
0100
1000
0100
0010
,  // measure 36
0001
0010
0100
0100
0010
0001
0100
0010
,  // measure 37
0100
0001
0100
0010
1000
1000
0001
0001
,  // measure 38
0010
0010
0100
0100
1100
0001
0001
0001
,  // measure 39
0101
1000
1000
1000
1000
0010
0100
0001
,  // measure 40
0100
0010
1000
0001
0010
0100
1000
0100
,  // measure 41
0010
0001
0100
0010
1000
0001
0010
0100
,  // measure 42
1000
0001
1000
0010
0101
1000
1100
0001
,  // measure 43
1001
1001
1001
1001
0000
0000
0000
0000
;
