#TITLE:Barbra Streisand;
#SUBTITLE:;
#ARTIST:Duck Sauce;
#TITLETRANSLIT:;
#SUBTITLETRANSLIT:;
#ARTISTTRANSLIT:;
#GENRE:;
#CREDIT:Chewi☆;
#MENUCOLOR:#FFFF00;
#METERTYPE:DDR X;
#BANNER:Barbra Streisand.png;
#BACKGROUND:Barbra Streisand-bg.png;
#LYRICSPATH:;
#CDTITLE:./CDTITLES/DanceDanceRevolution skyMIX2 -FREEDOM-.png;
#MUSIC:Barbra Streisand.mp3;
#OFFSET:-0.422;
#SAMPLESTART:15.421;
#SAMPLELENGTH:15.000;
#SELECTABLE:YES;
#LISTSORT:;
#DISPLAYBPM:128.000;
#BPMS:0.000=128.000;
#STOPS:;
#BGCHANGES:-12.000=X2_Disco.avi=1.000=0=0=1,
99999=-nosongbg-=1.000=0=0=0 // don't automatically add -songbackground-
;
#ATTACKS:;

//---------------dance-single - Chewi----------------
#NOTES:
     dance-single:
     Chewi:
     Easy:
     3:
     0.172,0.260,0.079,0.079,0.000: // measure 1
0000
0000
0000
0000
,  // measure 2
0000
0000
0000
0000
,  // measure 3
0000
0000
0000
0000
,  // measure 4
0000
0000
0000
0000
,  // measure 5
1000
0000
0000
0000
,  // measure 6
0001
0000
1000
0000
,  // measure 7
0010
0000
0000
0000
,  // measure 8
0100
0000
0110
0000
,  // measure 9
0010
1000
0100
0000
,  // measure 10
0010
0000
0010
0000
,  // measure 11
0010
0001
0100
0000
,  // measure 12
0010
0000
0010
0000
,  // measure 13
1000
0001
1000
0000
,  // measure 14
0001
0000
0001
0000
,  // measure 15
0001
1000
0001
0000
,  // measure 16
1000
0000
1001
0000
,  // measure 17
2000
0000
0000
3000
,  // measure 18
0100
0000
0010
0000
,  // measure 19
0020
0000
0000
0030
,  // measure 20
0001
0000
1000
0000
,  // measure 21
1000
0100
1000
0000
,  // measure 22
0010
0000
0100
0000
,  // measure 23
0001
0010
0001
0000
,  // measure 24
0010
0000
0100
0000
,  // measure 25
0001
0100
0001
0000
,  // measure 26
1000
0000
0001
0000
,  // measure 27
1000
0100
1000
0000
,  // measure 28
0001
0000
1001
0000
,  // measure 29
2000
0000
0010
0000
,  // measure 30
0001
0000
3100
0000
,  // measure 31
0002
0000
1000
0000
,  // measure 32
0100
0000
1003
0000
,  // measure 33
0020
0000
0100
0000
,  // measure 34
1000
0000
0030
0000
,  // measure 35
0200
0000
1000
0000
,  // measure 36
0010
0000
0301
0000
,  // measure 37
0010
0010
0010
0010
,  // measure 38
0100
0100
0100
0100
,  // measure 39
0010
0000
1001
0000
,  // measure 40
0100
0000
1001
0000
,  // measure 41
1000
1000
1000
1000
,  // measure 42
0001
0001
0001
0001
,  // measure 43
1001
0000
0100
0000
,  // measure 44
1001
0000
0010
0010
,  // measure 45
0020
0000
0000
0000
,  // measure 46
0000
0000
0000
0000
,  // measure 47
0000
0030
0000
0000
;

//---------------dance-single - Chewi----------------
#NOTES:
     dance-single:
     Chewi:
     Medium:
     6:
     0.277,0.312,0.135,0.169,0.000: // measure 1
0000
0000
0000
0000
,  // measure 2
0000
0000
0000
0000
,  // measure 3
0000
0000
0000
0000
,  // measure 4
0000
0000
0000
0000
,  // measure 5
2000
0000
0000
0000
,  // measure 6
3002
0000
0203
0000
,  // measure 7
2300
0000
0000
0000
,  // measure 8
3020
0000
0200
0330
,  // measure 9
0001
0010
0100
0000
1000
0000
0001
0000
,  // measure 10
0100
0010
1000
0001
,  // measure 11
0000
0000
1000
0010
0100
0000
0001
0000
,  // measure 12
0010
1000
0100
0001
,  // measure 13
0000
0000
1000
0001
0010
0000
0100
0000
,  // measure 14
0001
0010
1000
0100
,  // measure 15
0000
0000
0010
0100
1000
0000
0001
0000
,  // measure 16
0100
0010
0220
0330
,  // measure 17
0010
1100
0010
0101
,  // measure 18
1000
0100
0001
0010
,  // measure 19
0100
0011
0100
1010
,  // measure 20
0001
0100
1000
0010
,  // measure 21
0102
0000
0010
0000
,  // measure 22
1000
0100
0010
0010
,  // measure 23
2003
0000
0010
0000
,  // measure 24
0001
0100
0010
0010
,  // measure 25
3020
0000
0100
0000
,  // measure 26
1000
0100
0001
0100
,  // measure 27
2030
0000
0100
0000
,  // measure 28
0001
0010
0020
3030
,  // measure 29
0010
1100
0010
0101
,  // measure 30
1000
0001
0100
1000
,  // measure 31
0010
0101
0010
1100
,  // measure 32
0001
1000
0100
0001
,  // measure 33
0010
0010
0010
0000
0100
0000
0010
0000
,  // measure 34
0001
1000
0010
0100
,  // measure 35
0010
0010
0010
0000
0100
0000
0001
0000
,  // measure 36
1000
0100
0011
0000
,  // measure 37
0001
0100
1000
0100
,  // measure 38
0001
0010
1000
0100
,  // measure 39
0001
0010
1000
0010
,  // measure 40
0001
0100
1000
0010
,  // measure 41
0001
0100
0001
0000
1000
0000
0100
0000
,  // measure 42
0001
0100
1000
0010
,  // measure 43
1000
0010
1000
0000
0010
0000
0001
0000
,  // measure 44
0010
1000
0001
0010
,  // measure 45
0220
0000
0000
0000
,  // measure 46
0000
0000
0000
0000
,  // measure 47
0000
0330
0000
0000
;

//---------------dance-single - Chewi----------------
#NOTES:
     dance-single:
     Chewi:
     Hard:
     9:
     0.433,0.443,0.079,0.428,0.000: // measure 1
0000
0000
0000
0000
,  // measure 2
0000
0000
0000
0000
,  // measure 3
0000
0000
0000
0000
,  // measure 4
0000
0000
0000
0000
,  // measure 5
2000
0000
0000
0000
,  // measure 6
3002
0000
0203
0000
,  // measure 7
0320
0000
0000
0000
,  // measure 8
0032
0000
0200
0303
,  // measure 9
0001
0100
1000
0100
0002
0000
0013
1000
,  // measure 10
0200
0000
0310
0001
0200
0000
0320
0000
,  // measure 11
1030
0100
0010
0001
0200
0000
1300
0010
,  // measure 12
0200
0000
1300
0001
0200
0000
0320
0000
,  // measure 13
0130
0001
0010
0100
2000
0000
3010
1000
,  // measure 14
0200
0000
0310
0001
0200
0000
0320
0000
,  // measure 15
0130
0001
0010
0100
2000
0000
3010
0001
,  // measure 16
0200
0000
1300
0010
0200
0000
0001
0000
,  // measure 17
0310
1000
0001
0010
0100
1000
0001
0000
,  // measure 18
1100
1000
0011
0010
,  // measure 19
1000
0001
0100
0010
1000
0001
0010
0000
,  // measure 20
0011
0100
1010
0100
,  // measure 21
0001
0100
1000
0100
0002
0000
0013
0100
,  // measure 22
2000
0000
3010
0001
0200
0000
0020
0000
,  // measure 23
0330
0001
0010
0100
2000
0000
3010
0100
,  // measure 24
0002
0000
0103
0010
2000
0000
0002
0000
,  // measure 25
3003
1000
0100
0001
0200
0000
1300
0010
,  // measure 26
0200
0000
0301
0100
0020
0000
2000
0000
,  // measure 27
3030
0010
1000
0100
0020
0000
0031
0100
,  // measure 28
0020
0000
0130
0010
0020
0000
0100
0000
,  // measure 29
1030
0001
0010
0100
1000
0001
0100
1000
,  // measure 30
0100
0001
0010
0100
1000
0001
0010
0100
,  // measure 31
1000
0001
0100
1000
0100
0001
0010
1000
,  // measure 32
0010
0001
0100
1000
0010
0100
1000
0010
,  // measure 33
0100
0001
0100
1000
0100
0001
0010
1000
,  // measure 34
0010
0001
0100
0010
1000
0001
0100
0010
,  // measure 35
1000
0100
0001
0100
1000
0010
0001
0010
,  // measure 36
1000
0001
0010
0100
1000
0001
1000
0001
,  // measure 37
1000
0100
0001
0010
,  // measure 38
0100
0100
0100
0000
0010
0010
0010
0000
,  // measure 39
0010
1000
0100
0001
,  // measure 40
0010
0001
0100
1000
,  // measure 41
0001
0100
1000
0010
,  // measure 42
0100
1000
0100
0000
0100
0001
0100
0000
,  // measure 43
0001
0010
0100
0000
1000
0000
1010
0000
,  // measure 44
0001
0100
1000
0000
0010
0000
0101
0000
,  // measure 45
2002
0000
0000
0000
,  // measure 46
0000
0000
0000
0000
,  // measure 47
0000
3003
0000
0000
;

//---------------dance-single - Chewi----------------
#NOTES:
     dance-single:
     Chewi:
     Beginner:
     1:
     0.121,0.173,0.045,0.113,0.000: // measure 1
0000
0000
0000
0000
,  // measure 2
0000
0000
0000
0000
,  // measure 3
0000
0000
0000
0000
,  // measure 4
0000
0000
0000
0000
,  // measure 5
1000
0000
0000
0000
,  // measure 6
0100
0000
1000
0000
,  // measure 7
0010
0000
0000
0000
,  // measure 8
0001
0000
1001
0000
,  // measure 9
2000
0000
0000
3000
,  // measure 10
1000
0000
0000
0000
,  // measure 11
0002
0000
0000
0003
,  // measure 12
0001
0000
0000
0000
,  // measure 13
0100
0000
0100
0000
,  // measure 14
0100
0000
0100
0000
,  // measure 15
0010
0000
0010
0000
,  // measure 16
0010
0000
0010
0000
,  // measure 17
2000
0000
0000
3000
,  // measure 18
1000
0000
0001
0000
,  // measure 19
0002
0000
0000
0003
,  // measure 20
0001
0000
1000
0000
,  // measure 21
0200
0000
0000
0300
,  // measure 22
0100
0000
0000
0000
,  // measure 23
0020
0000
0000
0030
,  // measure 24
0010
0000
0000
0000
,  // measure 25
0002
0000
0000
0003
,  // measure 26
0001
0000
0000
0000
,  // measure 27
2000
0000
0000
3000
,  // measure 28
1000
0000
1001
0000
,  // measure 29
0100
0100
0100
0000
,  // measure 30
0010
0000
0000
0000
,  // measure 31
0010
0010
0010
0000
,  // measure 32
0100
0000
0000
0000
,  // measure 33
1000
1000
1000
0000
,  // measure 34
0001
0000
0000
0000
,  // measure 35
0001
0001
0001
0000
,  // measure 36
1000
0000
1001
0000
,  // measure 37
0200
0000
0000
0000
,  // measure 38
0000
0000
0000
0300
,  // measure 39
0020
0000
0000
0000
,  // measure 40
0000
0000
0000
0030
,  // measure 41
0010
0000
0010
0000
,  // measure 42
0010
0000
0010
0000
,  // measure 43
0100
0000
0100
0000
,  // measure 44
0100
0000
0100
0000
,  // measure 45
1001
0000
0000
0000
;
