#TITLE:Barbaric;
#SUBTITLE:;
#ARTIST:Petite Meller;
#TITLETRANSLIT:;
#SUBTITLETRANSLIT:;
#ARTISTTRANSLIT:;
#GENRE:Pop;
#CREDIT:chewi;
#BANNER:Barbaric.png;
#BACKGROUND:Barbaric-bg.png;
#LYRICSPATH:;
#CDTITLE:cdtitle.png;
#MUSIC:Barbaric.ogg;
#OFFSET:-0.049000;
#SAMPLESTART:56.028999;
#SAMPLELENGTH:15.000000;
#SELECTABLE:YES;
#DISPLAYBPM:120.000000;
#BPMS:0.000000=120.000000
;
#STOPS:
;
#BGCHANGES:0.000=Barbaric.mp4=1.000=1=0=1===CrossFade==,
99999=-nosongbg-=1.000=0=0=0 // don't automatically add -songbackground-
;
#KEYSOUNDS:;
#ATTACKS:;

//---------------dance-single - ----------------
#NOTES:
     dance-single:
     :
     Beginner:
     2:
     0.099292,0.171009,0.006882,0.000000,0.000000,101.000000,100.000000,1.000000,0.000000,0.000000,0.000000,0.099292,0.171009,0.006882,0.000000,0.000000,101.000000,100.000000,1.000000,0.000000,0.000000,0.000000:
0000
0000
0000
0000
,
0000
0000
0000
0000
,
0000
0000
0000
0000
,
0000
0000
0000
0000
,
1000
0000
0000
0000
,
0100
0000
0000
0000
,
1000
0000
0000
0000
,
0100
0000
0000
0000
,
0001
0000
0000
0000
,
0100
0000
0000
0000
,
0001
0000
0000
0000
,
0100
0000
0000
0000
,
0001
0000
0000
0000
,
1000
0000
0000
0000
,
0010
0000
0000
0000
,
0100
0000
0000
0000
,
0010
0010
0010
0000
,
0010
0010
0010
0000
,
0010
0000
0000
0000
,
0100
0000
0000
0000
,
0100
0100
0100
0000
,
0100
0100
0100
0000
,
0100
0000
0000
0000
,
0010
0000
0000
0000
,
1001
0000
0000
0000
,
0000
0000
0000
0000
,
0000
0000
0000
0000
,
0000
0000
0000
0000
,
0001
0000
0001
0000
,
0001
0000
0001
0000
,
0010
0000
0010
0000
,
0010
0000
0010
0000
,
0100
0000
0100
0000
,
0100
0000
0100
0000
,
1000
0000
1000
0000
,
1000
0000
1000
0000
,
0001
0000
0001
0000
,
0001
0000
0001
0000
,
1000
0000
1000
0000
,
1000
0000
1000
0000
,
0010
0000
0000
0000
,
0010
0000
0000
0000
,
0010
0000
0000
0000
,
0010
0000
0000
0000
,
0100
0000
0000
0000
,
0100
0000
0000
0000
,
0100
0000
0000
0000
,
0100
0000
0000
0000
,
0001
0000
0000
0000
,
0100
0000
0000
0000
,
0001
0000
0000
0000
,
0100
0000
0000
0000
,
1000
0000
0000
0000
,
0100
0000
0000
0000
,
1000
0000
0000
0000
,
0100
0000
0000
0000
,
1000
0000
1000
0000
,
1000
0000
1000
0000
,
0100
0000
0100
0000
,
0100
0000
0100
0000
,
0010
0000
0010
0000
,
0010
0000
0010
0000
,
0001
0000
0001
0000
,
0001
0000
0001
0000
,
1000
0000
1000
0000
,
1000
0000
1000
0000
,
0001
0000
0001
0000
,
0001
0000
0001
0000
,
0100
0000
0100
0000
,
0100
0000
0100
0000
,
0010
0000
0010
0000
,
0010
0000
0000
0000
;

//---------------dance-single - ----------------
#NOTES:
     dance-single:
     :
     Hard:
     12:
     0.493513,0.537457,0.068816,0.282148,0.402577,502.000000,492.000000,10.000000,41.000000,8.000000,0.000000,0.493513,0.537457,0.068816,0.282148,0.402577,502.000000,492.000000,10.000000,41.000000,8.000000,0.000000:
// measure 0
0000
0000
0000
0000
,  // measure 1
0000
0000
0000
0000
,  // measure 2
0000
0000
0000
0000
,  // measure 3
0000
0000
0000
0000
,  // measure 4
0000
0000
1000
0000
0000
0010
0000
0000
0100
0000
0000
0000
0101
0000
0000
0000
,  // measure 5
0000
0000
0001
0000
0000
0010
0000
0000
0100
0000
0000
0000
1100
0000
0000
0000
,  // measure 6
0000
0000
1000
0000
0000
0001
0000
0000
0100
0000
0000
0000
0101
0000
0000
0000
,  // measure 7
0000
0000
0001
0000
0000
1000
0000
0000
0100
0000
0000
0000
1100
0000
0000
0000
,  // measure 8
0001
0000
1000
0000
0000
1000
0000
0000
1000
0000
0001
0000
0010
0000
0100
0000
,  // measure 9
1000
0000
0001
0000
0000
0001
0000
0000
0001
0000
1000
0000
0100
0000
0010
0000
,  // measure 10
0100
0000
1000
0000
0000
1000
0000
0000
1000
0000
0010
0000
0100
0000
0001
0000
,  // measure 11
0100
0000
0010
0000
0000
0010
0000
0000
0020
0000
0230
0000
0302
0000
0023
0000
,  // measure 12
0130
0000
1000
0000
0000
1000
0000
0000
1000
0000
0001
0000
0010
0000
0100
0000
,  // measure 13
1000
0000
0001
0000
0000
0001
0000
0000
0001
0000
1000
0000
0010
0000
0100
0000
,  // measure 14
0001
0000
0100
0000
0000
0100
0000
0000
0100
0000
0010
0000
1000
0000
0001
0000
,  // measure 15
0020
0230
2300
3002
0203
0320
2030
3002
,  // measure 16
1003
0M10
0000
0M10
0001
0000
0000
0000
,  // measure 17
0001
01M0
0000
01M0
1000
0000
0000
0000
,  // measure 18
1000
0001
0100
0001
1000
0000
1001
0000
,  // measure 19
0001
1000
0100
1000
0001
0000
1001
0000
,  // measure 20
1000
01M0
0000
01M0
0001
0000
0000
0000
,  // measure 21
0001
0M10
0000
0M10
1000
0000
0000
0000
,  // measure 22
0001
1000
0100
1000
0001
0000
1001
0000
,  // measure 23
1000
0001
0100
0001
1000
0000
1001
0000
,  // measure 24
0202
0000
0000
0003
,  // measure 25
0020
0000
0000
0300
,  // measure 26
2000
0000
0000
0030
,  // measure 27
0002
0000
0000
0000
0000
0000
3003
0000
1000
0000
0001
0000
1000
0000
0001
1000
,  // measure 28
0001
0000
1000
0000
0001
1000
0000
0001
1000
0000
0001
1000
0000
0001
1000
0000
,  // measure 29
0100
0000
0010
0000
0001
0010
0000
0001
0010
0000
0001
0010
0000
0001
0010
0000
,  // measure 30
0100
0000
1000
0000
0010
1000
0000
0010
1000
0000
0010
1000
0000
0010
1000
0000
,  // measure 31
0010
0100
0001
0100
0020
2030
3020
2030
,  // measure 32
3001
0000
1000
0000
0001
0010
0000
0001
0010
0000
0001
0010
0000
0001
0010
0000
,  // measure 33
0100
0000
0010
0000
0001
0010
0000
0001
0010
0000
0001
0010
0000
0001
0010
0000
,  // measure 34
0001
0000
0100
0000
0010
1000
0000
0010
1000
0000
0010
1000
0000
0010
1000
0000
,  // measure 35
0010
0100
0001
1000
0100
0010
0100
1000
,  // measure 36
0100
0000
1000
0000
0100
1000
0000
0100
1000
0000
0100
1000
0000
0100
1000
0000
,  // measure 37
0100
0000
0010
0000
0001
0010
0000
0001
0010
0000
0001
0010
0000
0001
0010
0000
,  // measure 38
0001
0000
1000
0000
0100
0010
0000
0100
0010
0000
0100
0010
0000
0100
0010
0000
,  // measure 39
0200
0320
0032
2003
3020
0230
0302
2003
,  // measure 40
3001
0000
0000
0001
0100
0000
0000
0000
0010
0000
0010
0000
0010
0000
0000
0000
,  // measure 41
1000
0000
0000
1000
0100
0000
0000
0000
0010
0000
0010
0000
0010
0000
0000
0000
,  // measure 42
0001
0000
0000
0001
0010
0000
0000
0000
0100
0000
0100
0000
0100
0000
0000
0000
,  // measure 43
1000
0000
0000
1000
0010
0000
0000
0000
0100
0000
0100
0000
0100
0000
0100
0010
,  // measure 44
0100
0000
0100
0000
0010
1000
0100
0010
,  // measure 45
0001
0000
0001
0000
0010
0100
1000
0010
,  // measure 46
0100
0000
0100
0000
0001
0010
0100
1000
,  // measure 47
0001
0000
1000
0000
0001
0000
0000
0000
1000
0000
0001
0000
1000
0000
0001
0100
,  // measure 48
0001
0100
0000
0100
0001
0000
0000
0000
0010
0000
0100
0000
1000
0000
0000
0000
,  // measure 49
1000
0100
0000
0100
1000
0000
0000
0000
1000
0000
0010
0000
0100
0000
0000
0000
,  // measure 50
0001
1000
0000
1000
0001
0000
0000
0000
0010
0000
0100
0000
1000
0000
0000
0000
,  // measure 51
0001
1000
0000
1000
0001
0000
0000
0000
0010
0000
0100
0000
1000
0000
0010
0000
,  // measure 52
0100
0001
0000
0001
0100
0000
0000
0000
0001
0000
0010
0000
0100
0000
1000
0000
,  // measure 53
0001
1000
0000
1000
0001
0000
0000
0000
1000
0000
0100
0000
0010
0000
0001
0000
,  // measure 54
0010
0100
0000
0100
0010
0000
0000
0000
0001
0000
0100
0000
0010
0000
1000
0000
,  // measure 55
1010
0000
0000
0000
0000
0000
0000
0000
0100
0000
0100
0000
0001
0000
1000
0001
,  // measure 56
1000
0000
0001
0000
1000
0001
0000
1000
0001
0000
1000
0001
0000
1000
0001
0000
,  // measure 57
0010
0000
0100
0000
1000
0100
0000
1000
0100
0000
1000
0100
0000
1000
0100
0000
,  // measure 58
0010
0000
0001
0000
0100
0001
0000
0100
0001
0000
0100
0001
0000
0100
0001
0000
,  // measure 59
0100
0010
1000
0010
0100
0001
0100
0001
,  // measure 60
1000
0000
0001
0000
1000
0100
0000
1000
0100
0000
1000
0100
0000
1000
0100
0000
,  // measure 61
0010
0000
0100
0000
1000
0100
0000
1000
0100
0000
1000
0100
0000
1000
0100
0000
,  // measure 62
1000
0000
0010
0000
0100
0001
0000
0100
0001
0000
0100
0001
0000
0100
0001
0000
,  // measure 63
0200
0320
2030
3002
0023
0230
0320
0032
,  // measure 64
0013
0000
0001
0000
0010
0001
0000
0010
0001
0000
0010
0001
0000
0010
0001
0000
,  // measure 65
0010
0000
0100
0000
1000
0100
0000
1000
0100
0000
1000
0100
0000
1000
0100
0000
,  // measure 66
1000
0000
0001
0000
0010
0100
0000
0010
0100
0000
0010
0100
0000
0010
0100
0000
,  // measure 67
0010
0100
1000
0001
0200
0320
2030
3002
,  // measure 68
1003
0000
0001
0000
1000
0010
0000
1000
0010
0000
1000
0010
0000
1000
0010
0000
,  // measure 69
0100
0000
0001
0000
0100
0001
0000
0100
0001
0000
0100
0001
0000
0100
0001
0000
,  // measure 70
0100
0000
0010
0000
1000
0001
0000
1000
0001
0000
1000
0001
0000
0000
1000
0001
,  // measure 71
1000
0000
0000
0000
;

//---------------dance-single - ----------------
#NOTES:
     dance-single:
     :
     Easy:
     4:
     0.186788,0.222965,0.013763,0.123870,0.000000,190.000000,188.000000,2.000000,18.000000,0.000000,0.000000,0.186788,0.222965,0.013763,0.123870,0.000000,190.000000,188.000000,2.000000,18.000000,0.000000,0.000000:
0000
0000
0000
0000
,
0000
0000
0000
0000
,
0000
0000
0000
0000
,
0000
0000
0000
0000
,
1000
0100
1000
0000
,
0100
1000
0100
0000
,
1000
0100
1000
0000
,
0100
1000
0100
0000
,
0001
0100
0001
0000
,
0100
0001
0100
0000
,
0001
0100
0001
0000
,
0100
0001
0100
0000
,
0100
0010
0100
0000
,
0010
0100
0010
0000
,
0100
0010
0100
0000
,
0010
0100
0010
0000
,
2000
3000
2000
3000
,
0002
0003
0002
0003
,
1000
1000
0100
0000
,
0001
0001
0100
0000
,
0200
0300
0200
0300
,
0020
0030
0020
0030
,
0100
0100
0010
0000
,
0010
0010
0100
0000
,
2002
0000
0000
0000
,
0000
0000
0000
0003
,
0200
0000
0000
0000
,
0000
0000
0000
3300
,
1000
0100
1000
0000
,
0100
0010
0100
0000
,
0010
0001
0010
0000
,
0001
0100
0001
0100
,
0010
0100
0010
0000
,
1000
0001
1000
0000
,
0100
0010
0100
0000
,
1000
0001
1000
0001
,
0100
0001
0100
0000
,
0001
1000
0001
0000
,
0001
0010
0001
0000
,
0010
0100
1000
0100
,
2000
0000
0000
3000
,
0200
0000
0000
0300
,
0020
0000
0000
0030
,
0002
0000
0000
0003
,
0001
0001
0001
0001
,
1000
1000
1000
1000
,
0001
1000
0001
1000
,
0001
1000
1000
0001
,
1000
0100
0000
0100
,
0000
0100
0000
0100
,
0010
0001
0000
0001
,
0000
0001
0000
0001
,
0100
0010
0000
0010
,
0000
0010
0000
0010
,
1000
0001
0000
0001
,
2002
0000
0000
3003
,
0001
0010
0001
0000
,
0010
0100
0010
0000
,
0100
1000
0100
0000
,
1000
0010
1000
0010
,
0100
0010
0100
0000
,
0001
1000
0001
0000
,
0010
0100
0010
0000
,
0001
1000
0001
1000
,
0010
1000
0010
0000
,
1000
0001
1000
0000
,
1000
0100
1000
0000
,
0100
0010
0001
1000
,
0001
0100
0001
0100
,
0001
0010
0001
0010
,
0001
0100
0001
0100
,
0002
0000
0000
0000
,
0003
0000
0000
0000
;

//---------------dance-single - ----------------
#NOTES:
     dance-single:
     :
     Medium:
     7:
     0.290995,0.322061,0.027527,0.178923,0.013763,296.000000,292.000000,4.000000,26.000000,0.000000,0.000000,0.290995,0.322061,0.027527,0.178923,0.013763,296.000000,292.000000,4.000000,26.000000,0.000000,0.000000:
0000
0000
0000
0000
,
0000
0000
0000
0000
,
0000
0000
0000
0000
,
0000
0000
0000
0000
,
0000
0000
1000
0000
0000
1000
0000
0000
1000
0000
0000
0000
0000
0000
0000
0000
,
0000
0000
0100
0000
0000
0100
0000
0000
0100
0000
0000
0000
0000
0000
0000
0000
,
0000
0000
0010
0000
0000
0010
0000
0000
0010
0000
0000
0000
0000
0000
0000
0000
,
0000
0000
0001
0000
0000
0001
0000
0000
0001
0000
0000
0000
0000
0000
0000
0000
,
0002
0103
0002
1003
,
0002
0000
0013
0000
0001
1000
0001
1000
,
2000
3010
2000
3001
,
2000
0000
3100
0000
1000
0001
1000
0001
,
0002
0103
0200
0310
,
0020
0000
1030
0000
1000
0010
1000
0010
,
2000
3010
0020
0130
,
0200
0000
0301
0000
0001
0100
0001
0000
,
0001
0000
0000
0001
0001
0000
0000
0000
,
1000
0000
0000
1000
1000
0000
0000
0000
,
1000
0100
0001
1000
,
0010
0001
1000
1001
,
0001
0000
0000
0001
0001
0000
0000
0000
,
1000
0000
0000
1000
1000
0000
0000
0000
,
0001
0100
1000
0001
,
0010
1000
0001
1001
,
0220
0000
0000
0300
,
2000
0000
0000
0030
,
0200
0000
0000
3000
,
0020
0000
0330
0000
0100
1000
0100
1000
,
0100
1000
0000
1000
0000
1000
0000
1000
,
0010
0100
0000
0100
0000
0100
0000
0100
,
0001
0010
0000
0010
0000
0010
0000
0010
,
0001
0010
0001
0000
0010
0001
0010
0001
,
0010
0001
0000
0001
0000
0001
0000
0001
,
0010
0100
0000
0100
0000
0100
0000
0100
,
1000
0010
0000
0010
0000
0010
0000
0010
,
1000
0010
1000
0000
0010
1000
0010
1000
,
0010
0100
0000
0100
0000
0100
0000
0100
,
0001
0010
0000
0010
0000
0010
0000
0010
,
0100
1000
0000
1000
0000
1000
0000
1000
,
0001
1000
0001
0000
1000
0001
1000
0001
,
1000
0010
0000
0010
,
0000
0001
0000
0001
,
0000
0100
0000
0100
,
0000
1000
0000
1000
,
0010
0001
0100
1000
,
0010
0001
0100
1000
,
0010
0001
0010
1000
,
0100
0001
0100
1000
,
0002
0010
1000
0103
,
0200
0001
0010
0301
,
0002
0010
1000
0103
,
2000
0100
0001
3010
,
0020
0001
0100
1030
,
0200
1000
0010
0301
,
0002
0100
0010
1003
,
1001
0000
0000
0000
0000
0001
1000
0001
,
1000
0001
0000
0001
0000
0001
0000
0001
,
0100
0010
0000
0010
0000
0010
0000
0010
,
1000
0100
0000
0100
0000
0100
0000
0100
,
1000
0100
1000
0000
0100
1000
0100
1000
,
0100
1000
0000
1000
0000
1000
0000
1000
,
0100
0010
0000
0010
0000
0010
0000
0010
,
0001
0100
0000
0100
0000
0100
0000
0100
,
0001
0100
0001
0000
0100
0001
0100
0001
,
0100
0010
0000
0010
0000
0010
0000
0010
,
1000
0100
0000
0100
0000
0100
0000
0100
,
0010
0001
0000
0001
0000
0001
0000
0001
,
1000
0001
1000
0000
0001
1000
0001
1000
,
0001
1000
0000
1000
0000
1000
0000
1000
,
0010
0100
0000
0100
0000
0100
0000
0100
,
0001
0010
0000
0010
0000
0010
0000
0020
,
0002
0000
0000
0000
,
0033
0000
0000
0000
;
