#TITLE:Bangarang;
#SUBTITLE:;
#ARTIST:Skrillex feat. Sirah;
#TITLETRANSLIT:;
#SUBTITLETRANSLIT:;
#ARTISTTRANSLIT:;
#GENRE:;
#CREDIT:yamamoto_;
#MENUCOLOR:;
#METERTYPE:DDR X;
#BANNER:Bangarang.png;
#BACKGROUND:Bangarang-bg.png;
#LYRICSPATH:;
#CDTITLE:;
#MUSIC:Bangarang.mp3;
#OFFSET:-0.417;
#SAMPLESTART:26.599.
#SAMPLELENGTH:15.000;
#SELECTABLE:YES;
#LISTSORT:;
#DISPLAYBPM:110.000;
#BPMS:0.000=110.000;
#STOPS:;
#BGCHANGES:;
#ATTACKS:;

//---------------dance-single - yamamoto_----------------
#NOTES:
     dance-single:
     yamamoto_:
     Hard:
     12:
     0.497,0.525,0.295,0.101,0.253: // measure 1
0000
0000
0000
0000
,  // measure 2
0000
0000
0000
0000
,  // measure 3
0000
0000
0000
0000
,  // measure 4
0000
0000
0000
0000
,  // measure 5
1000
0000
0000
0000
0100
0000
0000
0000
0010
0000
0000
0010
0000
0000
0010
0000
,  // measure 6
0001
0000
0000
0000
0100
0000
0000
0000
0010
0000
0000
0010
0000
0000
0010
0000
,  // measure 7
0100
0000
0000
0000
0010
0000
0000
0000
1000
0000
0000
1000
0000
0000
1000
0000
,  // measure 8
0001
0000
0000
0000
0010
0000
0000
0000
0100
0000
0000
0100
0000
0000
0100
0000
,  // measure 9
0100
0000
0000
0000
0010
0000
0000
0000
0001
0000
0000
0001
0000
0000
0001
0000
,  // measure 10
1000
0000
0000
0000
0100
0000
0000
0000
1000
0000
0000
1000
0000
0000
1000
0000
,  // measure 11
0010
0100
0010
1010
,  // measure 12
0100
0001
0010
0011
,  // measure 13
2001
0000
0000
0000
3001
0000
1000
0000
0010
0000
0100
0010
0100
0000
0010
0000
,  // measure 14
1000
0100
1000
0000
0001
0100
0001
0000
1000
0000
0100
0000
0010
0000
0000
0000
,  // measure 15
0012
0000
0000
0000
1003
0000
0100
0000
0010
0000
0100
1000
0010
0000
1000
0000
,  // measure 16
0001
0100
0001
0000
1000
0100
1000
0000
0010
0000
0100
0000
0101
0000
0000
0000
,  // measure 17
1002
0000
0000
0000
1003
0000
0010
0000
0100
0000
0001
0100
0001
0000
0010
0000
,  // measure 18
1000
0100
1000
0000
0001
0010
0001
0000
0001
0000
1000
0000
0100
0000
0000
0000
,  // measure 19
1002
0000
0000
0000
0103
0000
0010
0000
1000
0000
0100
1000
0010
0000
0100
0000
,  // measure 20
0001
0100
0001
0000
1000
0001
1000
0000
0001
0000
1000
0000
1100
0000
0000
0000
,  // measure 21
2100
0000
0000
0000
3010
0000
1000
0000
0100
0000
0010
0001
0100
0000
0001
0000
,  // measure 22
0100
0010
0100
0010
1000
0010
1000
0000
0001
0000
1000
0000
1100
0000
0000
0000
,  // measure 23
0012
0000
0000
0000
1003
0000
0100
0000
0010
0000
0100
1000
0010
0000
0100
0000
,  // measure 24
0001
0100
0001
0100
0001
0010
0001
0000
0010
0000
0100
0000
1000
0000
0000
0000
,  // measure 25
2010
0000
0000
0000
3100
0000
0010
0000
0100
0000
1000
0010
1000
0000
0001
0000
,  // measure 26
0100
0010
0100
0010
1000
0010
1000
0000
1000
0000
0001
0000
1100
0000
0000
0000
,  // measure 27
0012
0000
0000
0000
0013
0000
0100
0000
1000
0000
0010
1000
0100
0000
0010
0000
,  // measure 28
0001
1000
0001
1000
0001
0100
0001
0000
0100
0000
0010
0000
1000
0000
0000
0000
,  // measure 29
1000
0000
1000
0000
1000
0100
0010
0001
,  // measure 30
0100
0000
0100
0000
0100
0010
1000
0001
,  // measure 31
0010
0000
0010
0000
0010
0001
0100
1000
,  // measure 32
0010
0000
0100
0000
0010
1000
0001
0010
,  // measure 33
0100
0000
0100
0000
0100
0010
0001
0010
,  // measure 34
0100
0000
1000
0000
0010
1000
0100
1000
,  // measure 35
0010
0000
0100
0000
0001
1000
0100
1000
,  // measure 36
0001
0101
1001
0000
,  // measure 37
1010
0000
1000
0000
0100
0000
1000
0000
0010
1000
0010
0000
0100
0001
0100
0000
,  // measure 38
0010
0000
1000
0000
0011
0000
0100
0000
1000
0010
1000
0000
1100
0000
0000
0000
,  // measure 39
1001
0000
0100
0000
1000
0000
0010
0000
1000
0100
0010
0000
0001
0010
0100
0000
,  // measure 40
1000
0001
1000
0001
1000
0000
0010
0000
1010
0000
0100
0000
0101
0000
0000
0000
,  // measure 41
0101
0000
0001
0000
0010
0000
0001
0000
0100
0001
0100
0000
0010
1000
0010
0000
,  // measure 42
0100
0000
0001
0000
1100
0000
0010
0000
0001
0100
0001
0000
0011
0000
0000
0000
,  // measure 43
1001
0000
0010
0000
0001
0000
0100
0000
0001
0010
0100
0000
1000
0100
0010
0000
,  // measure 44
0001
1000
0001
1000
0001
0000
0100
0000
0101
0000
0010
0000
1010
0000
0000
0000
,  // measure 45
1002
0000
0000
0000
1003
0000
0001
0000
0100
0000
0010
0100
0010
0000
0100
0000
,  // measure 46
0001
0010
0001
0000
1000
0010
1000
0000
0001
0000
0010
0000
0100
0000
0000
0000
,  // measure 47
2100
0000
0000
0000
3001
0000
0010
0000
0100
0000
0010
0001
0100
0000
0001
0000
,  // measure 48
1000
0010
1000
0000
0001
0010
0001
0000
0100
0000
0010
0000
1010
0000
0000
0000
,  // measure 49
2001
0000
0000
0000
3001
0000
0100
0000
0010
0000
1000
0010
1000
0000
0100
0000
,  // measure 50
0001
0010
0001
0000
1000
0100
1000
0000
1000
0000
0001
0000
0010
0000
0000
0000
,  // measure 51
2001
0000
0000
0000
3010
0000
0100
0000
0001
0000
0010
0001
0100
0000
0010
0000
,  // measure 52
1000
0010
1000
0000
0001
1000
0001
0000
1000
0000
0001
0000
0011
0000
0000
0000
,  // measure 53
1001
0000
0000
0000
;

//---------------dance-single - yamamoto_----------------
#NOTES:
     dance-single:
     yamamoto_:
     Medium:
     9:
     0.275,0.285,0.051,0.152,0.025: // measure 1
0000
0000
0000
0000
,  // measure 2
0000
0000
0000
0000
,  // measure 3
0000
0000
0000
0000
,  // measure 4
0000
0000
0000
0000
,  // measure 5
1000
0000
0000
0000
0001
0000
0000
0000
1000
0000
0000
1000
0000
0000
0000
0000
,  // measure 6
0001
0000
0000
0000
1000
0000
0000
0000
0001
0000
0000
0001
0000
0000
0000
0000
,  // measure 7
0100
0000
0000
0000
0010
0000
0000
0000
0100
0000
0000
0100
0000
0000
0000
0000
,  // measure 8
0010
0000
0000
0000
0100
0000
0000
0000
0010
0000
0000
0010
0000
0000
0000
0000
,  // measure 9
1000
0000
0000
0000
0010
0000
0000
0000
1000
0000
0000
1000
0000
0000
0000
0000
,  // measure 10
0001
0000
0000
0000
0010
0000
0000
0000
0001
0000
0000
0001
0000
0000
0000
0000
,  // measure 11
0010
0100
0010
0000
,  // measure 12
0100
0010
0100
0000
,  // measure 13
2000
0000
3001
1000
0001
0000
1000
0000
,  // measure 14
0010
0100
0010
0000
0100
0000
0001
0000
,  // measure 15
0002
0000
1003
0100
1000
0000
0100
0000
,  // measure 16
0010
0100
1000
0000
0010
0000
0100
0000
,  // measure 17
0002
0000
0013
0000
0100
1000
0010
0000
,  // measure 18
1000
0000
0100
0000
0010
0001
1000
0000
,  // measure 19
0002
0000
1003
0000
0100
1000
0010
0000
,  // measure 20
0100
0000
0001
0000
1000
0010
0100
0000
,  // measure 21
0002
0000
0013
0100
0010
0000
0001
0000
,  // measure 22
0010
0100
1000
0000
0010
0000
1000
0000
,  // measure 23
0002
0000
0103
0010
0100
0000
0001
0000
,  // measure 24
1000
0100
0010
0000
0001
0000
1000
0000
,  // measure 25
0002
0000
0013
0000
0100
1000
0010
0000
,  // measure 26
1000
0000
0100
0000
0010
0100
1000
0000
,  // measure 27
0002
0000
0103
0000
0010
0100
0001
0000
,  // measure 28
1000
0000
0001
0010
0100
0000
1000
0000
,  // measure 29
0020
0000
0000
0000
,  // measure 30
0032
0000
0000
0000
,  // measure 31
0203
0000
0000
0000
,  // measure 32
2300
0000
0000
0000
,  // measure 33
3010
0010
0020
0000
,  // measure 34
0130
0100
0200
0000
,  // measure 35
0301
0000
1000
0000
0001
1000
0001
0000
,  // measure 36
0001
1000
1100
0000
,  // measure 37
1000
0000
0100
0000
0010
0001
0100
0000
,  // measure 38
0010
0100
1000
1100
,  // measure 39
1000
0000
0100
0000
0010
0100
1000
0000
,  // measure 40
1000
0010
0100
0101
,  // measure 41
1000
0000
0100
0000
0010
0100
1000
0000
,  // measure 42
0010
1000
0001
1100
,  // measure 43
0010
0000
1000
0000
0010
1000
0100
0000
,  // measure 44
0010
0001
0100
0101
,  // measure 45
0002
0000
1003
0001
1000
0000
0001
0000
,  // measure 46
0100
0010
0100
0000
0010
0000
1000
0000
,  // measure 47
2000
0000
3001
0010
0001
0000
0010
0000
,  // measure 48
0100
0010
0001
0000
0100
0000
0010
0000
,  // measure 49
2000
0000
3100
0000
0010
0001
0100
0000
,  // measure 50
0001
0000
0010
0000
0100
1000
0001
0000
,  // measure 51
2000
0000
3001
0000
0010
0001
0100
0000
,  // measure 52
0010
0000
1000
0000
0001
0100
0010
0000
,  // measure 53
0110
0000
0000
0000
;

//---------------dance-single - yamamoto_----------------
#NOTES:
     dance-single:
     yamamoto_:
     Beginner:
     3:
     0.107,0.109,0.000,0.101,0.000: // measure 1
0000
0000
0000
0000
,  // measure 2
0000
0000
0000
0000
,  // measure 3
0000
0000
0000
0000
,  // measure 4
0000
0000
0000
0000
,  // measure 5
1000
0000
1000
0000
,  // measure 6
0001
0000
0001
0000
,  // measure 7
0100
0000
0100
0000
,  // measure 8
0010
0000
0010
0000
,  // measure 9
1000
0000
0001
0000
,  // measure 10
0010
0000
0010
0000
,  // measure 11
0001
0000
1000
0000
,  // measure 12
0100
0000
0100
0000
,  // measure 13
2000
0000
0000
3000
,  // measure 14
1000
0000
0010
0000
,  // measure 15
0200
0000
0000
0300
,  // measure 16
0100
0000
0010
0000
,  // measure 17
0020
0000
0000
0030
,  // measure 18
0010
0000
0010
0000
,  // measure 19
0002
0000
0000
0003
,  // measure 20
0001
0000
0100
0000
,  // measure 21
0200
0000
0000
0300
,  // measure 22
0100
0000
0010
0000
,  // measure 23
0002
0000
0000
0003
,  // measure 24
0001
0000
0010
0000
,  // measure 25
0002
0000
0000
0003
,  // measure 26
0001
0000
1000
0000
,  // measure 27
2000
0000
0000
3000
,  // measure 28
1000
0000
0100
0000
,  // measure 29
0010
0000
0000
0000
,  // measure 30
0100
0000
0000
0000
,  // measure 31
0010
0000
0000
0000
,  // measure 32
0100
0000
0000
0000
,  // measure 33
0001
0000
0000
0000
,  // measure 34
1000
0000
0000
0000
,  // measure 35
0001
0000
0000
0000
,  // measure 36
1000
0000
0000
0000
,  // measure 37
0100
0000
0100
0000
,  // measure 38
0100
0000
0010
0000
,  // measure 39
0100
0000
0100
0000
,  // measure 40
1000
0000
0010
0000
,  // measure 41
0100
0000
0100
0000
,  // measure 42
0010
0000
0100
0000
,  // measure 43
0100
0000
0100
0000
,  // measure 44
0100
0000
1000
0000
,  // measure 45
2000
0000
0000
3000
,  // measure 46
1000
0000
0010
0000
,  // measure 47
0200
0000
0000
0300
,  // measure 48
0100
0000
0010
0000
,  // measure 49
0020
0000
0000
0030
,  // measure 50
0010
0000
0010
0000
,  // measure 51
0002
0000
0000
0003
,  // measure 52
0001
0000
0100
0000
,  // measure 53
0100
0000
0000
0000
;

//---------------dance-single - yamamoto_----------------
#NOTES:
     dance-single:
     yamamoto_:
     Easy:
     5:
     0.203,0.197,0.000,0.202,0.000: // measure 1
0000
0000
0000
0000
,  // measure 2
0000
0000
0000
0000
,  // measure 3
0000
0000
0000
0000
,  // measure 4
0000
0000
0000
0000
,  // measure 5
1000
1000
2000
0000
,  // measure 6
3001
0001
0002
0000
,  // measure 7
0103
0100
0200
0000
,  // measure 8
0310
0010
0020
0000
,  // measure 9
1030
0100
0001
0000
,  // measure 10
0010
0010
0010
0000
,  // measure 11
0001
0100
1000
0000
,  // measure 12
0100
0100
0100
0000
,  // measure 13
2000
0001
0001
3001
,  // measure 14
0001
1000
0010
0000
,  // measure 15
0200
0010
0010
0310
,  // measure 16
0100
0001
0010
0000
,  // measure 17
0020
0100
0100
0130
,  // measure 18
1000
0100
0010
0000
,  // measure 19
0002
1000
1000
1003
,  // measure 20
1000
0010
0100
0000
,  // measure 21
0200
0010
0001
0310
,  // measure 22
1000
0100
0010
0000
,  // measure 23
0002
0010
0100
0013
,  // measure 24
0100
1000
0010
0000
,  // measure 25
0002
0010
1000
0013
,  // measure 26
1000
0100
1000
0000
,  // measure 27
2000
0001
0010
3001
,  // measure 28
0100
0010
0100
0000
,  // measure 29
0020
0000
0000
0000
,  // measure 30
0230
0000
0000
0000
,  // measure 31
0320
0000
0000
0000
,  // measure 32
0230
0000
0000
0000
,  // measure 33
0302
0000
0000
0000
,  // measure 34
2003
0000
0000
0000
,  // measure 35
3002
0000
0000
0000
,  // measure 36
2003
0000
0000
0000
,  // measure 37
3100
0100
0100
0000
,  // measure 38
0100
0001
0010
1000
,  // measure 39
0100
0100
0100
0000
,  // measure 40
1000
0100
0010
1000
,  // measure 41
0100
0100
0100
0000
,  // measure 42
0010
0001
0100
0001
,  // measure 43
0100
0100
0100
0000
,  // measure 44
0100
0010
1000
0001
,  // measure 45
2000
0001
0001
3001
,  // measure 46
0001
1000
0010
0000
,  // measure 47
0200
0010
0010
0310
,  // measure 48
0100
0001
0010
0000
,  // measure 49
0020
0100
0100
0130
,  // measure 50
1000
0100
0010
0000
,  // measure 51
0002
1000
1000
1003
,  // measure 52
1000
0010
0100
0000
,  // measure 53
0100
0000
0000
0000
;
