#TITLE:Bad Romance (Skrillex Remix);
#SUBTITLE:;
#ARTIST:Lady Gaga;
#TITLETRANSLIT:;
#SUBTITLETRANSLIT:;
#ARTISTTRANSLIT:;
#GENRE:;
#CREDIT:Chewi☆;
#MENUCOLOR:;
#METERTYPE:DDR X;
#BANNER:Bad Romance (Skrillex Remix).png;
#BACKGROUND:Bad Romance (Skrillex Remix)-bg.png;
#LYRICSPATH:;
#CDTITLE:;
#MUSIC:Bad Romance (Skrillex Remix).mp3;
#OFFSET:-4.236;
#SAMPLESTART:58.430;
#SAMPLELENGTH:15.000;
#SELECTABLE:YES;
#LISTSORT:;
#DISPLAYBPM:62.000:124.000;
#BPMS:0.000=124.020,168.000=62.010,172.000=124.020;
#STOPS:;
#BGCHANGES:;
#ATTACKS:;

//---------------dance-single - Chewi----------------
#NOTES:
     dance-single:
     Chewi:
     Beginner:
     2:
     0.117,0.166,0.060,0.070,0.000: // measure 1
0000
0000
0000
0000
,  // measure 2
0000
0000
0000
0000
,  // measure 3
0000
0000
0000
0000
,  // measure 4
0000
0000
0000
0000
,  // measure 5
2000
0000
0000
3000
,  // measure 6
1000
1000
0000
0000
,  // measure 7
0002
0000
0000
0003
,  // measure 8
0001
0001
0001
0000
,  // measure 9
0100
0000
0000
0000
,  // measure 10
0100
0000
0000
0000
,  // measure 11
0010
0000
0000
0000
,  // measure 12
0010
0000
0000
0000
,  // measure 13
0110
0000
0000
0000
,  // measure 14
1000
1000
1000
0000
,  // measure 15
1000
0000
0000
0000
,  // measure 16
1001
0000
0000
0000
,  // measure 17
1000
0000
0000
0000
,  // measure 18
0001
0000
0000
0000
,  // measure 19
1000
0000
0000
0000
,  // measure 20
0001
0000
0000
0000
,  // measure 21
0001
0001
0001
0000
,  // measure 22
0001
0000
0000
0000
,  // measure 23
1001
0000
0000
0000
,  // measure 24
0010
0000
0000
0000
,  // measure 25
2000
0000
0000
3000
,  // measure 26
1000
0000
0000
0000
,  // measure 27
0002
0000
0000
0003
,  // measure 28
0001
0000
0000
0000
,  // measure 29
0010
0000
0001
0000
,  // measure 30
0010
0000
0001
0000
,  // measure 31
0010
0000
1000
0000
,  // measure 32
0010
0000
1000
0000
,  // measure 33
0100
0000
1000
0000
,  // measure 34
0100
0000
1000
0000
,  // measure 35
0100
0000
0001
0000
,  // measure 36
0100
0000
0001
0000
,  // measure 37
1001
0000
0000
0000
,  // measure 38
0010
0010
0010
0000
,  // measure 39
0100
0000
0100
0000
,  // measure 40
0100
0000
0000
0000
,  // measure 41
1001
0000
0000
0000
,  // measure 42
0100
0100
0100
0000
,  // measure 43
0220
0000
0330
0000
,  // measure 44
2000
0000
0000
3000
,  // measure 45
1000
1000
0000
0000
,  // measure 46
0001
0001
0000
0000
,  // measure 47
1000
1000
1000
0000
,  // measure 48
0010
0000
0000
0000
;

//---------------dance-single - Chewi----------------
#NOTES:
     dance-single:
     Chewi:
     Easy:
     4:
     0.170,0.237,0.081,0.070,0.000:
0000
0000
0000
0000
,
0000
0000
0000
0000
,
0000
0000
0000
0000
,
0000
0000
0000
0000
,
1000
0100
1000
0000
,
0100
0000
0100
0000
,
0001
0100
0001
0000
,
0100
0000
0100
0000
,
0110
0010
0010
0010
,
0010
0010
0010
0000
,
1001
0001
0001
0001
,
0001
0001
0001
0000
,
0110
0100
0100
0100
,
0100
0100
0100
0000
,
1001
1000
1000
1000
,
1000
1000
1000
0000
,
1000
0000
0100
0000
,
0010
0000
0001
0000
,
1000
0000
0100
0000
,
0010
0000
0001
0000
,
1001
0000
0000
0000
,
1000
0001
1000
0000
,
0110
0000
0000
0000
,
0110
0000
0000
0000
,
0002
0000
0000
0003
,
0020
0000
0000
0030
,
0002
0000
0000
0003
,
2000
0000
0000
3000
,
0010
1000
0100
0000
,
0100
0000
0100
0000
,
0100
0001
0010
0000
,
0010
0000
0010
0000
,
0010
0001
0100
0000
,
0100
0000
0100
0000
,
0100
1000
0010
0000
,
0010
0000
0010
0000
,
0020
0000
0000
0030
,
0010
0100
0010
0100
,
0200
0000
0000
0300
,
0100
0010
0100
0010
,
2000
0000
0000
3000
,
1000
0001
1000
0001
,
1001
0000
0000
0000
,
1000
0100
1000
0000
,
0100
0000
0100
0000
,
0001
0100
0001
0000
,
0100
0000
0100
0000
,
1000
0000
0000
0000
;

//---------------dance-single - Chewi----------------
#NOTES:
     dance-single:
     Chewi:
     Medium:
     7:
     0.269,0.284,0.081,0.161,0.000:
0000
0000
0000
0000
,
0000
0000
0000
0000
,
0000
0000
0000
0000
,
0000
0000
0000
0000
,
0100
0001
0100
1000
,
0010
0001
0010
1000
,
0010
0001
0100
1000
,
2002
0000
0000
3003
,
0100
0000
0010
0000
0100
0010
0100
0000
,
0010
0000
0100
0000
0010
0100
0010
0000
,
1000
0000
0001
0000
1000
0001
1000
0000
,
0001
0000
1000
0000
0001
1000
0001
0000
,
2002
0000
0000
3003
,
0001
0010
1000
0100
,
0002
0000
0000
0003
,
1000
0001
1000
0000
0001
0000
1000
0000
,
0020
1000
0100
1030
,
1000
0001
1000
0001
,
0020
0001
0100
0031
,
0010
0100
0010
0100
,
0220
0000
0000
0330
,
0010
0001
0100
1000
,
0020
0000
0000
0030
,
0100
0100
0100
0100
,
0110
0000
0000
0000
0010
1000
0000
0000
,
1001
0000
0000
0000
0010
0001
0000
0000
,
0110
0000
0000
0000
0010
0100
0000
0000
,
0010
1000
0100
0001
,
0010
0000
0001
0000
0010
0001
0010
0000
,
0001
0000
0100
0000
0001
1000
0100
0000
,
1000
0000
0100
0000
1000
0100
1000
0000
,
0100
0000
1000
0000
0001
1000
0010
0000
,
0100
0000
0010
0000
0100
0010
0100
0000
,
0001
0000
0100
0000
0001
0010
0100
0000
,
1000
0000
0100
0000
0010
0100
0010
0000
,
0100
0000
1000
0000
0001
1000
0001
1000
,
0020
0000
0100
0200
,
0000
0030
0300
0010
,
0001
0100
1000
0010
,
0020
0000
0030
0000
0001
1000
0001
1000
,
0020
0000
0100
0200
,
0000
0030
0300
0010
,
1001
1000
0001
0100
0020
0000
0030
0000
,
0100
0001
0100
1000
,
0010
0001
0010
1000
,
0010
0001
0100
1000
,
0001
1000
0001
1000
,
1001
0000
0000
0000
;

//---------------dance-single - Chewi----------------
#NOTES:
     dance-single:
     Chewi:
     Hard:
     10:
     0.393,0.402,0.201,0.393,0.025:
0000
0000
0000
0000
,
0000
0000
0000
0000
,
0000
0000
0000
0000
,
0000
0000
0000
0000
,
1000
0000
1100
0000
0001
0100
0001
0200
,
0000
0310
0020
0000
1030
0010
1000
0010
,
1010
0000
0101
0000
0001
0100
0010
2000
,
0000
3001
1000
0001
2000
0000
0002
3000
,
1003
0000
0010
0000
0100
0100
0001
0000
,
1000
0000
0000
0000
0100
0000
0000
0000
0010
0001
0010
0000
0001
0000
0000
0000
,
0001
0000
0010
0000
0100
0100
1000
0000
,
0001
0000
0000
0000
0100
0000
0000
0000
0010
1000
0010
0000
1000
0000
0001
0000
,
2000
0010
0001
3100
,
0002
0100
1000
0013
,
0110
0000
0010
0000
0100
0010
0100
0000
,
0100
0000
0010
0000
0100
0010
0100
0010
,
0001
0000
0100
0000
0001
1000
0100
0000
,
1000
0000
0100
0000
1000
0001
0100
0000
,
0010
0000
0100
0000
0010
0100
0001
0000
,
0010
0000
0100
0000
0010
0100
1000
0000
,
1001
0000
1000
0000
0001
1000
0001
0000
,
1000
0000
0001
0000
1000
0001
1000
0000
,
0010
0000
0100
0000
0010
0100
0010
0000
,
0100
0000
0010
0000
0100
0010
0100
0000
,
1001
0000
0000
0000
1000
0100
0010
0000
,
1001
0000
0000
0000
0001
0100
0010
0000
,
0110
0000
0000
0000
0100
0010
1000
0000
,
0110
0000
0000
0000
0100
0010
0001
0000
,
2001
0000
3002
0000
0013
0100
1000
0000
,
0020
0000
0230
0000
0310
1000
0100
0000
,
2000
0000
3200
0000
0310
0100
0001
0000
,
0200
0000
0302
0000
0013
0001
0100
0000
,
0020
0000
0230
0000
0310
0100
0010
0000
,
2000
0000
3002
0000
1003
0001
1000
0000
,
0200
0000
0320
0000
0130
0010
1000
0000
,
0020
0000
0230
0000
0310
0100
0001
0000
,
2002
0000
3003
0000
1000
0001
2000
0000
,
3000
0010
0110
1001
,
0020
0031
0020
1030
,
0220
0000
0330
0000
0010
0100
0001
0000
,
2002
0000
3003
0000
1000
0001
2000
0000
,
3000
0010
0110
1001
,
0001
0000
0010
1000
0100
0001
0010
0002
0000
0000
0000
0000
0000
0000
0003
0000
,
1000
0000
1100
0000
0001
0100
0001
0200
,
0000
0310
0020
0000
1030
0010
1000
0010
,
1010
0000
0101
0000
0001
0100
0010
2000
,
0000
3001
1000
0001
2000
0000
0002
3000
,
1003
0000
0000
0000
;

//---------------dance-double - Chewi----------------
#NOTES:
     dance-double:
     Chewi:
     Hard:
     11:
     0.367,0.402,0.222,0.081,0.015:
00000000
00000000
00000000
00000000
,
00000000
00000000
00000000
00000000
,
00000000
00000000
00000000
00000000
,
00000000
00000000
00000000
00000000
,
10000000
00000000
10100000
00000000
10000000
00100000
10000000
00100000
,
00000000
00010000
00100000
00000000
00100000
00010000
00001000
00000000
,
00010000
00000000
00010100
00000000
00000100
00001000
00000001
00000000
,
00000100
00000100
00000010
00000010
00001000
00000001
00000010
00000000
,
00001100
00000000
00000100
00000000
00000100
00001000
00000100
00001000
,
00000100
00000000
00000100
00000000
00000100
00010000
00001000
00010000
,
00100000
00000000
00100000
00000000
00100000
10000000
01000000
10000000
,
00100000
00000000
00100000
00000000
00100000
10000000
01000000
00100000
,
00010000
00000000
00010000
00000000
00100000
00010000
00001000
00000010
,
00000001
00000000
00000010
00000000
00000001
00000010
00000100
00001000
,
00000010
00000010
00000100
00000100
00000001
00000001
00001000
00001000
,
00000200
00020300
00032000
00203000
,
00310000
00000000
11000000
00000000
10000000
00010000
00100000
00000000
,
10000000
00000000
11000000
00000000
00010000
10000000
00100000
00000000
,
01000000
00000000
00010000
00000000
00100000
00010000
01000000
00000000
,
01000000
00000000
00010000
00000000
00100000
00010000
00100000
00001000
,
00010000
00000000
00000100
00000000
00000010
00000100
00000010
00000000
,
00000001
00000000
00000100
00000000
00000010
00000100
00000010
00000000
,
00001000
00000000
00001100
00000000
00000001
00000100
00000010
00001000
,
00000200
00001000
00001000
00001300
,
00000100
00000000
00000000
00000000
00010000
00001000
00100000
00000000
,
00110000
00000000
00000000
00000000
00010000
10000000
00100000
00000000
,
01100000
00000000
00000000
00000000
01000000
00010000
00100000
00000000
,
00101000
00000000
00000000
00000000
00010000
00001000
00001010
00000000
,
00001000
00001001
00000010
00000100
,
00001000
00000010
00000100
00000000
00000001
00000000
00000010
00000000
,
00000100
00001000
00000001
00000000
00000010
00000001
00001000
00000010
,
00000200
00000000
00000000
00000300
,
00000010
00000000
00001000
00000000
00000100
00010000
00001000
00000000
,
00010000
00000000
01000000
00000000
10000000
00100000
00010000
00000000
,
01000000
00000000
00100000
00000000
00010000
01000000
00100000
20000000
,
00000000
00000000
00000000
30000000
,
10010000
00000000
00100000
00001000
00010000
00000100
00001000
00000001
,
00000100
00000010
00001010
00000101
,
00000001
00001000
00000100
00000000
00001000
00000100
00010000
00001000
,
00020000
00000000
00000000
00030000
,
00011000
00000000
00001000
00010000
00100000
10000000
01000000
00000000
,
00100000
00000000
01010000
00000000
00100000
00010000
01000000
00000000
,
00011000
00000000
00010000
00001000
00000010
00001000
00010000
01000000
00000000
00000000
00000000
00000000
00000000
00000000
00000000
00000000
,
00011000
00000000
00001010
00000000
00001000
00000010
00001000
00000000
,
00000001
00001000
00000100
00000010
00000001
00001000
00000010
00000100
,
00000101
00000000
00001100
00000000
00000100
00010000
00001000
00000000
,
00001000
00010000
00000100
00001000
00000100
00010000
00100000
10000000
,
10010000
00000000
00000000
00000000
;

//---------------dance-double - Chewi----------------
#NOTES:
     dance-double:
     Chewi:
     Medium:
     7:
     0.265,0.284,0.211,0.081,0.005:
00000000
00000000
00000000
00000000
,
00000000
00000000
00000000
00000000
,
00000000
00000000
00000000
00000000
,
00000000
00000000
00000000
00000000
,
00010000
00001000
00010000
00001000
,
00000010
00001000
00000010
00001000
,
00000001
00000100
00000001
00000100
,
00001000
00000100
00001000
00000100
,
00001001
00000000
00001000
00000000
00001000
00001000
00001000
00000000
,
00000100
00000000
00010000
00000000
00001000
00001000
00001000
00000000
,
00010000
00000000
00100000
00000000
10000000
10000000
10000000
00000000
,
00010000
00000000
00100000
00000000
01000000
01000000
01000000
00000000
,
20020000
00000000
00000000
30030000
,
00100000
00000000
00100000
00000000
00100000
00000000
00100000
01000000
,
00020000
00000000
00000000
00030000
,
00100000
00010000
00001000
00000100
,
00000001
00001001
00001000
00001001
,
00000010
00000010
00000010
00000010
,
00000100
00000110
00000010
00000110
,
00001000
00001000
00001000
00001000
,
00000100
00010100
00010000
00011000
,
00001000
00010000
00001000
00010000
,
00010000
10010000
10000000
10010000
,
01000000
01000000
01000000
00000000
,
01100000
00000000
00000000
01000000
00000000
00000000
00000000
00000000
,
00100000
00000000
00000000
10000000
00000000
00000000
00000000
00000000
,
10010000
00000000
00000000
00010000
00000000
00000000
00000000
00000000
,
00100000
00000000
00000000
00001000
00000000
00000000
00000000
00000000
,
00010000
00001000
00010000
00001000
,
00000010
00001000
00000010
00001000
,
00000100
00001000
00000100
00001000
,
00002002
00000000
00000000
00003003
,
00000001
00001000
00000001
00001000
,
00010000
00001000
00010000
00001000
,
00010000
10000000
00010000
10000000
,
20020000
00000000
00000000
30030000
,
01000000
00000000
00000000
00000000
00100000
00100000
00100000
00000000
,
00000000
00100000
10000000
00010000
,
00100000
11000000
00100000
01010000
,
01000000
00000000
01000000
00010000
,
00110000
00000000
00100000
00011000
,
00000000
00010000
00001000
00000010
,
00000110
00000000
00000000
00000000
00001000
00000000
00000001
00000200
00000000
00000000
00000000
00000000
00000000
00000000
00000000
00000000
,
00000301
00000000
00001000
00000000
00000100
00000100
00000100
00000000
,
00001000
00000100
00010000
00011000
,
00001000
00000000
00010000
00000000
00100000
00100000
00100000
00000000
,
10000000
01000000
00100000
01000000
,
10010000
00000000
00000000
00000000
;

//---------------dance-double - Chewi----------------
#NOTES:
     dance-double:
     Chewi:
     Easy:
     5:
     0.233,0.260,0.091,0.020,0.000:
00000000
00000000
00000000
00000000
,
00000000
00000000
00000000
00000000
,
00000000
00000000
00000000
00000000
,
00000000
00000000
00000000
00000000
,
00000001
00000100
00000010
00000000
,
00000010
00001000
00000100
00000000
,
00000100
00010000
00001000
00000000
,
00001000
00010000
00100000
00000000
,
01100000
00100000
00100000
00100000
,
00100000
00100000
00100000
00100000
,
10010000
00010000
00010000
00010000
,
00010000
00010000
00010000
00010000
,
00100000
00010000
00001000
00000100
,
00000010
00000001
00000001
00001000
,
00000001
00000100
00001000
00000010
,
00000001
00000100
00001000
00000010
,
00000100
00000100
00001000
00001000
,
00010000
00010000
00001000
00001000
,
00100000
00100000
00010000
00010000
,
00100000
00100000
01000000
01000000
,
10000000
00010000
10000000
00010000
,
00100000
01000000
00100000
01000000
,
10000000
00010000
10000000
00010000
,
10010000
00000000
00000000
00000000
,
01100000
00000000
00100000
00010000
,
00001000
00000000
00010000
00001000
,
00000010
00000000
00001000
00000010
,
00000001
00000000
00000001
00001000
,
00000001
00000010
00000100
00000100
,
00001000
00000010
00000100
00000100
,
00000010
00000100
00000001
00001000
,
00001001
00000000
00000000
00000000
,
00000001
00001000
00000100
00001000
,
00000100
00010000
00001000
00010000
,
00001000
00010000
01000000
10000000
,
01000000
00000000
00100000
00100000
,
00100000
00000000
01100000
00100000
,
00000000
00100000
00010000
01000000
,
10000000
00100000
00010000
00100000
,
00001000
00000000
00001000
00010000
,
00011000
00000000
00010000
00011000
,
00000000
00010000
00001000
00000010
,
00000200
00000000
00000020
00000330
,
00000001
00001000
00000001
00000001
,
00000010
00000100
00000010
00000010
,
00000100
00001000
00010000
01000000
,
10000000
10000000
00010000
00010000
,
10010000
00000000
00000000
00000000
;
