#TITLE:Bad Maniacs;
#SUBTITLE:;
#ARTIST:kors k as teranoid;
#TITLETRANSLIT:;
#SUBTITLETRANSLIT:;
#ARTISTTRANSLIT:;
#GENRE:;
#CREDIT:Chewi☆ & TaroNuke;
#MENUCOLOR:#FF0000;
#METERTYPE:DDR X;
#BANNER:Bad Maniacs.png;
#BACKGROUND:Bad Maniacs-bg.png;
#LYRICSPATH:;
#CDTITLE:;
#MUSIC:Bad Maniacs.mp3;
#OFFSET:-0.441;
#SAMPLESTART:55.892;
#SAMPLELENGTH:15.000;
#SELECTABLE:YES;
#LISTSORT:;
#DISPLAYBPM:195.000;
#BPMS:0.000=195.000,210.000=390.000,212.000=195.000,376.000=390.000,384.000=195.000;
#STOPS:210.000=0.077
,210.500=0.077
,211.000=0.077
,211.500=0.077
;
#BGCHANGES:;
#ATTACKS:;

//---------------dance-single - Chewi----------------
#NOTES:
     dance-single:
     Chewi:
     Beginner:
     4:
     0.210,0.402,0.249,0.066,0.000:
0000
0000
0000
0000
,
0000
0000
0000
0000
,
0000
0000
0000
0000
,
0000
0000
0000
0000
,
0000
0000
0000
0000
,
0000
0000
0000
0000
,
0000
0000
0000
0000
,
0000
0000
0000
0000
,
0000
0000
0000
0000
,
0000
0000
0000
0000
,
0000
0000
0000
0000
,
0000
0000
0000
0000
,
0000
0000
0000
0000
,
1000
0000
0010
0000
,
1000
0000
1001
0000
,
0001
0000
0010
0000
,
0010
0000
0110
0000
,
0010
0000
0100
0000
,
0001
0000
1001
0000
,
0001
0000
0100
0000
,
0001
0000
0110
0000
,
0100
0000
0100
0000
,
0001
0000
0100
0000
,
0010
0000
0010
0000
,
1000
0000
0010
0000
,
1000
0000
0001
0000
,
0100
0000
1001
0000
,
0220
0000
0000
0000
,
0000
0000
0000
0330
,
0010
0000
0010
0000
,
0010
0000
0100
0000
,
0010
0000
0010
0000
,
0010
0000
0100
0000
,
1001
0000
0110
0000
,
1001
0000
0110
0000
,
1001
0000
0110
0000
,
1001
0000
0000
0000
,
0110
0000
0001
0000
,
1000
0000
0010
0000
,
0110
0000
1000
0000
,
0001
0000
1000
0000
,
0110
0000
0001
0000
,
1001
0000
0100
0000
,
0110
0000
0100
0000
,
0001
0000
0000
0000
,
1000
0000
0100
0000
,
1000
0000
0001
0000
,
1000
0000
0010
0000
,
0010
0000
0100
0000
,
0010
0000
0100
0000
,
0001
0000
1000
0000
,
0100
0000
0010
0000
,
1000
0000
1000
0000
0001
1000
0001
1000
,
2002
0000
0000
0000
,
0000
0000
0000
0000
,
3003
0000
0000
0000
,
1001
0000
0000
0000
,
0001
0000
0100
0000
,
1001
0000
0000
0000
,
0010
0000
0010
0000
,
0110
0000
0000
0000
,
1000
0000
0010
0000
,
0001
0000
0010
0000
,
0100
0000
1000
0000
,
0001
0000
0100
0000
,
0010
0000
0100
0000
,
1000
0000
0010
0000
,
1000
0000
0001
0000
,
0110
0000
0110
0000
,
1000
0000
0001
0000
,
0100
0000
0100
0000
,
0001
0000
1000
0000
,
0010
0000
0100
0000
,
1000
0000
0110
0000
,
0001
0000
0110
0000
,
1001
0000
0001
0000
,
0110
0000
0001
0000
,
1000
0000
0001
0000
,
0100
0000
1000
0000
,
0010
0000
0010
0000
,
0001
0000
0010
0000
,
0001
0000
0010
0000
,
0100
0000
0100
0000
,
0100
0000
0010
0000
,
0001
0000
0100
0000
,
2002
0000
0000
0000
,
0000
0000
0000
0000
,
0000
0000
0000
0000
,
0000
0000
0000
0000
,
0000
0000
0000
0000
,
0000
0000
0000
0000
,
0000
0000
0000
0000
,
0000
0000
0000
0000
,
0000
0000
0000
3003
,
1000
0000
0000
0000
,
0001
0000
0000
0000
,
2002
0000
0000
0000
,
3003
0000
0000
0000
;

//---------------dance-single - Chewi----------------
#NOTES:
     dance-single:
     Chewi:
     Easy:
     9:
     0.410,0.684,0.481,0.133,0.000: // measure 1
0000
0000
0000
0000
,  // measure 2
0000
0000
0000
0000
,  // measure 3
0000
0000
0000
0000
,  // measure 4
0000
0000
0000
0000
,  // measure 5
0000
0000
0000
0000
,  // measure 6
0000
0000
0000
0000
,  // measure 7
0000
0000
0000
0000
,  // measure 8
0000
0000
0000
0000
,  // measure 9
0000
0000
0000
0000
,  // measure 10
0000
0000
0000
0000
,  // measure 11
0000
0000
0000
0000
,  // measure 12
0000
0000
0000
0000
,  // measure 13
0000
0000
0000
0000
,  // measure 14
1000
0100
0010
0001
,  // measure 15
1000
0001
2002
3003
,  // measure 16
0001
0100
0010
1000
,  // measure 17
0010
0100
0120
0030
,  // measure 18
0010
1000
0100
0010
,  // measure 19
0001
1000
2200
3300
,  // measure 20
0001
0010
0100
1000
,  // measure 21
0001
1000
1020
0030
,  // measure 22
0100
0000
0010
0000
0100
0010
0100
0000
,  // measure 23
0001
0010
0100
1000
,  // measure 24
0010
0000
0100
0000
0010
0100
0010
0000
,  // measure 25
1000
0100
0010
0001
,  // measure 26
1000
1100
0001
0101
,  // measure 27
0100
0110
1001
0110
,  // measure 28
0220
0000
0000
0000
,  // measure 29
0000
0000
0330
0000
,  // measure 30
0010
0100
0010
0100
,  // measure 31
0010
0001
0100
1000
,  // measure 32
0010
0100
0010
0100
,  // measure 33
0010
1000
0100
0001
,  // measure 34
1001
0000
0110
0000
,  // measure 35
1001
0000
0110
0000
,  // measure 36
0011
0000
0101
0000
,  // measure 37
1100
0000
0000
0000
,  // measure 38
1010
0010
0001
0010
,  // measure 39
1000
1000
0010
0010
,  // measure 40
0101
0100
1000
0100
,  // measure 41
0001
0001
1000
1000
,  // measure 42
0110
1000
0001
1000
,  // measure 43
1001
1000
0100
1000
,  // measure 44
0110
0010
0100
1000
,  // measure 45
0001
1000
0001
0000
0000
0000
0000
0000
,  // measure 46
1000
0010
0100
0001
,  // measure 47
1000
1000
0001
0001
,  // measure 48
1000
0100
0010
0001
,  // measure 49
0010
0010
0100
0100
,  // measure 50
0010
0001
0100
0010
,  // measure 51
0001
0100
1000
0010
,  // measure 52
0100
1000
0010
0100
,  // measure 53
1000
0001
1000
0000
0001
1000
0001
1000
,  // measure 54
2002
0000
0000
0000
,  // measure 55
0000
0000
0000
0000
,  // measure 56
3003
0000
0000
0000
,  // measure 57
1001
0000
0000
0000
,  // measure 58
0101
1010
0101
1010
,  // measure 59
1002
0000
0000
0003
,  // measure 60
0110
1001
0110
1001
,  // measure 61
1200
0000
0000
0300
,  // measure 62
1000
0000
0100
0000
0010
0100
0010
0000
,  // measure 63
0001
0000
0100
0000
0010
0100
0010
0000
,  // measure 64
0100
0000
0001
0000
1000
0001
1000
0000
,  // measure 65
0001
0000
0010
0000
0100
0010
0100
0000
,  // measure 66
0010
0001
0100
0010
,  // measure 67
1000
0100
0010
0001
,  // measure 68
1000
0100
1000
0000
0001
0100
0001
0000
,  // measure 69
0110
1001
0110
1001
,  // measure 70
1000
1100
0001
0101
,  // measure 71
0100
0000
0010
0000
0100
0010
0100
0000
,  // measure 72
0001
0011
1000
1010
,  // measure 73
0010
0100
0010
0000
0100
0010
0100
0000
,  // measure 74
1000
1100
0110
0011
,  // measure 75
0001
0101
0110
1010
,  // measure 76
1001
1100
1001
0101
,  // measure 77
0110
0110
1001
1001
,  // measure 78
1000
0000
0100
0000
0001
0100
1000
0000
,  // measure 79
0100
0001
1000
0100
,  // measure 80
0010
0000
0001
0000
0010
1000
0010
0000
,  // measure 81
0001
1000
0010
0100
,  // measure 82
0001
0000
1000
0000
0100
1000
0010
0000
,  // measure 83
0100
0001
0100
0010
,  // measure 84
0100
0000
0001
0000
0010
0100
0010
0000
,  // measure 85
0001
0000
0010
0000
0100
1000
0001
0000
,  // measure 86
2002
0000
0000
0000
,  // measure 87
0000
0000
0000
0000
,  // measure 88
0000
0000
0000
0000
,  // measure 89
0000
0000
0000
0000
,  // measure 90
0000
0000
0000
0000
,  // measure 91
0000
0000
0000
0000
,  // measure 92
0000
0000
0000
0000
,  // measure 93
0000
0000
0000
0000
,  // measure 94
0000
0000
0000
3003
,  // measure 95
1000
0000
0010
0000
,  // measure 96
0100
0000
0001
0000
,  // measure 97
2002
0000
0000
0000
,  // measure 98
3003
0000
0000
0000
;

//---------------dance-single - Chewi----------------
#NOTES:
     dance-single:
     Chewi:
     Medium:
     10:
     0.440,0.604,0.274,0.066,0.000: // measure 1
0000
0000
0000
0000
,  // measure 2
0000
0000
0000
0000
,  // measure 3
0000
0000
0000
0000
,  // measure 4
0000
0000
0000
0000
,  // measure 5
0000
0000
0000
0000
,  // measure 6
0000
0000
0000
0000
,  // measure 7
0000
0000
0000
0000
,  // measure 8
0000
0000
0000
0000
,  // measure 9
0000
0000
0000
0000
,  // measure 10
0000
0000
0000
0000
,  // measure 11
0000
0000
0000
0000
,  // measure 12
0000
0000
0000
0000
,  // measure 13
0000
0000
0000
0000
,  // measure 14
1000
0010
0100
0001
,  // measure 15
1000
0000
0100
0000
0010
0100
0010
0000
,  // measure 16
0001
0010
0100
1000
,  // measure 17
0001
0000
0100
0000
1000
0100
0001
0000
,  // measure 18
1000
0100
0010
0001
,  // measure 19
1000
0000
0100
0000
0010
0001
0100
0000
,  // measure 20
0001
0100
0010
1000
,  // measure 21
0001
0000
1000
0000
0100
0010
0100
0000
,  // measure 22
1000
0100
0001
0100
,  // measure 23
1000
0000
0010
0000
0001
0010
0001
0000
,  // measure 24
1000
0010
0001
0100
,  // measure 25
1000
0000
0100
0000
0001
1000
0001
0000
,  // measure 26
1000
0000
1100
0000
0001
0000
0001
0100
,  // measure 27
0010
0000
0100
0000
0001
0100
0010
0000
,  // measure 28
2002
0000
0000
0000
,  // measure 29
0000
0000
0000
3003
,  // measure 30
1000
0001
1000
0001
,  // measure 31
0010
0100
0010
0000
0110
0000
0110
0000
,  // measure 32
0001
0010
0100
1000
,  // measure 33
1000
0001
1000
0000
1001
0000
1001
0000
,  // measure 34
1010
0000
0110
0000
,  // measure 35
0101
0000
0110
0000
,  // measure 36
1001
0000
1100
0000
,  // measure 37
0001
0010
0100
1000
0001
0000
0000
0000
,  // measure 38
1000
0000
0100
0000
0001
1000
0100
0000
,  // measure 39
1000
0001
1000
0001
,  // measure 40
1000
0000
0010
0000
1000
0010
0001
0010
,  // measure 41
1000
0001
0010
0100
,  // measure 42
1000
0000
0001
0000
1000
0100
0001
0000
,  // measure 43
0100
0000
1000
0000
0001
0100
0010
1000
,  // measure 44
0001
0000
0100
0000
0010
0100
0001
0000
,  // measure 45
2002
0000
0000
3003
,  // measure 46
0001
0010
0100
0000
1000
0000
0010
0000
,  // measure 47
0100
0001
0010
0100
,  // measure 48
1000
0100
0010
0000
0001
0000
1000
0000
,  // measure 49
0010
0010
0100
0100
,  // measure 50
0010
0100
0001
0000
1000
0000
0100
0000
,  // measure 51
0010
0100
1000
0000
0001
0000
1000
0000
,  // measure 52
0100
0010
0001
0000
0100
0010
1000
0000
,  // measure 53
0001
0000
1000
0000
1100
1000
0101
0001
,  // measure 54
2020
0000
0000
0000
,  // measure 55
0000
0000
0000
0000
,  // measure 56
3030
0000
0000
0000
,  // measure 57
0101
0000
0000
0000
,  // measure 58
0100
0000
0010
0000
0100
0010
0001
0100
,  // measure 59
0010
1000
0100
0000
,  // measure 60
0100
0000
0010
0000
0100
0010
1000
0100
,  // measure 61
0010
0001
0100
0000
,  // measure 62
0001
0000
0010
0000
0100
1000
0010
0000
,  // measure 63
1000
0000
0010
0000
0100
0001
0010
0000
,  // measure 64
0001
0000
1000
0000
0010
0100
0010
0000
,  // measure 65
1000
0000
0001
0000
0010
0100
0010
0000
,  // measure 66
0010
0001
0010
0000
0001
0100
0001
0000
,  // measure 67
0100
0010
0100
0000
0010
1000
0010
0000
,  // measure 68
1000
0001
1000
0000
0001
1000
0001
0000
,  // measure 69
1000
0100
0010
0001
0010
0100
1000
0000
,  // measure 70
0001
1100
1000
0101
,  // measure 71
0100
0010
0100
0000
0001
1000
0001
0000
,  // measure 72
1000
1010
0001
0011
,  // measure 73
1000
0010
0100
0000
0001
0100
0010
0000
,  // measure 74
1000
1100
1001
1010
,  // measure 75
0001
0101
1001
0011
,  // measure 76
0010
0110
1001
0110
,  // measure 77
0100
0110
1001
1100
,  // measure 78
1000
0001
1000
0000
0100
0000
0100
0000
,  // measure 79
1000
0001
1000
0000
0010
0000
0010
0000
,  // measure 80
1000
0010
0100
0000
0001
0000
0001
0000
,  // measure 81
0001
0100
0010
0000
1000
0000
1000
0000
,  // measure 82
0001
1000
0100
0000
1000
0000
0001
0000
,  // measure 83
1000
0001
0010
0000
0100
0000
0010
0000
,  // measure 84
0001
0100
0010
0000
1000
0100
0010
0000
,  // measure 85
0001
1000
0001
1000
0010
0100
0010
0100
,  // measure 86
0020
0000
0000
0000
,  // measure 87
0000
0000
0000
0000
,  // measure 88
0000
0000
0000
0000
,  // measure 89
0000
0000
0000
0000
,  // measure 90
0000
0000
0000
0000
,  // measure 91
0000
0100
0000
0000
,  // measure 92
0000
0000
0000
0100
,  // measure 93
0000
0000
0000
1000
0000
0000
0000
0100
,  // measure 94
0000
0100
0000
0030
,  // measure 95
1000
0100
0010
0001
,  // measure 96
1000
0100
0010
0001
,  // measure 97
2000
0000
0000
0000
,  // measure 98
3000
0000
0000
0000
;

//---------------dance-single - Chewi----------------
#NOTES:
     dance-single:
     Chewi:
     Hard:
     16:
     0.703,0.845,0.340,0.083,0.216:
0000
0000
0000
0000
,
0000
0000
0000
0000
,
0000
0000
0000
0000
,
0000
0000
0000
0000
,
0000
0000
0000
0000
,
0000
0000
0000
0000
,
0000
0000
0000
0000
,
0000
0000
0000
0000
,
0000
0000
0000
0000
,
0000
0000
0000
0000
,
0000
0000
0000
0000
,
0000
0000
0000
0000
,
0000
0000
0000
0000
,
1100
0011
0101
1010
,
0001
0000
1000
0000
0010
0000
0100
0000
0010
0100
0010
0100
0010
0000
0000
0000
,
1010
0101
0011
1100
,
0001
0000
0010
0000
0100
0000
1000
0000
1000
0010
1000
0010
1000
0000
0000
0000
,
1010
0000
0101
0000
1000
0100
0010
0000
,
0001
0000
0100
0000
0010
0000
1000
0000
0001
1000
0001
1000
0001
0000
0000
0000
,
1100
0000
0101
0000
0001
0010
0100
0000
,
1000
0000
0100
0000
0010
0000
0001
0000
1000
0010
1000
0010
1000
0000
0000
0000
,
0001
0100
1000
0100
0001
0100
1000
0100
,
0001
0010
1000
0010
0001
0010
1000
0010
,
0100
0001
0100
1000
0010
0010
0100
0001
,
0010
0100
0010
0100
1000
0001
1000
0001
,
1000
0010
0100
0001
1000
0010
0100
0001
,
1000
0100
0010
0001
1000
0100
0010
0001
,
0011
0000
0000
0101
0000
0000
0011
0000
0000
1100
0000
0000
1010
0000
0000
1100
,
0000
0000
1010
0000
0000
1001
0000
0000
0011
0000
0000
0000
0000
0000
0000
0000
,
0001
0010
0100
1000
0010
0100
0001
0100
,
0010
1000
0101
0010
1001
0100
1100
0000
,
1000
0100
0010
0001
1000
0100
0010
0001
,
1000
0010
0101
0010
0011
0100
1100
0000
,
0001
1000
0010
0000
1000
0001
0010
0000
,
0100
1000
0001
0000
0100
0001
1000
0000
,
0010
1000
0100
0000
1000
0010
0100
0001
,
0010
0100
1000
0010
0100
0001
0010
0100
,
1000
0100
1000
0100
1000
0000
0010
0000
0100
0000
0001
0000
0010
0000
0100
0000
,
1000
0010
0100
0001
0100
0010
0100
0001
,
0010
0001
0010
0001
0010
0000
0100
0000
1000
0000
0010
0000
0100
0000
0001
0000
,
0101
1000
1100
0001
1001
0010
0100
0000
,
0001
0100
0001
0010
0001
0000
0010
0000
0100
0000
1000
0000
0010
0000
1000
0000
,
0001
0001
0001
1000
0010
1000
0010
0010
,
1000
0001
1000
0100
1000
0000
0001
0000
0100
0000
1000
0000
0100
0000
0001
0000
,
0001
0100
0010
1000
0001
0000
0000
0000
1001
0000
0100
0000
1010
0000
0001
0000
,
0001
0100
0010
1000
0001
0100
0010
1000
,
0001
0010
0100
1000
0001
0010
0100
1000
,
1000
0100
0001
0100
1000
0100
0001
0100
,
1000
1000
0010
0001
1000
1000
0100
0001
,
1000
0010
0100
0001
1000
0010
0100
0001
,
1000
0010
0001
0010
1000
0100
0001
0100
,
1000
0010
0100
0001
1000
0010
0100
0001
,
1000
1000
0001
0001
0010
0100
1000
0001
,
2002
0000
0000
0000
,
0000
0000
0000
3000
,
0000
0000
0000
0000
,
0203
0000
0000
0000
,
0310
0000
0110
0000
1000
0101
0010
1001
,
0020
0000
0000
0030
,
0010
0000
0110
0000
0001
0011
0100
1100
,
0020
0000
0000
0030
,
1000
0100
0001
0000
0001
0100
1000
0000
,
1000
0010
0001
0000
0001
0010
1000
0000
,
0010
0100
0010
0000
1000
0001
1000
0000
,
1000
0100
1000
0000
0001
0010
0001
0000
,
0001
0000
0010
0000
0100
1000
0100
0000
1000
0000
0010
0000
0100
0001
0100
0000
,
0001
0000
0100
0000
0010
1000
0010
0000
1000
0000
0100
0000
0010
0001
0010
0000
,
0001
1000
0001
1000
0010
0100
0010
0100
,
0010
1000
0001
0010
0200
0000
0310
0000
,
0001
0010
0100
1000
0001
0010
0100
1000
,
0001
1000
0001
0100
0001
0000
0001
0000
0010
0000
0100
0000
0010
0000
0100
0000
,
1000
0010
0100
0001
1000
0010
0100
0001
,
0010
0001
0010
0001
0010
0000
0001
0000
0010
0100
0010
0100
0010
0000
0100
0000
,
0010
0001
0100
0010
0100
0001
0010
0100
,
1000
0010
1000
0100
1000
0000
0010
0000
1000
0000
0100
0000
1000
0000
0100
0000
,
1000
0010
0100
0001
1000
0010
0100
0001
,
1000
0100
0010
0001
1000
0000
0001
0000
0010
0000
0100
0000
0010
0001
0010
0001
,
0100
0001
0010
0001
0001
0010
0100
1000
,
1000
0100
0010
0001
1000
0000
0100
0000
1000
0000
0010
0000
0100
0000
0010
0000
,
0010
1000
0010
0100
0001
0010
1000
0010
,
0001
1000
0001
0100
0001
0000
1000
0000
0010
1000
0010
1000
0010
0000
1000
0000
,
0001
0100
1000
0001
1000
0100
0001
1000
,
0010
1000
0100
1000
0010
0000
1000
0000
0001
0010
0100
1000
0100
0000
1000
0000
,
0001
0100
0010
0100
0001
1000
0100
0010
,
0001
0010
0001
0100
0001
0000
0010
0000
0100
1000
0100
0010
0001
0000
1000
0000
,
2002
0000
0000
0000
,
0000
0000
0000
0000
,
0000
0000
0000
0000
,
0000
0000
0000
0000
,
0000
0000
0000
0000
,
0000
0000
0000
0000
,
0000
0000
0000
0000
,
0000
0000
0000
0000
,
0000
0000
0000
0000
0000
0000
0000
3003
,
1000
0010
0100
0001
,
1000
0010
0100
0001
,
0022
0000
0000
0000
,
0033
0000
0000
0000
;
