#VERSION:0.83;
#TITLE:Bad Boy;
#SUBTITLE:;
#ARTIST:Red Velvet;
#TITLETRANSLIT:;
#SUBTITLETRANSLIT:;
#ARTISTTRANSLIT:;
#GENRE:Pop;
#ORIGIN:;
#CREDIT:chewi;
#BANNER:Bad Boy.png;
#BACKGROUND:Bad Boy-bg.png;
#PREVIEWVID:;
#JACKET:Bad Boy-jacket.png;
#CDIMAGE:;
#DISCIMAGE:;
#LYRICSPATH:;
#CDTITLE:cdtitle.png;
#MUSIC:Bad Boy.ogg;
#OFFSET:-0.079000;
#SAMPLESTART:38.480000;
#SAMPLELENGTH:15.000000;
#SELECTABLE:YES;
#DISPLAYBPM:75.000000;
#BPMS:0.000=75.000;
#STOPS:;
#DELAYS:;
#WARPS:;
#TIMESIGNATURES:0.000=4=4;
#TICKCOUNTS:0.000=4;
#COMBOS:0.000=1;
#SPEEDS:0.000=1.000=0.000=0;
#SCROLLS:0.000=1.000;
#FAKES:;
#LABELS:0.000=Song Start;
#BGCHANGES:-0.079=Bad Boy.avi=1.000=1=0=1===CrossFade==,
144.000=Bad Boy-bg.png=1.000=1=0=1===CrossFade==,
99999=-nosongbg-=1.000=0=0=0 // don't automatically add -songbackground-
;
#KEYSOUNDS:;
#ATTACKS:
;

//---------------dance-single - ----------------
#NOTEDATA:;
#CHARTNAME:;
#STEPSTYPE:dance-single;
#DESCRIPTION:;
#CHARTSTYLE:;
#DIFFICULTY:Hard;
#METER:8;
#RADARVALUES:0.239689,0.248249,0.085603,0.094164,0.025681,196.000000,186.000000,10.000000,11.000000,2.000000,0.000000,0.000000,0.000000,0.000000,0.239689,0.248249,0.085603,0.094164,0.025681,196.000000,186.000000,10.000000,11.000000,2.000000,0.000000,0.000000,0.000000,0.000000;
#CREDIT:;
#DISPLAYBPM:126.000000;
#NOTES:
// measure 0
0000
0000
0000
0000
,  // measure 1
0000
0000
0000
0000
,  // measure 2
0000
0000
0000
0000
,  // measure 3
0000
0000
0000
0000
,  // measure 4
1000
0100
0010
0001
0000
0000
0010
0001
,  // measure 5
0100
0010
1000
0001
000M
M000
0001
0010
,  // measure 6
0100
1000
0010
0000
0100
1000
0010
0000
,  // measure 7
0100
0001
0010
0000
0100
0001
0010
0010
,  // measure 8
0220
0000
0330
0000
0010
0010
0100
0100
,  // measure 9
2200
0000
3300
0000
0001
0100
0010
1000
,  // measure 10
0001
2000
0002
0000
3003
1000
0100
0010
,  // measure 11
0001
2000
0002
0000
0000
0000
3003
0000
,  // measure 12
0001
0010
0100
0001
0010
0100
0001
0000
,  // measure 13
1000
0100
0010
1000
0100
0000
0001
0010
,  // measure 14
0001
0001
0000
1001
1001
0000
0000
0000
,  // measure 15
1000
1000
0000
0000
0010
1000
0001
0100
,  // measure 16
1000
0100
0010
1000
0100
0010
1000
0000
,  // measure 17
0001
0010
0100
0001
0010
0000
1000
0100
,  // measure 18
1000
1000
0000
1001
1001
0000
0000
0000
,  // measure 19
0001
0001
0000
0000
0100
0001
1000
0010
,  // measure 20
0100
0000
0000
0100
0000
0000
0100
0000
0000
0000
0100
0000
0100
0000
0000
0000
,  // measure 21
0010
0000
0000
0010
0000
0000
0010
0000
0000
0000
0010
0000
0010
0000
0000
0000
,  // measure 22
1000
0000
0000
0100
0000
0000
0010
0000
0000
0000
0001
0000
1000
0000
0000
0000
,  // measure 23
0001
0000
0000
0100
0000
0000
0010
0000
0000
0000
1000
0000
0001
0000
0000
0000
,  // measure 24
1000
0100
0010
0001
1000
0010
1000
0000
,  // measure 25
0001
0010
0100
1000
0001
0100
0001
0000
,  // measure 26
0100
0100
0010
0010
1000
0001
1000
0000
,  // measure 27
0001
1000
0000
0000
0000
0000
0200
0020
0000
0000
0000
0000
0330
0000
0000
0000
,  // measure 28
0010
1000
0001
0010
1000
0001
0010
0000
,  // measure 29
0100
0001
1000
0100
0001
0000
0010
1000
,  // measure 30
0010
0010
0000
0110
0110
0000
0000
0000
,  // measure 31
0100
0100
0000
0000
0001
0010
0100
1000
,  // measure 32
0100
0001
1000
0100
0001
1000
0100
0000
,  // measure 33
0010
1000
0001
0010
1000
0000
0100
0001
,  // measure 34
0100
0100
0000
0110
0110
0000
0000
0000
,  // measure 35
0010
0010
0000
0000
1000
0010
0001
0100
,  // measure 36
0200
0300
0000
0000
;

//---------------dance-single - ----------------
#NOTEDATA:;
#CHARTNAME:;
#STEPSTYPE:dance-single;
#DESCRIPTION:;
#CHARTSTYLE:;
#DIFFICULTY:Beginner;
#METER:1;
#RADARVALUES:0.046470,0.089883,0.051362,0.000000,0.000000,38.000000,32.000000,6.000000,0.000000,0.000000,0.000000,0.000000,0.000000,0.000000,0.046470,0.089883,0.051362,0.000000,0.000000,38.000000,32.000000,6.000000,0.000000,0.000000,0.000000,0.000000,0.000000,0.000000;
#CREDIT:;
#DISPLAYBPM:75.000000;
#NOTES:
0000
0000
0000
0000
,
0000
0000
0000
0000
,
0000
0000
0000
0000
,
0000
0000
0000
0000
,
1000
0000
0000
0000
,
0010
0000
0000
0000
,
0100
0000
0000
0000
,
0001
0000
0000
0000
,
1001
0000
0000
0000
,
1001
0000
0000
0000
,
0110
0000
0000
0000
,
0110
0000
0000
0000
,
0001
0000
0000
0000
,
0010
0000
0000
0000
,
0100
0000
0000
0000
,
1000
0000
0000
0000
,
1000
0000
0000
0000
,
0001
0000
0000
0000
,
0100
0000
0000
0000
,
0010
0000
0000
0000
,
0110
0000
0000
0000
,
0010
0000
0000
0000
,
1000
0000
0000
0000
,
0001
0000
0000
0000
,
1001
0000
0000
0000
,
1000
0000
0000
0000
,
0001
0000
0000
0000
,
0100
0000
0000
0000
,
0001
0000
0000
0000
,
0010
0000
0000
0000
,
0100
0000
0000
0000
,
1000
0000
0000
0000
,
1000
0000
0000
0000
,
0001
0000
0000
0000
,
0100
0000
0000
0000
,
0010
0000
0000
0000
;

//---------------dance-single - ----------------
#NOTEDATA:;
#CHARTNAME:;
#STEPSTYPE:dance-single;
#DESCRIPTION:;
#CHARTSTYLE:;
#DIFFICULTY:Easy;
#METER:4;
#RADARVALUES:0.106393,0.154086,0.111284,0.085603,0.000000,87.000000,74.000000,13.000000,10.000000,0.000000,0.000000,0.000000,0.000000,0.000000,0.106393,0.154086,0.111284,0.085603,0.000000,87.000000,74.000000,13.000000,10.000000,0.000000,0.000000,0.000000,0.000000,0.000000;
#CREDIT:;
#DISPLAYBPM:75.000000;
#NOTES:
// measure 0
0000
0000
0000
0000
,  // measure 1
0000
0000
0000
0000
,  // measure 2
0000
0000
0000
0000
,  // measure 3
0000
0000
0000
0000
,  // measure 4
1000
0000
0001
1000
,  // measure 5
0001
0000
1000
0001
,  // measure 6
1000
0000
1001
0000
,  // measure 7
0100
0100
0010
0010
,  // measure 8
0220
0330
0100
0010
,  // measure 9
2000
3000
1000
0001
,  // measure 10
0002
0003
1000
0100
,  // measure 11
0020
0030
0200
0300
,  // measure 12
1000
0010
0001
0100
,  // measure 13
1000
0000
0001
0000
,  // measure 14
1001
0000
0000
0000
,  // measure 15
0110
0000
0000
0000
,  // measure 16
1000
0100
0001
0010
,  // measure 17
1000
0100
0001
0000
,  // measure 18
1001
0000
0000
0000
,  // measure 19
0110
0000
0000
0000
,  // measure 20
0020
0000
0000
0030
,  // measure 21
0002
0000
0000
0003
,  // measure 22
2000
0000
0000
3000
,  // measure 23
0020
0000
0000
0030
,  // measure 24
0010
0010
0010
0010
,  // measure 25
0100
0100
0100
0100
,  // measure 26
0110
0000
0000
0000
,  // measure 27
1001
0000
0000
0000
,  // measure 28
0001
0100
1000
0010
,  // measure 29
0001
0000
1000
0000
,  // measure 30
1001
0000
0000
0000
,  // measure 31
0110
0000
0000
0000
,  // measure 32
0001
0010
1000
0100
,  // measure 33
0001
0010
1000
0000
,  // measure 34
1001
0000
0000
0000
,  // measure 35
0110
0000
1000
1000
,  // measure 36
1001
0000
0000
0000
;

//---------------dance-single - ----------------
#NOTEDATA:;
#CHARTNAME:;
#STEPSTYPE:dance-single;
#DESCRIPTION:;
#CHARTSTYLE:;
#DIFFICULTY:Medium;
#METER:7;
#RADARVALUES:0.227460,0.246537,0.188327,0.068483,0.017121,186.000000,164.000000,22.000000,8.000000,0.000000,0.000000,0.000000,0.000000,0.000000,0.227460,0.246537,0.188327,0.068483,0.017121,186.000000,164.000000,22.000000,8.000000,0.000000,0.000000,0.000000,0.000000,0.000000;
#CREDIT:;
#DISPLAYBPM:75.000000;
#NOTES:
// measure 0
0000
0000
0000
0000
,  // measure 1
0000
0000
0000
0000
,  // measure 2
0000
0000
0000
0000
,  // measure 3
0000
0000
0000
0000
,  // measure 4
1000
0000
0010
0000
1000
0010
1010
0000
,  // measure 5
0010
0000
0100
0000
0010
0100
0110
0000
,  // measure 6
0100
0000
0001
0000
0100
0001
0101
0000
,  // measure 7
0001
0000
1000
0000
0001
1000
1001
0000
,  // measure 8
0220
0330
0100
0010
,  // measure 9
2020
3030
1000
0001
,  // measure 10
2002
3003
0001
1000
,  // measure 11
2002
0000
3003
0000
0010
0100
0010
0000
,  // measure 12
0010
0010
0001
0001
0100
0100
1000
0000
,  // measure 13
0010
0010
0001
0001
0010
0000
1000
0001
,  // measure 14
1000
0001
0000
1001
1001
0000
0000
0000
,  // measure 15
0001
1000
0000
0000
0100
0000
0001
0000
,  // measure 16
0100
0100
0001
0001
0010
0010
1000
0000
,  // measure 17
0100
0100
0010
0010
0100
0000
1000
0001
,  // measure 18
1000
0001
0000
1001
1001
0000
0000
0000
,  // measure 19
0100
0100
0000
0000
0100
0001
0100
0001
,  // measure 20
0100
0000
0000
0100
0000
0000
0100
0000
0000
0000
0000
0000
1001
0000
0000
0000
,  // measure 21
0010
0000
0000
0010
0000
0000
0010
0000
0000
0000
0000
0000
1001
0000
0000
0000
,  // measure 22
1000
0000
0000
0001
0000
0000
0100
0000
0000
0000
0000
0000
0101
0000
0000
0000
,  // measure 23
0001
0000
0000
1000
0000
0000
0100
0000
0000
0000
0000
0000
1100
0000
0000
0000
,  // measure 24
1000
1000
0100
0000
0010
0001
0010
0000
,  // measure 25
0001
0001
0010
0000
0100
1000
0100
0000
,  // measure 26
1001
0000
0000
0100
0100
0100
0100
0000
,  // measure 27
0110
0000
0000
0010
0010
0010
0010
0000
,  // measure 28
0100
0100
1000
1000
0010
0010
0001
0000
,  // measure 29
0100
0100
1000
1000
0100
0000
1000
0001
,  // measure 30
1000
0001
0000
1001
1001
0000
0000
0000
,  // measure 31
1000
0001
0000
0000
0010
0000
1000
0000
,  // measure 32
0010
0010
1000
1000
0100
0100
0001
0000
,  // measure 33
0010
0010
0100
0100
0010
0000
1000
0001
,  // measure 34
1000
0001
0000
1001
1001
0000
0000
0000
,  // measure 35
0010
0010
0000
0000
0010
0100
1000
0100
,  // measure 36
0100
0000
0000
0000
;
