#TITLE:Bad Apple!!;
#SUBTITLE:;
#ARTIST:MASAYOSHI MINOSHIMA feat. NOMICO;
#TITLETRANSLIT:;
#SUBTITLETRANSLIT:;
#ARTISTTRANSLIT:;
#GENRE:;
#CREDIT:Chewphoria~;
#MENUCOLOR:;
#METERTYPE:DDR;
#BANNER:Bad Apple!!.png;
#BACKGROUND:Bad Apple!!-bg.png;
#LYRICSPATH:;
#CDTITLE:;
#MUSIC:Bad Apple!!.mp3;
#OFFSET:-2.066;
#SAMPLESTART:29.872;
#SAMPLELENGTH:15.000;
#SELECTABLE:YES;
#LISTSORT:;
#BPMS:0.000=137.980,192.000=68.990,208.000=137.980;
#STOPS:;
#BGCHANGES:0.250=Bad Apple!!.avi=1.000=1=0=1,
236.000=Bad Apple!!-bg.png=1.400=1=0=1,
99999=-nosongbg-=1.000=0=0=0 // don't automatically add -songbackground-
;
#ATTACKS:;

//---------------dance-single - Chewphoria~----------------
#NOTES:
     dance-single:
     Chewphoria~:
     Beginner:
     2:
     0.131,0.172,0.050,0.058,0.000: // measure 1
0000
0000
0000
0000
,  // measure 2
0000
0000
0000
0000
,  // measure 3
0000
0000
0000
0000
,  // measure 4
0000
0000
0000
0000
,  // measure 5
2000
0000
0000
3000
,  // measure 6
1000
0000
0000
0000
,  // measure 7
0002
0000
0000
0003
,  // measure 8
0001
0000
0000
0110
,  // measure 9
0100
0000
0100
0000
,  // measure 10
0100
0000
0100
0000
,  // measure 11
0010
0000
0010
0000
,  // measure 12
0010
0000
0010
0000
,  // measure 13
0001
0000
0001
0000
,  // measure 14
0001
0000
0001
0000
,  // measure 15
1000
0000
1000
0000
,  // measure 16
1000
0000
2000
3000
,  // measure 17
1000
0000
0010
0000
,  // measure 18
1000
0000
0010
0000
,  // measure 19
0001
0000
0010
0000
,  // measure 20
0001
0000
0010
0000
,  // measure 21
0001
0000
0100
0000
,  // measure 22
0001
0000
0100
0000
,  // measure 23
1000
0000
0100
0000
,  // measure 24
1000
0000
0100
0000
,  // measure 25
0110
0000
0010
0000
,  // measure 26
1000
1000
1000
0000
,  // measure 27
0100
0000
1000
0000
,  // measure 28
0001
0001
0001
0000
,  // measure 29
0100
0000
0010
0000
,  // measure 30
0001
0001
0001
0000
,  // measure 31
1001
0000
0001
0000
,  // measure 32
1000
1000
1000
0000
,  // measure 33
2000
0000
0000
3000
,  // measure 34
1000
0000
1000
0000
,  // measure 35
0002
0000
0000
0003
,  // measure 36
0001
0000
0001
0000
,  // measure 37
0020
0000
0000
0030
,  // measure 38
0010
0000
0010
0000
,  // measure 39
0200
0000
0000
0300
,  // measure 40
0100
0000
0100
0000
,  // measure 41
0110
0000
1000
0000
,  // measure 42
1000
0000
1000
0000
,  // measure 43
1000
0000
1000
0000
,  // measure 44
1000
0000
1000
0000
,  // measure 45
1001
0000
0001
0000
,  // measure 46
0001
0000
0001
0000
,  // measure 47
0001
0000
0001
0000
,  // measure 48
0001
0000
0001
0000
,  // measure 49
1001
0000
0000
0000
,  // measure 50
0010
0000
0000
0000
,  // measure 51
0100
0000
0000
0000
,  // measure 52
0010
0000
0000
0000
,  // measure 53
0001
0000
0000
0000
,  // measure 54
0010
0000
0000
0000
,  // measure 55
1000
0000
0000
0000
,  // measure 56
0100
0000
0000
0000
,  // measure 57
0010
0000
0000
0000
,  // measure 58
0001
0000
0000
0000
,  // measure 59
0100
0000
0000
0000
,  // measure 60
1000
0000
0000
0000
;

//---------------dance-single - Chewphoria~----------------
#NOTES:
     dance-single:
     Chewphoria~:
     Easy:
     5:
     0.254,0.270,0.066,0.241,0.000: // measure 1
0000
0000
0000
0000
,  // measure 2
0000
0000
0000
0000
,  // measure 3
0000
0000
0000
0000
,  // measure 4
0000
0000
0000
0000
,  // measure 5
0002
0000
0000
0003
,  // measure 6
0200
0000
0000
0300
,  // measure 7
0020
0000
0000
0030
,  // measure 8
2000
0000
0000
3001
,  // measure 9
1000
0000
0010
0000
,  // measure 10
1000
0000
0010
0001
,  // measure 11
0010
0000
0001
0000
,  // measure 12
0010
0000
0001
0100
,  // measure 13
0001
0000
0100
0000
,  // measure 14
0001
0000
0100
1000
,  // measure 15
0100
0000
1000
0000
,  // measure 16
0100
0000
2000
0000
,  // measure 17
3001
1000
0001
0100
,  // measure 18
0010
0100
0010
0100
,  // measure 19
0010
0100
0001
1000
,  // measure 20
0100
0010
0100
0010
,  // measure 21
0100
1000
0001
0010
,  // measure 22
0100
1000
0100
0001
,  // measure 23
0010
0001
1000
0100
,  // measure 24
0001
1000
2001
0000
,  // measure 25
3001
0100
0010
1000
,  // measure 26
0010
0100
0100
0001
,  // measure 27
1000
0010
0100
0001
,  // measure 28
0100
1000
0010
0010
,  // measure 29
0010
1000
0100
1001
,  // measure 30
0001
1000
0001
1001
,  // measure 31
1000
0100
0001
0010
,  // measure 32
0110
1000
0110
0001
,  // measure 33
1000
1000
0020
0030
,  // measure 34
0001
0001
0020
0030
,  // measure 35
0100
0100
0002
0003
,  // measure 36
0010
0010
2000
3000
,  // measure 37
1000
1000
0020
0030
,  // measure 38
0001
0001
0020
0030
,  // measure 39
1000
1000
0002
0003
,  // measure 40
0001
0001
2000
3000
,  // measure 41
1000
0010
1000
0010
,  // measure 42
0001
0010
0001
0010
,  // measure 43
0001
0100
0001
0100
,  // measure 44
1000
0100
1000
0100
,  // measure 45
1000
0001
1000
0001
,  // measure 46
0100
0010
0100
0010
,  // measure 47
0001
1000
0001
1000
,  // measure 48
0100
0010
0100
0020
,  // measure 49
0002
0030
2000
0003
,  // measure 50
0020
3000
0200
0030
,  // measure 51
0002
0300
2000
0003
,  // measure 52
0020
0000
3000
0000
0100
0100
0130
0000
,  // measure 53
0010
0001
0200
0300
,  // measure 54
0100
1000
0020
0030
,  // measure 55
0001
1000
0002
0003
,  // measure 56
1000
0000
0001
0000
2000
0002
3003
0000
,  // measure 57
0100
0001
0020
0030
,  // measure 58
0100
1000
0020
0030
,  // measure 59
0001
1001
1000
1001
,  // measure 60
0110
0000
0000
0000
;

//---------------dance-single - Chewphoria~----------------
#NOTES:
     dance-single:
     Chewphoria~:
     Medium:
     8:
     0.394,0.564,0.274,0.183,0.008: // measure 1
0000
0000
0000
0000
,  // measure 2
0000
0000
0000
0000
,  // measure 3
0000
0000
0000
0000
,  // measure 4
0000
0000
0000
0000
,  // measure 5
1000
0000
1000
0000
1000
0000
1000
0100
,  // measure 6
0010
0000
0010
0000
0010
0000
0010
0001
,  // measure 7
0010
0000
0010
0000
0010
0000
0010
0001
,  // measure 8
0100
0100
0100
0110
,  // measure 9
0020
1000
0100
1000
,  // measure 10
2030
0001
0100
0001
,  // measure 11
3002
0010
0100
0010
,  // measure 12
2003
0100
0001
0100
,  // measure 13
3002
0010
0100
1000
,  // measure 14
0203
0010
0001
0010
,  // measure 15
0320
1000
0100
0001
,  // measure 16
1030
0000
0001
0000
0010
0010
0010
0000
,  // measure 17
0001
0000
0010
0000
0100
0000
1000
0100
,  // measure 18
1000
0100
1000
0010
,  // measure 19
0100
0001
0100
0000
0010
0000
1000
0000
,  // measure 20
0001
0001
1000
1000
0001
0000
0010
0000
,  // measure 21
0100
1000
0100
0000
0010
0000
0101
0000
,  // measure 22
0010
0000
1010
0000
1000
0010
1000
0000
,  // measure 23
0001
1000
1100
1000
,  // measure 24
0001
0100
0202
0303
,  // measure 25
0100
0000
0010
1000
0010
0000
0100
0000
,  // measure 26
0001
0000
0010
0000
0100
0010
0001
1000
,  // measure 27
0010
0100
0001
1000
,  // measure 28
0100
0000
0001
0000
0010
0010
1000
1000
,  // measure 29
0010
0000
1000
0000
0001
0000
0010
0100
,  // measure 30
1000
1001
1000
1010
,  // measure 31
0001
0100
0001
0000
0100
0000
0010
0000
,  // measure 32
1010
0101
2001
3010
,  // measure 33
0001
0010
0001
0000
1000
0000
0100
0000
,  // measure 34
1000
0100
1000
0000
0001
0000
0010
0000
,  // measure 35
0100
0010
0100
0000
0010
0000
0001
0000
,  // measure 36
0100
0000
1000
0000
0010
0000
0001
0100
,  // measure 37
0001
0000
0010
0000
1000
0000
0100
1000
,  // measure 38
0100
0000
0010
0000
0001
0000
0100
0010
,  // measure 39
0100
0000
0010
0000
0100
0000
0001
1000
,  // measure 40
0001
1100
0022
0033
,  // measure 41
1000
1100
0001
0101
,  // measure 42
0100
0110
0010
0110
,  // measure 43
1010
0011
0101
1100
,  // measure 44
1100
0101
0011
1010
,  // measure 45
1010
0101
1001
0110
,  // measure 46
1001
0110
0101
1100
,  // measure 47
0001
0010
0001
0000
1000
0010
1000
0000
,  // measure 48
0010
0100
0001
1000
0100
0010
0001
1000
,  // measure 49
0010
1000
0002
0103
0010
0100
0002
0013
,  // measure 50
0100
0000
1000
0000
0200
0000
1300
0000
0010
0000
0100
0000
0020
2030
3100
0000
,  // measure 51
1000
0010
0200
0310
0100
0001
0020
0031
,  // measure 52
0010
0000
0100
0000
2000
0000
3100
0000
0010
0000
0001
0000
0200
0320
0130
0000
,  // measure 53
0010
0000
1010
0000
0100
0001
0100
0000
,  // measure 54
0001
0000
0010
0000
0001
0010
0001
0000
,  // measure 55
0010
0000
0100
0000
1000
0100
1000
0000
,  // measure 56
0010
0000
0100
0010
0100
0010
0100
0000
,  // measure 57
0010
0000
1000
0001
1000
0000
0001
0000
,  // measure 58
0100
0000
0001
0100
0001
0000
0100
0000
,  // measure 59
0010
0000
1000
0010
0100
0001
0010
0100
,  // measure 60
1000
0000
0000
0000
;

//---------------dance-single - Chewphoria~----------------
#NOTES:
     dance-single:
     Chewphoria~:
     Hard:
     13:
     0.590,0.907,0.341,0.199,0.241: // measure 1
0000
0000
0000
0000
,  // measure 2
0000
0000
0000
0000
,  // measure 3
0000
0000
0000
0000
,  // measure 4
0000
0000
0000
0000
,  // measure 5
1000
0000
0000
0000
1000
0000
0000
0000
1000
0000
0000
0000
0100
0010
0001
0010
,  // measure 6
0001
0000
0001
0000
0001
0000
0001
0010
,  // measure 7
0100
0000
0000
0000
0100
0000
0000
0000
0100
0000
0000
0000
0100
1000
0010
1000
,  // measure 8
0010
0000
0010
0000
1001
0100
1001
0000
,  // measure 9
1000
0000
0010
0000
1000
0001
0000
0000
0001
0000
0010
0000
0001
1000
0000
0000
,  // measure 10
0100
0000
1000
0000
0100
1000
0000
0000
1001
0000
0010
0000
1001
0000
0010
0000
,  // measure 11
0100
0000
0001
0000
0100
0001
0000
0000
0010
0000
1000
0000
0010
1000
0000
0000
,  // measure 12
0001
0000
0010
0000
0001
0010
0000
0000
0011
0000
0100
0000
1010
0000
0100
0000
,  // measure 13
0001
0000
0100
0000
0010
1000
0000
0000
0001
0000
0010
0000
0100
1000
0000
0000
,  // measure 14
0001
0000
0010
0000
0100
1000
0000
0000
1001
0000
0010
0000
1001
0000
0010
0000
,  // measure 15
0100
0000
0001
0000
0100
0001
0000
0000
0010
0000
1000
0000
0001
0010
0000
0000
,  // measure 16
0100
0000
0000
0000
0000
0000
1000
0000
0000
0000
0000
0000
0001
0000
0000
0010
0000
0000
0000
0000
0000
0000
0000
0000
0100
0000
0000
0000
1000
0000
0000
0000
0001
0000
0000
0000
0010
0000
0000
0000
0100
0000
0000
0000
1000
0000
0000
0000
,  // measure 17
1000
0010
1000
0001
1001
0000
0001
0010
,  // measure 18
0011
0000
1010
0000
0001
0010
1000
0100
,  // measure 19
0001
0100
0010
0100
0101
0000
0001
0100
,  // measure 20
0010
0010
1000
1000
0010
1000
0100
0010
,  // measure 21
0001
0001
0010
0010
0100
0000
1000
0100
,  // measure 22
0010
0000
0011
0000
0001
0100
0010
1000
,  // measure 23
0001
0011
1000
1010
0001
0000
0001
0000
,  // measure 24
0100
0000
0000
0001
0000
0000
0100
0000
0000
0010
0000
0000
1000
0000
1000
0000
1000
0000
0001
0000
0001
0000
0001
0000
,  // measure 25
1000
0100
0001
0100
0100
0000
1000
0010
,  // measure 26
0001
0000
0010
0000
1000
0010
0001
0010
,  // measure 27
1000
0100
0001
0100
1000
0000
1000
0100
,  // measure 28
0010
1000
0100
0010
0001
0001
0010
0010
,  // measure 29
0100
1000
0001
1000
1010
0000
1000
0010
,  // measure 30
0101
0000
0011
0000
0001
0010
0001
0100
,  // measure 31
0010
0010
0100
0100
0010
0000
0010
1000
,  // measure 32
1001
0011
1010
1001
,  // measure 33
1000
0100
1000
0001
0001
0000
0001
0100
,  // measure 34
0001
1000
0001
0010
0010
0000
0001
1000
,  // measure 35
0010
0100
0001
0100
0100
0000
0001
0100
,  // measure 36
0010
1000
0001
0001
0010
0000
0100
0100
,  // measure 37
0010
0001
1000
0010
0100
0000
0100
0100
,  // measure 38
0010
1000
0001
0010
0100
0000
0100
0010
,  // measure 39
0001
0010
0100
1000
0010
0000
0010
1000
,  // measure 40
0010
0000
0000
0100
0000
0000
0001
0000
0000
0100
0000
0000
0001
0000
0100
0000
0001
0000
1000
0000
0010
0000
1000
0000
,  // measure 41
1000
0001
0010
0100
1000
0000
1000
0100
,  // measure 42
0010
0001
0100
0010
0101
0000
1010
0001
,  // measure 43
0010
0100
1000
0001
1001
0000
1010
0100
,  // measure 44
0001
0100
1010
0011
1100
0000
1000
0100
,  // measure 45
0011
1100
0101
1010
0100
0000
0001
0100
,  // measure 46
1010
0011
0100
1000
1001
0000
1010
0100
,  // measure 47
0101
0001
0011
1100
1000
0000
1001
0010
,  // measure 48
0100
0000
0000
0001
0000
0000
0100
0000
0000
0010
0000
0000
1000
0000
0001
0000
1000
0000
0001
0000
1000
0000
0001
0000
,  // measure 49
1000
0100
0010
0001
0020
0000
0031
0010
0100
1000
0010
0100
0002
0000
0103
0010
,  // measure 50
1000
0001
0010
0100
0020
0000
0031
0010
0100
0100
1000
1000
0200
0302
0203
2300
,  // measure 51
3010
0010
0100
0001
0200
0000
0310
1000
0001
0010
0100
1000
0200
0000
1300
0010
,  // measure 52
0100
0001
0010
0100
0020
0000
0031
0100
0010
0001
0100
1000
0200
2300
3020
0032
,  // measure 53
1003
0010
0100
0001
2000
0100
3010
0001
,  // measure 54
0010
0100
1000
0010
0200
0001
1300
0100
,  // measure 55
0010
0001
1000
0001
0200
0010
1300
0010
,  // measure 56
0100
0100
0010
0010
2000
3200
0320
0230
,  // measure 57
1300
0010
0100
0001
2000
0100
3010
0001
,  // measure 58
1000
0010
0100
0010
2000
0100
3010
0001
,  // measure 59
0100
0010
1000
0010
0200
1000
0301
1000
,  // measure 60
0001
0000
0000
0000
;
