#TITLE:Bad Apple & Good Orange;
#MENUCOLOR:;
#METERTYPE:DDR X;
#SUBTITLE:;
#ARTIST:IOSYS;
#TITLETRANSLIT:;
#SUBTITLETRANSLIT:;
#ARTISTTRANSLIT:;
#CREDIT:Chewi☆;
#BANNER:Bad Apple & Good Orange.png;
#BACKGROUND:Bad Apple & Good Orange-bg.png;
#LYRICSPATH:;
#CDTITLE:;
#MUSIC:Bad Apple & Good Orange.mp3;
#OFFSET:-0.533;
#SAMPLESTART:14.465;
#SAMPLELENGTH:15.000;
#SELECTABLE:YES;
#DISPLAYBPM:138.000;
#BPMS:0.000=138.000;
#STOPS:;
#BGCHANGES:;

//---------------dance-single - Chewi----------------
#NOTES:
     dance-single:
     Chewi:
     Beginner:
     1:
     0.169,0.200,0.086,0.095,0.000:
0000
0000
0000
0000
,
0000
0000
0000
0000
,
0000
0000
0000
0000
,
0000
0000
0000
0000
,
2000
0000
0000
3000
,
1000
0000
0000
0000
,
0002
0000
0000
0003
,
0001
0000
0000
0000
,
1000
0000
0001
0000
,
1000
0000
0001
0000
,
1000
0000
0001
0000
,
1000
0000
0001
0000
,
0010
0000
0100
0000
,
0010
0000
0100
0000
,
0010
0000
0100
0000
,
0010
0000
0100
0000
,
1001
0000
0000
0000
,
1001
0000
0000
0000
,
0110
0000
0000
0000
,
0110
0000
0000
0000
,
0010
0010
0010
0000
,
0010
0000
0010
0000
,
0100
0100
0100
0000
,
0110
0000
0000
0000
,
1000
0000
0001
0000
,
1000
0000
0001
0000
,
0010
0000
0100
0000
,
0010
0000
0100
0000
,
0001
0000
1000
0000
,
0001
0000
1000
0000
,
0100
0000
0010
0000
,
0100
0000
0010
0000
,
1000
1000
1000
0000
,
1000
0000
1000
0000
,
0001
0001
0001
0000
,
0001
0000
0001
0000
,
0100
0100
0100
0000
,
0100
0000
0100
0000
,
0010
0010
0010
0000
,
0010
0000
0010
0000
,
2000
0000
0000
3000
,
1000
0000
1000
0000
,
0002
0000
0000
0003
,
0001
0000
0001
0000
,
0200
0000
0000
0300
,
0100
0000
0100
0000
,
0020
0000
0000
0030
,
0010
0000
0010
0000
,
1001
0000
0000
0000
,
0110
0000
0000
0000
,
1001
0000
0000
0000
,
0110
0000
0000
0000
,
2000
0000
0000
3000
,
1000
1000
1000
1000
,
0002
0000
0000
0003
,
0001
0001
0001
0001
,
2000
0000
0000
3000
,
1000
1000
1000
1000
,
0002
0000
0000
0003
,
0001
0001
0001
0001
;

//---------------dance-single - Chewi----------------
#NOTES:
     dance-single:
     Chewi:
     Easy:
     5:
     0.315,0.399,0.200,0.315,0.000:
0000
0000
0000
0000
,
0000
0000
0000
0000
,
0000
0000
0000
0000
,
0000
0000
0000
0000
,
2000
0000
0000
0000
,
3200
0000
0000
0000
,
0320
0000
0000
0000
,
0032
1000
1003
1001
,
1000
0010
0001
0010
,
1000
0001
1000
0001
,
1000
0100
0001
0100
,
1000
0001
1000
0001
,
0010
1000
0100
0001
,
0010
0001
0100
1000
,
0020
0000
0000
0030
,
0110
0000
1001
0000
,
1000
1000
0001
0001
,
1000
0001
1000
0001
,
0001
0001
1000
1000
,
0001
1000
0001
1000
,
1001
0000
0000
0000
,
0110
0000
0000
0000
,
1001
0000
1001
0110
,
1001
0000
0000
0000
,
1000
0010
0001
0100
,
1000
1000
1000
1000
,
1000
0100
0001
0010
,
1000
1000
1000
1000
,
1000
0010
0100
1000
,
0010
0010
0010
0010
,
0010
0001
0100
0010
,
0001
0001
0001
0001
,
2000
3100
0002
0103
,
2000
3010
0002
0013
,
0200
0310
0020
0130
,
0200
1300
0200
0301
,
0020
0130
0200
0310
,
2000
3001
0002
1003
,
1001
1000
1001
0110
,
1001
0000
0000
0000
,
2000
3001
0002
1003
,
0020
0130
0200
0310
,
0002
0103
2000
3100
,
0002
0013
2000
3010
,
0020
0130
0200
0310
,
2000
3001
0002
1003
,
1001
0000
0000
0110
,
1001
0000
0000
0000
,
0020
0000
0000
0000
,
0200
0000
0000
0030
,
0002
0000
0000
0300
,
2000
0000
0000
3003
,
1000
0001
1000
0001
,
1000
1000
0001
0001
,
0001
1000
0001
1000
,
1000
1000
0001
0001
,
0110
0000
1001
0000
,
0110
1001
0110
0000
,
0010
1000
0100
0001
,
0010
0010
0100
0010
;

//---------------dance-single - Chewi----------------
#NOTES:
     dance-single:
     Chewi:
     Medium:
     8:
     0.369,0.485,0.363,0.143,0.029:
0000
0000
0000
0000
,
0000
0000
0000
0000
,
0000
0000
0000
0000
,
0000
0000
0000
0000
,
1000
0000
0010
0000
0001
0001
0001
0000
,
0001
0000
0100
0000
1000
1000
1000
0000
,
1000
0000
0001
0000
1000
0001
1000
0000
,
1001
0110
1001
0110
,
2000
0000
0000
0000
3100
1000
0100
0000
,
0001
0010
1000
0010
,
0020
0000
0000
0000
1030
0010
1000
0000
,
0100
0001
0010
1000
,
2000
0000
0000
0000
3001
0010
0001
0000
,
1000
0100
0001
0010
,
0220
0000
0000
0330
,
0001
1000
0001
0000
0100
0100
0100
0000
,
2010
0000
0000
0010
,
0002
0000
3000
0100
,
2000
0000
0003
0010
,
0020
0000
0000
3030
,
1000
0010
0001
0100
,
1000
0100
0001
0010
,
0110
0000
1001
0010
,
1010
0000
0000
0000
,
1000
0100
0010
0001
1000
0000
0100
0000
,
0101
0000
0000
0000
,
0001
0100
0010
1000
0001
0000
0001
0000
,
0101
0000
0000
0000
,
1000
0100
0010
0001
0100
0000
0110
0000
,
1001
0000
0000
0000
,
1000
0001
0010
0100
1000
0001
0100
0010
,
0110
0000
0000
0000
,
1010
0101
0011
1100
,
1001
0110
1001
0110
,
0010
0001
0100
0000
0010
1000
0100
0000
,
0001
0010
1000
0100
,
0011
1100
1001
0110
,
1010
0110
0101
1001
,
1000
0010
0001
0100
,
2000
0000
0000
3000
,
0001
0001
0001
0000
0100
0000
0010
0000
,
1000
1000
1000
0000
0010
0000
0100
0000
,
0001
0100
1000
0000
1000
0010
0001
0000
,
1000
1001
1001
0000
,
1000
0000
0001
0000
0010
0100
0010
0000
,
0001
0000
1000
0000
0010
0100
0010
0000
,
0200
0001
1000
0001
,
2000
0000
0000
0000
0000
0000
0000
0000
0000
0000
0000
0000
0000
0000
0000
0000
0000
0000
0000
0000
0000
0000
0000
0000
0000
0000
0000
0000
0000
0000
0000
0000
0000
0000
0000
0000
0000
0000
0000
0000
0000
0000
0000
0000
0000
0000
0000
0000
0000
0000
0000
0000
0000
0000
0000
0000
0000
0000
0000
0000
0000
0000
0000
0000
0000
0000
0000
0000
0000
0000
0000
0000
0000
0000
0000
0000
0000
0000
0000
0000
0000
0000
0000
0000
0000
0000
0000
0000
0000
0000
0000
0000
0000
0000
0000
0000
0000
0000
0000
0000
0000
0000
0000
0000
0000
0000
0000
0000
0000
0000
0000
0000
0000
0000
0000
0000
0000
0000
0000
0000
0000
0000
0000
0000
0000
0000
0000
0000
0000
0000
0000
0000
0000
0000
0000
0000
0000
0000
0000
0000
0000
0000
0000
0000
0000
0000
0000
0000
0000
0000
0000
0000
0000
0000
0000
0000
0000
0000
0000
0000
0000
0000
0000
0000
0000
0000
0000
0000
0000
3300
0000
0000
0000
0000
0000
0000
0000
0000
0000
0000
0000
0000
0000
0000
0000
0000
0000
0000
0000
0000
0000
0000
,
0000
0000
1000
0000
0000
1000
0000
0000
0100
0000
0000
0100
0000
0000
0100
0000
,
0000
0000
0001
0000
0000
0001
0000
0000
0100
0000
0000
0100
0000
0000
0100
0000
,
0000
0000
0010
0000
0000
0010
0000
0000
1000
0000
0000
1000
0000
0000
2000
0000
,
0000
0000
0001
3010
,
0001
0010
0100
1000
0010
0000
0100
0000
,
0101
0010
1100
0010
,
1000
0100
0010
0001
0100
0000
0010
0000
,
1100
0010
0101
0101
,
1000
0100
0001
0000
0100
0000
1000
0000
,
0001
0010
1000
0000
0010
0000
0001
0000
,
0220
0000
0000
0330
,
0010
0010
0010
0000
0100
0010
0100
0000
;

//---------------dance-single - Chewi----------------
#NOTES:
     dance-single:
     Chewi:
     Hard:
     12:
     0.548,0.570,0.267,0.229,0.119:
0000
0000
0000
0000
,
0000
0000
0000
0000
,
0000
0000
0000
0000
,
0000
0000
0000
0000
,
2200
0000
0000
3000
,
0002
0000
0000
0300
,
0020
0000
0000
0033
,
1010
0000
0101
0000
0011
0100
1000
0000
,
2000
0000
3100
1000
0010
0100
0001
0010
,
0100
0000
0100
0000
0010
0000
0010
0000
0001
0000
1000
0001
1000
0000
0000
0000
,
0020
0000
1030
0100
0010
0001
0100
0010
,
1000
0000
1000
0000
0001
0000
0001
0000
0010
0000
0100
0010
0100
0000
0000
0000
,
0011
0100
0010
1000
0001
0010
0100
1000
,
0001
1000
0001
0000
1000
0000
0001
1000
0010
0000
0010
0000
0100
0000
0100
0000
,
0001
0000
0100
0000
0010
0000
1000
0000
0001
0000
0010
0000
1000
0000
0000
0100
0000
0000
0001
0000
0000
0000
0000
0000
,
1000
0001
1001
0000
0001
1000
1001
0000
,
1000
0010
0001
0010
1000
0010
0001
0010
,
1000
0100
0001
0100
1000
0100
0001
0100
,
1000
0010
0001
0010
1000
0010
0001
0010
,
1000
0100
0001
0100
1000
0100
0001
0010
,
0210
0001
0001
0301
,
0102
0000
1000
0000
1000
0000
1003
0010
,
0101
0001
0010
0100
1000
0010
0001
0100
,
1001
0000
1020
0230
,
0301
1000
0100
0010
0001
1000
0010
0100
,
0002
0010
1000
0103
,
1000
0100
0001
0010
1000
0010
0001
0100
,
0020
1000
0100
1030
,
1000
0010
0100
0001
0010
0100
1000
0001
,
2000
0010
0001
3100
,
0001
0100
0010
0100
0001
0010
0100
1000
,
0002
0010
1000
0013
,
1100
0010
0100
0001
0010
0100
1000
0001
,
1000
0100
0001
0010
0100
1000
0001
0100
,
0010
0100
0001
0010
0100
1000
0010
0100
,
0001
0100
1000
0010
1000
0001
1001
0000
,
1010
0100
1000
0010
0100
0001
0010
0100
,
1000
0010
0100
1000
0010
0100
0001
0010
,
1010
0000
0000
0101
0000
0000
0011
0000
0000
1100
0000
0000
1000
0000
0001
0020
,
0000
0000
0000
0000
0000
0000
0000
0000
0000
0000
0000
0000
0000
0000
0000
0000
0000
0000
0000
0000
0000
0000
0000
0000
0000
0000
0000
0000
0000
0000
0000
0000
0000
0000
0000
0000
0000
0000
0000
0000
0000
0000
0000
0000
0000
0000
0000
0000
0000
0000
0000
0000
0000
0000
0000
0000
0000
0000
0000
0000
0000
0000
0000
0000
0000
0000
0000
0000
0000
0000
0000
0000
0000
0000
0000
0000
0000
0000
0000
0000
0000
0000
0000
0000
0000
0000
0000
0000
0000
0000
0000
0000
0000
0000
0000
0000
0000
0000
0000
0000
0000
0000
0000
0000
0000
0000
0000
0000
0000
0000
0000
0000
0000
0000
0000
0000
0000
0000
0000
0000
0000
0000
0000
0000
0000
0000
0000
0000
0000
0000
0000
0000
0000
0000
0000
0000
0000
0000
0000
0000
0000
0000
0000
0000
0000
0030
0000
0000
0000
0000
0000
0000
0000
0000
0000
0000
0000
0000
0000
0000
0000
0000
0000
0000
0000
0000
0000
0000
0000
0000
0000
0000
0000
0000
0000
0000
0000
0000
0000
0000
0000
0000
0000
0000
0000
0000
0000
0000
0000
0000
0000
0000
,
1000
0100
0001
0010
1000
0100
0010
1000
,
0100
0001
0010
1000
0100
0001
0010
0100
,
0001
0010
0100
1000
0001
0010
0100
1000
,
0001
1000
1010
0001
0012
0000
2003
0000
,
3001
1000
0010
0100
0001
1000
0001
0000
,
1000
0001
0100
0010
1000
0001
1000
0001
,
2002
0000
0000
0003
,
0020
0000
0000
3030
,
0000
0000
0010
0000
0000
0010
0000
0000
0001
0000
0000
0100
0000
0000
1000
0000
,
0000
0000
0010
0000
0000
0010
0000
0000
1000
0000
0000
0100
0000
0000
0001
0000
,
0000
0000
0010
0000
0000
1010
0000
0000
0011
0000
0000
0100
0000
0000
2200
0000
,
0000
0000
0000
3300
,
2000
0000
3100
1000
0010
0100
0001
0010
,
0100
0000
0100
0000
0010
0000
0010
0000
0001
0000
1000
0001
1000
0000
0000
0000
,
0020
0000
1030
0100
0010
0001
0100
0010
,
1000
0000
1000
0000
0001
0000
0001
0000
0010
0000
0100
0010
0100
0000
0000
0000
,
0011
0100
0010
1000
0001
0010
0100
1000
,
0001
1000
0001
0000
1000
0000
0001
1000
0010
0000
0010
0000
0100
0000
0100
0000
,
0001
0000
0100
0000
0010
0000
1000
0000
0001
0000
0010
0000
1000
0000
0000
0100
0000
0000
0001
0000
0000
0000
0000
0000
,
1000
0001
1001
0000
0001
1000
1001
0000
;

//---------------dance-double - Chewi----------------
#NOTES:
     dance-double:
     Chewi:
     Easy:
     5:
     0.319,0.314,0.210,0.153,0.000:
00000000
00000000
00000000
00000000
,
00000000
00000000
00000000
00000000
,
00000000
00000000
00000000
00000000
,
00000000
00000000
00000000
00000000
,
00100000
00100000
00100000
00100000
,
00010000
00010000
00010000
00010000
,
01000000
01000000
01000000
01000000
,
00010000
00001000
00010000
00001000
,
00011000
00000000
00010000
00001000
,
00000010
00000001
00000100
00001000
,
00000100
00000000
00000100
00000000
,
00000100
00001000
00000010
00001000
,
00000100
00010000
00001000
00100000
,
00010000
01000000
10000000
00100000
,
00020000
00000000
00000000
00030000
,
10010000
00000000
01100000
00000000
,
10000000
01000000
10000000
01000000
,
00010000
01000000
00010000
01000000
,
00010000
00100000
00010000
00100000
,
00001000
00010000
00001000
00010000
,
00011000
00000000
00010000
00001000
,
00001001
00000000
00000001
00001000
,
00001001
00000000
00000110
00001001
,
00000110
00000000
00000000
00000000
,
00000001
00000100
00000010
00001000
,
00000100
00000100
00000100
00000100
,
00000100
00010000
00001000
00100000
,
01000000
01000000
01000000
01000000
,
01000000
10000000
00100000
01000000
,
00010000
00010000
00010000
00010000
,
00100000
00001000
00010000
00000100
,
00001000
00001000
00001000
00001000
,
00000020
00001000
00001000
00001030
,
00002000
00000001
00000001
00003001
,
00000002
00001000
00001000
00001003
,
00000200
00010000
00010000
00010300
,
00002000
00010000
00010000
00013000
,
00020000
00001000
00001000
00031000
,
00002000
00100000
00100000
00103000
,
00200000
00010000
00010000
00310000
,
00010000
10000000
01000000
10000000
,
10010000
00010000
01000000
00010000
,
00101000
00001000
00010000
00000100
,
00001000
00000001
00001001
00000000
,
00000101
00000100
00000100
00001000
,
00001100
00000100
00000100
00010000
,
00001000
00100000
01010000
10000000
,
00100000
01000000
00010000
10000000
,
20020000
00000000
00000000
30030000
,
02200000
00000000
00000000
03300000
,
20020000
00000000
00000000
30030000
,
10000000
01000000
10000000
01000000
,
00010000
00100000
00010000
01000000
,
00010000
00100000
00001000
00010000
,
00000100
00001000
00000010
00001000
,
00000100
00001001
00000010
00001001
,
00000100
00001000
00010000
01000000
,
10000000
00100000
00010000
01000000
,
00200000
00000000
00000000
00300000
,
01010000
00000000
00100000
00011000
;

//---------------dance-double - Chewi----------------
#NOTES:
     dance-double:
     Chewi:
     Medium:
     8:
     0.383,0.399,0.286,0.181,0.029:
00000000
00000000
00000000
00000000
,
00000000
00000000
00000000
00000000
,
00000000
00000000
00000000
00000000
,
00000000
00000000
00000000
00000000
,
01000000
10000000
00100000
00010000
,
00100000
00010000
01000000
10000000
,
00100000
00010000
00001000
00000010
,
00011000
00011000
00011000
00011000
,
00002000
00000000
00003010
00000000
00000100
00000001
00000100
00000000
,
00000001
00000010
00001000
00000100
,
00020000
00000000
00030100
00000000
00010000
00001000
00010000
00000000
,
00001000
00010000
00100000
10000000
,
02000000
00000000
13000000
00000000
00100000
10000000
01000000
00000000
,
00100000
00010000
01000000
01100000
,
20000000
00020000
00000000
00000000
00000000
00000000
30030000
00000000
,
10000000
01000000
00100000
00000000
00010000
00100000
01000000
00000000
,
11000000
00100000
00100000
00100000
,
01010000
00100000
00100000
00100000
,
00011000
00010000
00001000
00010000
,
00001001
00001000
00000001
00001000
,
00000001
00000101
00001000
00001100
,
00000100
00000010
00000100
00000010
,
00001001
00000000
00001010
00001100
,
00010100
00000000
00000000
00000000
,
00001000
00010000
01000000
00000000
10000000
01000000
00010000
00000000
,
00200000
00010000
00010000
00310000
,
10000000
00100000
00010000
00000000
00010000
00100000
00001000
00000000
,
00020000
00001000
00001000
00031000
,
00010000
00001000
00000010
00000000
00000001
00000010
00001000
00000000
,
00002000
00000001
00000001
00003001
,
00000100
00000010
00000100
00000000
00000010
00000100
00000010
00000000
,
00000220
00000000
00000000
00000330
,
00000010
00001000
00000100
00010000
,
00001000
00100000
10000000
01000000
,
00010000
00100000
00010000
00000000
10000000
00100000
10000000
00000000
,
00100000
01100000
10010000
10000000
,
10000000
00000000
01000000
00000000
00100000
00010000
01000000
00000000
,
00010000
00000000
00100000
00000000
00001000
00010000
00001000
00000000
,
00010000
00000000
00000100
00000000
00001000
00000001
00001000
00000000
,
00002002
00000000
00000000
00003003
,
00000011
00000100
00001010
00000100
,
00000001
00001000
00000001
00000000
00001000
00000001
00001000
00000000
,
00000010
00001000
00000100
00010000
,
00011000
01010000
00011000
00000000
,
00001000
00010000
01000000
00000000
10000000
00000000
00100000
00000000
,
00010000
00100000
10000000
00000000
01000000
00000000
00100000
00000000
,
02020000
00000000
00000000
03030000
,
00220000
00000000
00000000
00330000
,
00000000
00000000
00100000
00000000
00000000
00010000
00000000
00000000
00001000
00000000
00000000
00010000
00000000
00000000
00001000
00000000
,
00000000
00000000
00010000
00000000
00000000
00001000
00000000
00000000
00000010
00000000
00000000
00000001
00000000
00000000
00000100
00000000
,
00000000
00000000
00000001
00000000
00000000
00000100
00000000
00000000
00001000
00000000
00000000
00000100
00000000
00000000
00020000
00000000
,
00000000
00000000
00001000
00001000
,
00031000
00010000
01000000
00000000
01000000
01000000
01000000
00000000
,
10000000
00100000
00010000
00100000
,
00010000
00001000
00000010
00000000
00000010
00000010
00000010
00000000
,
00000001
00000100
00001000
00000010
,
00000110
00000000
00001000
00000000
00000001
00001000
00000001
00000000
,
00001000
00000000
00001100
00000000
00000100
00010000
00001000
00000000
,
00022000
00000000
00000000
00033000
,
00001000
00010000
00001000
00000000
00011000
00000000
01000000
00000000
;

//---------------dance-double - Chewi----------------
#NOTES:
     dance-double:
     Chewi:
     Hard:
     13:
     0.582,0.570,0.448,0.143,0.114:
00000000
00000000
00000000
00000000
,
00000000
00000000
00000000
00000000
,
00000000
00000000
00000000
00000000
,
00000000
00000000
00000000
00000000
,
10000000
00000000
00000000
00000000
01000000
00000000
00000000
00000000
00100000
00010000
00000000
00000000
01000000
00000000
00000000
00000000
,
00010000
00000000
00000000
00000000
00100000
00000000
00000000
00000000
00001000
00010000
00000000
00000000
00001000
00000000
00000000
00000000
,
00001000
00000000
00000000
00000000
00000010
00000000
00000000
00000000
00000001
00000100
00000000
00000000
00001000
00000000
00000000
00000000
,
00001001
00000110
00001010
00000101
,
00002000
00000000
00003001
00001000
00000100
00010000
00001000
00100000
,
00010000
01000000
10000000
00100000
00010000
00100000
10000000
00100000
,
20000000
00000000
30010000
00100000
01000000
10000000
00100000
01000000
,
00010000
00100000
00001000
00010000
00000100
00001000
00001001
00000000
,
00002000
00000000
00003001
00000010
00000100
00001000
00000010
00000100
,
00000001
00000010
00000100
00001000
00000010
00000010
00001100
00000000
,
00000100
00010000
00001000
00100000
00010000
00001000
00010000
00000000
00000000
00011000
00000000
00000000
,
00011000
00010000
00010000
00000000
01010000
01000000
01000000
00000000
,
00010000
10000000
00100000
01000000
00000000
01000000
01000000
01000000
,
00100000
10000000
00010000
00100000
00000000
01000000
01000000
01000000
,
00100000
00010000
01000000
00001000
00000000
00001000
00010000
00001000
,
00000010
00001000
00000001
00000100
00000000
00000100
00000001
00001000
,
00001001
00001010
00000001
00000101
,
00001001
00001100
00010100
00011000
,
00022000
00000000
00033000
00000000
00001000
00010000
01000000
10000000
,
00200000
00000000
10000000
00310000
,
10000000
00000000
00100000
01000000
00010000
00000000
00100000
00000000
01000000
00000000
10000000
00000000
01000000
00000000
00100000
00000000
,
00010000
00010000
01000000
01000000
00100000
10000000
00010000
00100000
,
00001000
00000000
00010000
00001000
00010000
00000000
00001000
00000000
00000010
00000000
00001000
00000000
00000001
00000000
00000010
00000000
,
00000100
00001000
00000001
00000100
00000010
00001000
00000001
00000100
,
00000010
00000000
00001000
00000001
00001000
00000000
00000100
00000000
00010000
00000000
00001000
00000000
00010000
00000000
00010000
00000000
,
01000000
00100000
10000000
00010000
00100000
01000000
10000000
00010000
,
10000000
00000000
00100000
00010000
01000000
00000000
00010000
00000000
00100000
00000000
01000000
00000000
10000000
00000000
00100000
00000000
,
01020000
00100000
01000000
00130000
,
00100000
00001000
00010000
00000100
00001000
00000001
00000100
00000010
,
00001000
00000001
00000010
00000100
00001000
00000001
00000100
00000010
,
00001000
00000100
00010000
00001000
00100000
00010000
01000000
10000000
,
00100000
00010000
00100000
10000000
01000000
01100000
01100000
00000000
,
00100000
00010000
01000000
00010000
00100000
00001000
00010000
00000100
,
00001000
00000001
00000100
00000010
00001000
00000001
00000010
00000100
,
00001000
00000000
00000000
00000001
00000000
00000000
00000100
00000000
00000000
00000010
00000000
00000000
00001000
00000000
00000100
00002200
,
00000000
00000000
00000000
00003300
,
00000100
00001000
00000100
00010000
00001000
00010000
00001000
00010000
,
01000000
00010000
01000000
00010000
01000000
00100000
01000000
00100000
,
00100000
10000000
01000000
00100000
00010000
01000000
00100000
01000000
,
00010000
00100000
00001000
00010000
00011000
00000000
00001010
00000000
,
00000010
00001000
00010000
00001000
00000010
00001000
00000001
00001000
,
00000100
00001000
00000100
00010000
00001000
00010000
01000000
00010000
,
00001000
00010000
00001000
00010000
00011000
00010000
01000000
10000000
,
02000000
00000000
00000000
03000000
,
00000000
00000000
01100000
00000000
00000000
00110000
00000000
00000000
00011000
00000000
00000000
00001100
00000000
00000000
00001001
00000000
,
00000000
00000000
00000101
00000000
00000000
00001100
00000000
00000000
00010100
00000000
00000000
00011000
00000000
00000000
00011000
00000000
,
00000000
00000000
00011000
00000000
00000000
01010000
00000000
00000000
11000000
00000000
00000000
10010000
00000000
00000000
02200000
00000000
,
00000000
00000000
00000000
03300000
,
00020000
00000000
01030000
10000000
00100000
01000000
00010000
00100000
,
00001000
00010000
00000100
00001000
00000001
00000100
00000110
00000000
,
00000020
00000000
00000031
00000010
00000100
00001000
00000010
00001000
,
00000100
00010000
00001000
00100000
00010000
01000000
01010000
00000000
,
00020000
00000000
00130000
10000000
00010000
00100000
01000000
10000000
,
01000000
00100000
00010000
01000000
00000100
00001000
00000001
00000100
,
00000010
00001000
00000001
00000010
00000100
00001000
00000001
00000000
00000000
00001100
00000000
00000000
,
00000011
00000010
00001100
00000000
00001001
00000110
00001001
00000000
;
