#TITLE:Backseat;
#SUBTITLE:;
#ARTIST:New Boys feat. The Cataracs & Dev;
#TITLETRANSLIT:;
#SUBTITLETRANSLIT:;
#ARTISTTRANSLIT:;
#GENRE:;
#CREDIT:Chewi☆;
#MENUCOLOR:;
#METERTYPE:DDR X;
#BANNER:Backseat.png;
#BACKGROUND:Backseat-bg.png;
#LYRICSPATH:;
#CDTITLE:;
#MUSIC:Backseat.mp3;
#OFFSET:-0.523;
#SAMPLESTART:15.878;
#SAMPLELENGTH:15.000;
#SELECTABLE:YES;
#LISTSORT:;
#DISPLAYBPM:125.000;
#BPMS:0.000=125.000;
#STOPS:180.000=0.240
,180.500=0.240
,181.000=0.240
,181.500=0.240
;
#BGCHANGES:;
#ATTACKS:;

//---------------dance-single - Chewi----------------
#NOTES:
     dance-single:
     Chewi:
     Hard:
     10:
     0.431,0.527,0.236,0.209,0.000: // measure 1
0000
0000
0000
0000
,  // measure 2
0000
0000
0000
0000
,  // measure 3
0000
0000
0000
0000
,  // measure 4
0000
0000
0000
0000
,  // measure 5
1000
0100
0010
0001
1000
0010
0100
0001
,  // measure 6
0100
0010
1000
0001
0020
0000
0030
0000
,  // measure 7
0010
0100
0010
0001
0100
0010
1000
0002
,  // measure 8
2000
0000
0000
3003
,  // measure 9
0102
0000
2003
0000
3000
0001
0010
0100
,  // measure 10
1000
0010
0000
0100
0000
0001
0001
1000
,  // measure 11
2100
0000
3002
0000
1003
0100
1000
0010
,  // measure 12
0100
0001
0000
0100
0000
0010
1000
0001
,  // measure 13
2100
0000
3020
0000
0030
1000
0010
0100
,  // measure 14
0001
0100
0010
1000
0000
0001
1000
0100
,  // measure 15
0012
0000
0203
0000
0301
0100
1000
0100
,  // measure 16
0001
1000
0000
0101
0000
0010
0000
0000
,  // measure 17
0001
0000
0000
0110
0000
0000
1000
0000
,  // measure 18
1000
0001
1000
0001
0100
0010
0100
0100
,  // measure 19
0100
0000
0000
0110
0000
0000
0010
0000
,  // measure 20
0010
0001
0001
0010
0100
1000
0010
0000
,  // measure 21
0100
0000
0000
0101
0000
0000
0001
0000
,  // measure 22
0001
0010
0100
1000
0001
0010
0100
0000
,  // measure 23
1000
0000
0000
1100
0000
0000
0100
0000
,  // measure 24
0001
1000
0010
0100
0001
1000
0100
0000
,  // measure 25
1000
0100
0001
0000
1000
0100
0001
0000
,  // measure 26
1000
0001
0100
0010
1000
0001
1001
0000
,  // measure 27
0001
0010
1000
0000
0001
0010
1000
0000
,  // measure 28
0010
0001
0100
0010
1000
0001
1001
0000
,  // measure 29
0001
0100
1000
0000
1000
0010
0001
0000
,  // measure 30
0001
0010
0100
1000
0010
0100
0001
0000
,  // measure 31
1000
0010
0001
0000
0001
0100
1000
0000
,  // measure 32
0001
0010
0100
1000
0001
0000
1000
0000
,  // measure 33
0001
0000
0000
0101
0000
0000
1000
0000
,  // measure 34
0000
0100
0010
0001
0100
1000
0010
0000
,  // measure 35
0001
0000
0000
0101
0000
0000
1000
0000
,  // measure 36
0000
0100
1000
0010
0100
0001
0100
0000
,  // measure 37
0010
0000
0000
1001
0000
0000
0100
0000
,  // measure 38
0000
0010
0100
0001
1000
0100
0010
0000
,  // measure 39
0001
0000
0000
1100
0000
0000
1000
0002
,  // measure 40
2000
0000
0000
3003
,  // measure 41
1020
0000
0230
0000
0301
0010
0100
1000
,  // measure 42
0010
0100
0001
0100
0010
1000
0001
0010
,  // measure 43
0210
0000
2300
0000
3010
0010
0100
0001
,  // measure 44
0100
0010
1000
0001
0010
0100
1000
0001
,  // measure 45
1002
0000
2003
0000
3010
0010
0100
0001
,  // measure 46
0200
0320
2030
3002
0103
0100
0100
0000
,  // measure 47
1000
0010
0100
0001
0100
0010
1000
0001
,  // measure 48
0010
0100
1000
0001
1001
0000
0000
0101
,  // measure 49
0000
1001
0000
0010
,  // measure 50
0000
0100
0100
0000
0110
0000
0000
1000
,  // measure 51
0000
0000
0010
0000
0000
0100
0100
0000
,  // measure 52
0000
0001
0010
0100
1000
0100
1001
0000
,  // measure 53
0100
0000
0110
0000
0001
0100
1000
0100
,  // measure 54
0001
0100
1000
0001
1000
0010
0110
0000
,  // measure 55
0100
0000
0101
0000
0001
0010
0100
1000
,  // measure 56
0001
0100
1000
0000
0000
0000
0000
0000
;

//---------------dance-single - Chewi----------------
#NOTES:
     dance-single:
     Chewi:
     Medium:
     6:
     0.265,0.427,0.255,0.091,0.000: // measure 1
0000
0000
0000
0000
,  // measure 2
0000
0000
0000
0000
,  // measure 3
0000
0000
0000
0000
,  // measure 4
0000
0000
0000
0000
,  // measure 5
2000
0000
0000
3000
,  // measure 6
1000
0001
1001
0000
,  // measure 7
0002
0000
0000
0003
,  // measure 8
0001
1000
1001
0000
,  // measure 9
0110
0110
0000
0100
,  // measure 10
0010
1000
0001
0000
,  // measure 11
1001
1001
0000
0001
,  // measure 12
1000
0100
0010
0000
,  // measure 13
0110
0110
0000
0100
,  // measure 14
0010
0001
1000
0000
,  // measure 15
1001
1001
0000
1000
,  // measure 16
0010
0100
0001
0000
,  // measure 17
1001
0000
0000
1000
0000
0000
0001
0000
,  // measure 18
0000
1000
0010
0100
,  // measure 19
0101
0000
0000
0100
0000
0000
0100
0000
,  // measure 20
0010
1000
0001
0010
,  // measure 21
0110
0000
0000
0010
0000
0000
0010
0000
,  // measure 22
0100
0010
0001
0100
,  // measure 23
0110
0000
0000
0100
0000
0000
0010
0000
,  // measure 24
0010
1000
0100
0010
,  // measure 25
0002
1003
1000
0100
,  // measure 26
0020
0001
0001
0031
,  // measure 27
0002
1003
0100
0010
,  // measure 28
0200
0010
0010
0310
,  // measure 29
1001
0000
0110
0000
,  // measure 30
0001
0100
1000
0010
,  // measure 31
0110
0000
1001
0000
,  // measure 32
1000
0100
0001
0010
,  // measure 33
0100
0000
0000
0100
0000
0000
0100
0000
,  // measure 34
0000
0010
0110
0000
,  // measure 35
0001
0000
0000
1000
0000
0000
0001
0000
,  // measure 36
0000
1000
1001
0000
,  // measure 37
1000
0000
0000
0010
0000
0000
0100
0000
,  // measure 38
0000
0001
0101
0000
,  // measure 39
0001
0000
0000
0010
0000
0000
0100
0000
,  // measure 40
1100
0000
0000
0000
,  // measure 41
2000
3100
0000
0100
,  // measure 42
0010
0001
0100
0010
,  // measure 43
0002
0013
0100
0010
,  // measure 44
0001
0100
1000
0010
,  // measure 45
2000
3010
0100
0010
,  // measure 46
1001
0101
1001
1010
0020
0000
0130
0000
,  // measure 47
1000
0100
0010
0001
,  // measure 48
0100
0000
0010
0000
1000
0000
0000
0010
,  // measure 49
0000
1000
0000
1000
,  // measure 50
0000
0001
0001
0000
0010
0000
0000
0100
,  // measure 51
0000
0000
0010
0000
0000
0001
0001
0000
,  // measure 52
1000
0010
0100
0101
,  // measure 53
0010
0100
1000
0010
,  // measure 54
1000
0100
0010
0011
,  // measure 55
0100
0010
0100
0001
,  // measure 56
0010
0100
0000
0000
;

//---------------dance-single - Chewi----------------
#NOTES:
     dance-single:
     Chewi:
     Easy:
     4:
     0.197,0.226,0.055,0.036,0.000: // measure 1
0000
0000
0000
0000
,  // measure 2
0000
0000
0000
0000
,  // measure 3
0000
0000
0000
0000
,  // measure 4
0000
0000
0000
0000
,  // measure 5
2000
0000
0000
3000
,  // measure 6
1000
0001
1000
0000
,  // measure 7
0002
0000
0000
0003
,  // measure 8
1001
0000
0000
0000
,  // measure 9
0010
0010
0000
0000
,  // measure 10
1000
0100
0001
0010
,  // measure 11
0100
0100
0000
0000
,  // measure 12
0001
0100
1000
0010
,  // measure 13
0100
0100
0000
0000
,  // measure 14
0010
0001
0100
1000
,  // measure 15
0100
0100
0000
0000
,  // measure 16
0100
1000
0010
0001
,  // measure 17
0100
0000
0100
0000
,  // measure 18
0100
0010
0001
1000
,  // measure 19
0001
0000
0001
0000
,  // measure 20
0001
0010
0100
1000
,  // measure 21
1000
0000
1000
0000
,  // measure 22
1000
0100
0010
0001
,  // measure 23
1000
0000
1000
0000
,  // measure 24
0001
1000
0010
0100
,  // measure 25
0002
0000
0000
0003
,  // measure 26
0001
0100
0001
0100
,  // measure 27
2000
0000
0000
3000
,  // measure 28
1000
0010
1000
0010
,  // measure 29
0010
0000
0100
0000
,  // measure 30
0010
0100
0001
1000
,  // measure 31
0001
0000
1000
0000
,  // measure 32
0001
1000
0100
0010
,  // measure 33
0110
0000
0010
0000
,  // measure 34
0010
0001
0100
1000
,  // measure 35
1001
0000
0001
0000
,  // measure 36
1000
0100
0010
1000
,  // measure 37
1001
0000
0001
0000
,  // measure 38
0001
0010
0100
0001
,  // measure 39
0110
0000
0010
1000
,  // measure 40
0100
0000
0000
0000
,  // measure 41
0100
0100
0000
0000
,  // measure 42
1000
0010
0100
0001
,  // measure 43
1000
1000
0000
0000
,  // measure 44
0001
0010
0100
1000
,  // measure 45
0100
0100
0000
0000
,  // measure 46
1000
0001
1000
0001
0100
0000
0100
0000
,  // measure 47
0000
0000
0010
1000
,  // measure 48
0100
0001
0010
0000
,  // measure 49
1000
0000
0010
0010
,  // measure 50
0010
0000
0010
0000
,  // measure 51
0001
0000
0010
0010
,  // measure 52
0010
0000
1001
0000
,  // measure 53
0100
0000
1000
0000
,  // measure 54
0001
0000
0010
0000
,  // measure 55
1000
0000
0001
1000
,  // measure 56
0100
0010
0000
0000
;

//---------------dance-single - Chewi----------------
#NOTES:
     dance-single:
     Chewi:
     Beginner:
     1:
     0.081,0.124,0.045,0.045,0.000: // measure 1
0000
0000
0000
0000
,  // measure 2
0000
0000
0000
0000
,  // measure 3
0000
0000
0000
0000
,  // measure 4
0000
0000
0000
0000
,  // measure 5
2000
0000
0000
3000
,  // measure 6
1000
0000
0000
0000
,  // measure 7
0002
0000
0000
0003
,  // measure 8
0001
0000
0000
0000
,  // measure 9
0010
0000
0000
0000
,  // measure 10
1000
0000
0000
0000
,  // measure 11
0100
0000
0000
0000
,  // measure 12
0001
0000
0000
0000
,  // measure 13
0100
0000
0000
0000
,  // measure 14
0010
0000
0000
0000
,  // measure 15
0100
0000
0000
0000
,  // measure 16
0100
0000
0000
0000
,  // measure 17
0100
0000
0000
0000
,  // measure 18
0100
0000
0000
0000
,  // measure 19
0001
0000
0000
0000
,  // measure 20
0001
0000
0000
0000
,  // measure 21
1000
0000
0000
0000
,  // measure 22
1000
0000
0000
0000
,  // measure 23
1000
0000
0000
0000
,  // measure 24
0001
0000
0000
0000
,  // measure 25
0002
0000
0000
0003
,  // measure 26
0001
0000
0000
0000
,  // measure 27
2000
0000
0000
3000
,  // measure 28
1000
0000
0000
0000
,  // measure 29
0010
0000
0000
0000
,  // measure 30
0010
0000
0000
0000
,  // measure 31
0001
0000
0000
0000
,  // measure 32
0001
0000
0000
0000
,  // measure 33
0110
0000
0000
0000
,  // measure 34
0010
0000
0000
0000
,  // measure 35
1001
0000
0000
0000
,  // measure 36
1000
0000
0000
0000
,  // measure 37
1001
0000
0000
0000
,  // measure 38
0001
0000
0000
0000
,  // measure 39
0110
0000
0000
0000
,  // measure 40
0100
0000
0000
0000
,  // measure 41
0100
0000
0000
0000
,  // measure 42
1000
0000
0000
0000
,  // measure 43
1000
0000
0000
0000
,  // measure 44
0001
0000
0000
0000
,  // measure 45
0100
0000
0000
0000
,  // measure 46
2000
3000
1000
0000
,  // measure 47
0000
0000
0010
0000
,  // measure 48
0000
0000
0010
0000
,  // measure 49
0000
0000
0010
0000
,  // measure 50
0000
0000
0010
0000
,  // measure 51
0000
0000
0010
0000
,  // measure 52
0000
0000
1001
0000
,  // measure 53
0000
0000
1000
0000
,  // measure 54
0000
0000
0010
0000
,  // measure 55
0000
0000
0001
0000
;
