#VERSION:0.83;
#TITLE:Baby's on Fire;
#SUBTITLE:;
#ARTIST:Die Antwoord;
#TITLETRANSLIT:;
#SUBTITLETRANSLIT:;
#ARTISTTRANSLIT:;
#GENRE:Hip-Hop/Rap;
#ORIGIN:;
#CREDIT:chewi;
#BANNER:Baby's on Fire.png;
#BACKGROUND:Baby's on Fire-bg.png;
#PREVIEWVID:;
#JACKET:Baby's on Fire-jacket.png;
#CDIMAGE:;
#DISCIMAGE:;
#LYRICSPATH:;
#CDTITLE:cdtitle.png;
#MUSIC:Baby's on Fire.ogg;
#OFFSET:-0.092000;
#SAMPLESTART:51.791000;
#SAMPLELENGTH:15.000000;
#SELECTABLE:YES;
#DISPLAYBPM:130.000000;
#BPMS:0.000=130.000;
#STOPS:;
#DELAYS:;
#WARPS:;
#TIMESIGNATURES:0.000=4=4;
#TICKCOUNTS:0.000=4;
#COMBOS:0.000=1;
#SPEEDS:0.000=1.000=0.000=0;
#SCROLLS:0.000=1.000;
#FAKES:;
#LABELS:0.000=Song Start;
#BGCHANGES:;
#KEYSOUNDS:;
#ATTACKS:
;

//---------------dance-single - ----------------
#NOTEDATA:;
#CHARTNAME:;
#STEPSTYPE:dance-single;
#DESCRIPTION:;
#CHARTSTYLE:;
#DIFFICULTY:Beginner;
#METER:1;
#RADARVALUES:0.090827,0.151150,0.095968,0.023992,0.000000,53.000000,45.000000,8.000000,2.000000,0.000000,0.000000,0.000000,0.000000,0.000000,0.090827,0.151150,0.095968,0.023992,0.000000,53.000000,45.000000,8.000000,2.000000,0.000000,0.000000,0.000000,0.000000,0.000000;
#CREDIT:;
#DISPLAYBPM:130.000000;
#NOTES:
// measure 0
0000
0000
0000
0000
,  // measure 1
0000
0000
0000
0000
,  // measure 2
0000
0000
0000
0000
,  // measure 3
0000
0000
0000
0000
,  // measure 4
1000
0000
0000
0000
,  // measure 5
0001
0000
0000
0000
,  // measure 6
0100
0000
0000
0000
,  // measure 7
0100
0000
0000
0000
,  // measure 8
0001
0000
0000
0000
,  // measure 9
1000
0000
0000
0000
,  // measure 10
0100
0000
0000
0000
,  // measure 11
0100
0000
0000
0000
,  // measure 12
1001
0000
0000
0000
,  // measure 13
0010
0000
0010
0000
,  // measure 14
1001
0000
0000
0000
,  // measure 15
0010
0000
0010
0000
,  // measure 16
1001
0000
0000
0000
,  // measure 17
0100
0000
0100
0000
,  // measure 18
1001
0000
0000
0000
,  // measure 19
0100
0000
0100
0000
,  // measure 20
0200
0000
0000
0000
,  // measure 21
0000
0000
0000
0300
,  // measure 22
0100
0000
0000
0000
,  // measure 23
0100
0000
0000
0000
,  // measure 24
0020
0000
0000
0000
,  // measure 25
0000
0000
0000
0030
,  // measure 26
0010
0000
0000
0000
,  // measure 27
0010
0000
0000
0000
,  // measure 28
1000
0000
1000
0000
,  // measure 29
1000
0000
0000
0000
,  // measure 30
0001
0000
0001
0000
,  // measure 31
0001
0000
0000
0000
,  // measure 32
0010
0000
0010
0000
,  // measure 33
0010
0000
0000
0000
,  // measure 34
0100
0000
0100
0000
,  // measure 35
0100
0000
0000
0000
,  // measure 36
1001
0000
0000
0000
,  // measure 37
1000
0000
0000
0000
,  // measure 38
1001
0000
0000
0000
,  // measure 39
0001
0000
0000
0000
,  // measure 40
0110
0000
0000
0000
,  // measure 41
0100
0000
0000
0000
,  // measure 42
0110
0000
0000
0000
;

//---------------dance-single - ----------------
#NOTEDATA:;
#CHARTNAME:;
#STEPSTYPE:dance-single;
#DESCRIPTION:;
#CHARTSTYLE:;
#DIFFICULTY:Easy;
#METER:4;
#RADARVALUES:0.186795,0.265412,0.047984,0.023992,0.000000,109.000000,105.000000,4.000000,2.000000,0.000000,0.000000,0.000000,0.000000,0.000000,0.186795,0.265412,0.047984,0.023992,0.000000,109.000000,105.000000,4.000000,2.000000,0.000000,0.000000,0.000000,0.000000,0.000000;
#CREDIT:;
#DISPLAYBPM:130.000000;
#NOTES:
0000
0000
0000
0000
,
0000
0000
0000
0000
,
0000
0000
0000
0000
,
0000
0000
0000
0000
,
0010
0000
0010
0000
,
0010
0100
0010
0000
,
1000
0000
1000
0000
,
1000
0001
1000
0000
,
0100
0000
0100
0000
,
0100
0010
0100
0000
,
1000
0000
1000
0000
,
0001
1000
1001
0000
,
0010
0000
0010
0000
,
0100
0000
0100
0000
,
0010
0000
0010
0000
,
0001
1000
0001
1000
,
0001
0000
0001
0000
,
1000
0000
1000
0000
,
0010
0000
0010
0000
,
0100
0010
0100
0010
,
0100
0100
0100
0100
,
0200
0000
0000
0300
,
1000
1000
0001
0001
,
1000
0001
1000
1001
,
0010
0010
0010
0010
,
0020
0000
0000
0030
,
0100
0100
0010
0010
,
0010
0100
0010
0110
,
0010
1000
0100
0001
,
0010
0000
0000
0000
,
0010
0001
0100
1000
,
0010
0000
0000
0000
,
0010
1000
0100
0001
,
0010
0000
0000
0000
,
0010
0001
0100
1000
,
0010
0000
0000
0000
,
1000
0000
1000
0000
,
0001
0000
0001
0000
,
1000
0000
1000
0000
,
0010
0100
0010
0100
,
0010
0000
0010
0000
,
0100
0000
0100
0000
,
1000
0000
1000
0000
,
1001
0000
0000
0000
,
1000
0001
0000
0000
;

//---------------dance-single - ----------------
#NOTEDATA:;
#CHARTNAME:;
#STEPSTYPE:dance-single;
#DESCRIPTION:;
#CHARTSTYLE:;
#DIFFICULTY:Medium;
#METER:7;
#RADARVALUES:0.284477,0.345035,0.311896,0.095968,0.035988,166.000000,140.000000,26.000000,8.000000,0.000000,0.000000,0.000000,0.000000,0.000000,0.284477,0.345035,0.311896,0.095968,0.035988,166.000000,140.000000,26.000000,8.000000,0.000000,0.000000,0.000000,0.000000,0.000000;
#CREDIT:;
#DISPLAYBPM:130.000000;
#NOTES:
0000
0000
0000
0000
,
0000
0000
0000
0000
,
0000
0000
0000
0000
,
0000
0000
0000
0000
,
0000
1000
0000
1100
,
0000
0001
0000
0101
,
0000
1000
0000
1010
,
0000
0001
0000
0011
,
0000
1001
0000
0110
,
0000
1001
0000
0110
,
0000
1000
0000
1001
,
0000
0001
0000
1001
,
0020
0000
0230
0000
0310
0100
0010
0000
,
1000
0001
1000
0000
,
0002
0000
2003
0000
3001
1000
0001
0000
,
1000
0100
0010
0000
,
0200
0000
0000
0300
0020
0000
0000
0000
0130
0000
0010
0000
0100
0000
0000
0000
,
0010
0001
1000
0000
,
2000
0000
3002
0000
1003
0001
1000
0000
,
1001
0000
0000
0000
,
1000
0000
0000
0000
0100
0000
0000
0000
0010
0000
0000
0010
0000
0000
0010
0000
,
0000
0010
0001
0011
,
0001
0010
0100
1000
,
0001
0101
1000
1100
,
0001
0000
0000
0000
0010
0000
0000
0000
0100
0000
0000
0100
0000
0000
0100
0000
,
0000
0100
1000
1100
,
1000
0100
0010
0001
,
1000
1010
0001
0011
,
0010
0000
0110
0000
0010
0100
1000
0000
,
0001
0000
1000
0000
,
1000
0000
1010
0000
0001
0100
0010
0000
,
1000
0000
0001
0000
,
1000
0000
1100
0000
0001
0010
0100
0000
,
1000
0000
0001
0000
,
0100
0000
0110
0000
0010
1000
0001
0000
,
0010
0000
0100
0000
,
1001
0000
0000
0000
1000
0000
0000
0000
0001
0000
0000
0001
0000
0000
0001
0000
,
1000
0100
0010
0001
,
1001
0000
0000
0000
1000
0000
0000
0000
0010
0000
0000
0010
0000
0000
0010
0000
,
0100
0001
0100
0010
,
1010
0000
0000
0000
0010
0000
0000
0000
1000
0000
0000
1000
0000
0000
1000
0000
,
0001
0010
0100
1000
,
1000
0000
0000
0000
0001
0000
0000
0000
1000
0000
0000
0001
0000
0000
1000
0000
,
0000
0000
0000
0000
,
1001
1001
0000
0000
;

//---------------dance-single - ----------------
#NOTEDATA:;
#CHARTNAME:;
#STEPSTYPE:dance-single;
#DESCRIPTION:;
#CHARTSTYLE:;
#DIFFICULTY:Hard;
#METER:11;
#RADARVALUES:0.603228,0.611310,0.743753,0.047984,0.317894,352.000000,290.000000,62.000000,4.000000,0.000000,0.000000,0.000000,0.000000,0.000000,0.603228,0.611310,0.743753,0.047984,0.317894,352.000000,290.000000,62.000000,4.000000,0.000000,0.000000,0.000000,0.000000,0.000000;
#CREDIT:;
#DISPLAYBPM:130.000000;
#NOTES:
0000
0000
0000
0000
,
0000
0000
0000
0000
,
0000
0000
0000
0000
,
0000
0000
0000
0000
,
1000
0100
0001
0000
0010
1000
0100
0000
,
0001
0010
1000
0000
0100
0001
0010
0000
,
1000
0100
0001
0000
0010
1000
0100
0000
,
0001
0010
1000
0000
0100
0001
0010
0000
,
1000
0010
0001
0000
0100
1000
0010
0000
,
0001
0100
1000
0000
0010
0001
0100
0000
,
1000
0010
0001
0000
0100
1000
0010
0000
,
0001
0010
1000
0100
0010
0001
0010
0000
,
0022
0000
0033
0000
2200
0000
3300
0000
0001
1000
0000
1000
0001
0000
0000
0000
,
1000
0000
0010
0000
0100
0000
0001
0000
1000
0000
0010
1000
0010
0000
0000
0000
,
1001
0000
0000
0000
0011
0000
0000
0000
1000
0100
0000
0100
1000
0000
0000
0000
,
0001
1000
0001
0000
1000
0000
0010
0000
0100
0001
0100
0000
0010
0000
1000
0000
,
1001
0000
0000
0000
0011
0000
0000
0000
0001
0010
0000
0010
0001
0000
1000
0000
,
0100
1000
0100
0000
1000
0000
0001
0000
1000
0010
0100
0000
0001
0000
0010
0000
,
1100
0000
0000
0000
0011
0000
0000
0000
1000
0100
0000
0100
1000
0000
0001
0000
,
1000
0100
1000
0000
0001
0100
0001
0000
0100
0000
0010
0000
0110
0000
0000
0000
,
0110
0000
0000
0000
1010
0000
0000
0000
0101
0000
0000
0011
0000
0000
1100
0000
,
0000
1001
0000
0000
1100
0000
0000
1001
0000
0000
1000
0000
0010
0000
0100
0000
,
0001
0000
1000
0000
0010
0000
0100
0000
0001
1000
0000
1000
0100
0000
0010
0000
,
0000
0001
0010
0100
1100
0010
1100
0010
,
0101
0000
0000
0000
1001
0000
0000
0000
1010
0000
0000
1001
0000
0000
0011
0000
,
0000
1001
0000
0000
1100
0000
0000
1001
0000
0000
1000
0000
0100
0000
0010
0000
,
0001
0000
1000
0000
0100
0000
1000
0000
0010
0000
1000
0001
0000
0001
1000
0000
,
0000
0010
1000
0001
0101
1000
0101
1000
,
1010
1000
0001
0001
0010
0010
0100
0100
,
1000
0100
0010
0000
0001
0100
0010
0000
1000
0001
0010
0000
0001
1000
0010
0000
,
1010
1000
0010
0010
0100
0100
0001
0001
,
1000
0001
0100
0000
0001
1000
0100
0000
1000
0001
0010
0000
0001
1000
0010
0000
,
1001
1000
0001
0001
0010
0010
0100
0100
,
0010
0001
0100
0000
0010
1000
0100
0000
0010
0001
0100
0000
0010
1000
0100
0000
,
1100
1000
0001
0001
0100
0100
0010
0010
,
1000
0001
0100
0000
0001
1000
0100
0000
1000
0001
0100
0000
0001
1000
0100
0000
,
0110
0000
0000
0000
0011
0000
0000
0000
1100
0000
0000
0101
0000
0000
1010
0000
,
0000
0110
0000
0000
1010
0000
0000
0110
0000
0000
0010
0000
1000
0000
0001
0000
,
0011
0000
0000
0000
0110
0000
0000
0000
1100
0000
0000
0110
0000
0000
0011
0000
,
0000
1001
0000
0000
1100
0000
0000
1001
0000
0000
1000
0000
0100
0000
0010
0000
,
0011
0000
0000
0000
1100
0000
0000
0000
0101
0000
0000
1100
0000
0000
0101
0000
,
0000
1001
0000
0000
1010
0000
0000
1001
0000
0000
1000
0000
0010
0000
0100
0000
,
0101
0000
0000
0000
1001
0000
0000
0000
0011
0000
0000
0110
0000
0000
1100
0000
,
0000
0000
0000
0000
0000
0000
0000
0001
,
0010
0000
0100
1000
0100
1000
0000
0000
0000
0000
0000
0000
0000
0000
0000
0000
;
