#TITLE:Baby U!;
#SUBTITLE:;
#ARTIST:MBLAQ;
#TITLETRANSLIT:;
#SUBTITLETRANSLIT:;
#ARTISTTRANSLIT:;
#GENRE:;
#CREDIT:Chewi☆;
#MENUCOLOR:#FFFF00;
#METERTYPE:DDR X;
#BANNER:Baby U!.png;
#BACKGROUND:Baby U!-bg.png;
#LYRICSPATH:;
#CDTITLE:;
#MUSIC:Baby U!.mp3;
#OFFSET:-0.357;
#SAMPLESTART:53.392;
#SAMPLELENGTH:15.000;
#SELECTABLE:YES;
#LISTSORT:;
#BPMS:0.000=130.000;
#STOPS:;
#BGCHANGES:;
#ATTACKS:;

//---------------dance-single - Chewi----------------
#NOTES:
     dance-single:
     Chewi:
     Hard:
     8:
     0.438,0.447,0.109,0.405,0.005: // measure 1
0000
0000
0000
0000
,  // measure 2
0000
0000
0000
0000
,  // measure 3
0000
0000
0000
0000
,  // measure 4
0000
0000
0000
0000
,  // measure 5
2010
0000
0001
0000
0100
0000
3001
0010
,  // measure 6
0012
0100
1000
0103
,  // measure 7
2010
0000
0001
0000
0100
0000
3010
0100
,  // measure 8
0102
0100
0010
1003
,  // measure 9
1000
0100
0001
0100
1000
0010
0010
0000
,  // measure 10
1000
0010
0001
0010
1000
0100
0100
0000
,  // measure 11
0010
0001
0100
0000
0010
1000
0100
0000
,  // measure 12
2002
0000
0000
3003
,  // measure 13
2000
3100
0002
0103
,  // measure 14
0100
0001
0010
0000
0100
1000
0010
0000
,  // measure 15
0020
0031
0200
0310
,  // measure 16
0100
0010
0100
0000
0001
0100
0001
0000
,  // measure 17
1000
0100
0010
0001
0020
0000
0031
0000
,  // measure 18
0001
0010
0100
1000
0200
0000
1300
0000
,  // measure 19
1000
0001
0100
0000
0001
1000
0010
0000
,  // measure 20
1000
0001
0010
0000
0001
1000
0100
0000
,  // measure 21
2000
3100
0020
0031
,  // measure 22
0001
0100
0010
0000
1000
0010
0100
0000
,  // measure 23
0002
0013
0200
1300
,  // measure 24
1000
0100
0010
0000
0100
0010
0001
0000
,  // measure 25
1000
0001
0100
0010
0200
0000
0310
0000
,  // measure 26
0010
1000
0001
0010
0200
0000
1300
0000
,  // measure 27
1000
0001
0100
0000
0001
1000
0100
0000
,  // measure 28
0001
0010
0100
0000
1000
0010
0100
0000
,  // measure 29
0001
0000
0000
1000
0000
0000
0001
0000
1001
0000
0000
0000
0000
0000
0000
0000
,  // measure 30
1000
0001
1000
0001
0010
0100
1000
0100
,  // measure 31
0200
2300
3020
0032
,  // measure 32
0103
0010
0100
0010
0001
0010
0001
0010
,  // measure 33
0020
0230
2300
3020
,  // measure 34
1030
0001
0100
0010
1000
0000
1001
0000
,  // measure 35
1000
0100
0010
0001
0010
0000
0011
0000
,  // measure 36
0001
0100
0001
0000
0100
0010
0100
0000
,  // measure 37
0010
1000
0100
0010
0001
0100
0010
0000
,  // measure 38
1000
0010
0100
0010
1000
0100
0010
0001
,  // measure 39
0002
0023
2030
3200
,  // measure 40
0301
0100
1000
0010
1000
0010
0001
0010
,  // measure 41
0200
0302
0023
2030
,  // measure 42
3001
0001
0010
0100
1000
0000
1001
0000
,  // measure 43
1000
0100
0010
0001
1000
0000
1010
0000
,  // measure 44
1000
0010
0100
0000
0001
0010
1000
0000
,  // measure 45
0100
0001
0010
1000
0100
0010
0001
0010
,  // measure 46
0020
0000
0000
0000
,  // measure 47
0032
0000
0000
0000
,  // measure 48
2003
0000
0000
0000
,  // measure 49
3000
0000
0000
0000
;

//---------------dance-single - Chewi----------------
#NOTES:
     dance-single:
     Chewi:
     Medium:
     6:
     0.288,0.289,0.000,0.077,0.005: // measure 1
0000
0000
0000
0000
,  // measure 2
0000
0000
0000
0000
,  // measure 3
0000
0000
0000
0000
,  // measure 4
0000
0000
0000
0000
,  // measure 5
2000
3100
0002
0103
,  // measure 6
0100
0010
1000
0001
,  // measure 7
2000
3100
0002
0013
,  // measure 8
1000
0010
0100
0001
,  // measure 9
1000
0001
1000
0000
0001
0000
1000
0000
,  // measure 10
0100
0010
0100
0000
0010
0000
0100
0000
,  // measure 11
0010
0001
0100
1000
,  // measure 12
0010
0100
0010
0100
,  // measure 13
0010
0010
0010
0010
,  // measure 14
1000
0100
1000
0000
0001
0100
0001
0000
,  // measure 15
0100
0100
0100
0100
,  // measure 16
0010
1000
0010
0000
1000
0100
1000
0000
,  // measure 17
0100
0100
0100
0100
,  // measure 18
0010
0001
0010
0000
0001
0100
0001
0000
,  // measure 19
0100
0100
0100
0100
,  // measure 20
0010
0100
0010
0000
0100
0010
0100
0000
,  // measure 21
0010
1000
0100
0001
,  // measure 22
0010
1000
0100
0001
,  // measure 23
0010
0001
0100
1000
,  // measure 24
0010
0001
0100
1000
,  // measure 25
0010
0100
0001
0010
,  // measure 26
0100
1000
0010
1000
,  // measure 27
0100
0010
0001
1000
,  // measure 28
0010
0100
0001
1000
,  // measure 29
1000
0000
0000
0001
0000
0000
1000
0000
0001
0000
0000
0000
0000
0000
0000
0000
,  // measure 30
0001
0000
0001
0100
0010
0000
0000
0000
,  // measure 31
1000
0100
0010
0001
,  // measure 32
1000
0000
1000
0100
0010
0000
0000
0000
,  // measure 33
0100
1000
0010
0100
,  // measure 34
0001
0100
0010
1000
,  // measure 35
0001
0010
0100
1000
,  // measure 36
0001
0010
1000
0010
,  // measure 37
0001
0100
1000
0100
,  // measure 38
1000
0000
0010
0001
0010
0000
0000
0000
,  // measure 39
0001
0100
0010
1000
,  // measure 40
0001
0000
1000
0100
1000
0000
0000
0000
,  // measure 41
1000
1000
0001
0001
,  // measure 42
1000
0100
0010
0001
,  // measure 43
1000
0100
0001
0100
,  // measure 44
0010
0100
0001
1000
,  // measure 45
0100
0010
0001
0010
,  // measure 46
0200
0000
0000
0000
,  // measure 47
0320
0000
0000
0000
,  // measure 48
0032
0000
0000
0000
,  // measure 49
0003
0000
0000
0000
;

//---------------dance-single - Chewi----------------
#NOTES:
     dance-single:
     Chewi:
     Beginner:
     1:
     0.066,0.126,0.033,0.000,0.000: // measure 1
0000
0000
0000
0000
,  // measure 2
0000
0000
0000
0000
,  // measure 3
0000
0000
0000
0000
,  // measure 4
0000
0000
0000
0000
,  // measure 5
1000
0000
0000
0000
,  // measure 6
0100
0000
0000
0000
,  // measure 7
0001
0000
0000
0000
,  // measure 8
0100
0000
0000
0000
,  // measure 9
0001
0000
0000
0000
,  // measure 10
0001
0000
0000
0000
,  // measure 11
0010
0000
0000
0000
,  // measure 12
0010
0000
0000
0000
,  // measure 13
0100
0000
0000
0000
,  // measure 14
0000
0000
0000
0000
,  // measure 15
0010
0000
0000
0000
,  // measure 16
0000
0000
0000
0000
,  // measure 17
1000
0000
0000
0000
,  // measure 18
0000
0000
0000
0000
,  // measure 19
0001
0000
0000
0000
,  // measure 20
0000
0000
0000
0000
,  // measure 21
1000
0000
0000
0000
,  // measure 22
1000
0000
0000
0000
,  // measure 23
0001
0000
0000
0000
,  // measure 24
0001
0000
0000
0000
,  // measure 25
0100
0000
0000
0000
,  // measure 26
0100
0000
0000
0000
,  // measure 27
0010
0000
0000
0000
,  // measure 28
0010
0000
0000
0000
,  // measure 29
0110
0000
0000
0000
,  // measure 30
0010
0000
0000
0000
,  // measure 31
1000
0000
0000
0000
,  // measure 32
0100
0000
0000
0000
,  // measure 33
0001
0000
0000
0000
,  // measure 34
0010
0000
0000
0000
,  // measure 35
0001
0000
0000
0000
,  // measure 36
0100
0000
0000
0000
,  // measure 37
1000
0000
0000
0000
,  // measure 38
0010
0000
0000
0000
,  // measure 39
0010
0000
0000
0000
,  // measure 40
0100
0000
0000
0000
,  // measure 41
0100
0000
0000
0000
,  // measure 42
0001
0000
0000
0000
,  // measure 43
1001
0000
0000
0000
,  // measure 44
1000
0000
0000
0000
,  // measure 45
1001
0000
0000
0000
,  // measure 46
1000
0000
0000
0000
,  // measure 47
0001
0000
0000
0000
;

//---------------dance-single - Chewi----------------
#NOTES:
     dance-single:
     Chewi:
     Easy:
     3:
     0.122,0.180,0.033,0.088,0.000: // measure 1
0000
0000
0000
0000
,  // measure 2
0000
0000
0000
0000
,  // measure 3
0000
0000
0000
0000
,  // measure 4
0000
0000
0000
0000
,  // measure 5
2000
0000
0000
3000
,  // measure 6
1000
0000
0000
0000
,  // measure 7
0002
0000
0000
0003
,  // measure 8
0001
0000
0000
0000
,  // measure 9
0001
0000
1000
0000
,  // measure 10
0001
0000
1000
0000
,  // measure 11
0010
0000
0100
0000
,  // measure 12
0010
0000
0100
0000
,  // measure 13
0200
0000
0000
0000
,  // measure 14
0000
0000
0000
0000
,  // measure 15
0320
0000
0000
0000
,  // measure 16
0000
0000
0000
0000
,  // measure 17
2030
0000
0000
0000
,  // measure 18
0000
0000
0000
0000
,  // measure 19
3002
0000
0000
0000
,  // measure 20
0000
0000
0000
0000
,  // measure 21
1003
0000
1000
0000
,  // measure 22
1000
1000
0000
0000
,  // measure 23
0001
0000
0001
0000
,  // measure 24
0001
0001
0000
0000
,  // measure 25
0100
0000
0100
0000
,  // measure 26
0100
0100
0000
0000
,  // measure 27
0010
0000
0010
0000
,  // measure 28
0010
0010
0000
0000
,  // measure 29
0110
0000
0000
0000
,  // measure 30
0010
0000
0010
0000
,  // measure 31
1000
0000
1000
0000
,  // measure 32
0100
0000
0100
0000
,  // measure 33
0001
0000
0001
0000
,  // measure 34
0010
0000
0010
0000
,  // measure 35
0001
0000
0001
0000
,  // measure 36
0100
0000
0100
0000
,  // measure 37
1000
0000
1000
0000
,  // measure 38
0010
0000
0010
0000
,  // measure 39
0010
0010
0000
0000
,  // measure 40
0100
0000
0100
0000
,  // measure 41
0100
0100
0000
0000
,  // measure 42
0001
0000
0001
0000
,  // measure 43
1001
1000
0000
0000
,  // measure 44
1000
0000
1000
0000
,  // measure 45
1001
0001
0000
0000
,  // measure 46
2000
0000
0000
0000
,  // measure 47
3002
0000
0000
0000
,  // measure 48
0003
0000
0000
0000
;
