#VERSION:0.82;
#TITLE:Baby I;
#SUBTITLE:;
#ARTIST:Ariana Grande;
#TITLETRANSLIT:;
#SUBTITLETRANSLIT:;
#ARTISTTRANSLIT:;
#GENRE:Pop-R&B;
#ORIGIN:;
#CREDIT:chewi;
#BANNER:Baby I.png;
#BACKGROUND:Baby I-bg.png;
#PREVIEWVID:;
#JACKET:Baby I-jacket.png;
#CDIMAGE:;
#DISCIMAGE:;
#LYRICSPATH:;
#CDTITLE:cdtitle.png;
#MUSIC:Baby I.ogg;
#OFFSET:-0.144000;
#SAMPLESTART:42.495998;
#SAMPLELENGTH:15.000000;
#SELECTABLE:YES;
#BPMS:0.000=102.000;
#STOPS:;
#DELAYS:;
#WARPS:;
#TIMESIGNATURES:0.000=4=4;
#TICKCOUNTS:0.000=4;
#COMBOS:0.000=1;
#SPEEDS:0.000=1.000=0.000=0;
#SCROLLS:0.000=1.000;
#FAKES:;
#LABELS:0.000=Song Start;
#BGCHANGES:-0.144=Baby I.avi=1.000=1=0=0=StretchNoLoop==CrossFade==,
99999=-nosongbg-=1.000=0=0=0 // don't automatically add -songbackground-
;
#KEYSOUNDS:;
#ATTACKS:
;

//---------------dance-single - ----------------
#NOTEDATA:;
#CHARTNAME:;
#STEPSTYPE:dance-single;
#DESCRIPTION:;
#CHARTSTYLE:;
#DIFFICULTY:Beginner;
#METER:1;
#RADARVALUES:0.069276,0.061167,0.044084,0.044084,0.000000,36.000000,4.000000,4.000000,0.000000,0.000000,0.000000,0.000000,0.000000,0.069276,0.061167,0.044084,0.044084,0.000000,36.000000,4.000000,4.000000,0.000000,0.000000,0.000000,0.000000,0.000000;
#CREDIT:;
#NOTES:
// measure 0
0000
0000
0000
0000
,  // measure 1
0000
0000
0000
0000
,  // measure 2
0010
0000
0000
0000
,  // measure 3
0010
0000
0000
0000
,  // measure 4
1000
0000
0000
0000
,  // measure 5
1000
0000
0000
0000
,  // measure 6
0010
0000
0000
0000
,  // measure 7
0010
0000
0000
0000
,  // measure 8
0001
0000
0000
0000
,  // measure 9
0001
0000
0000
0000
,  // measure 10
2000
0000
0000
3000
,  // measure 11
1000
0000
0000
0000
,  // measure 12
0002
0000
0000
0003
,  // measure 13
0001
0000
0000
0000
,  // measure 14
0002
0000
0000
0003
,  // measure 15
0001
0000
0000
0000
,  // measure 16
2000
0000
0000
3000
,  // measure 17
1000
0000
0000
0000
,  // measure 18
1001
0000
0000
0000
,  // measure 19
0000
0000
0100
0000
,  // measure 20
0110
0000
0000
0000
,  // measure 21
0000
0000
0010
0000
,  // measure 22
0110
0000
0000
0000
,  // measure 23
0000
0000
0000
1000
,  // measure 24
1001
0000
0000
0000
,  // measure 25
0001
0000
0000
0000
,  // measure 26
1000
0000
0000
0000
,  // measure 27
0001
0000
0000
0000
,  // measure 28
1000
0000
0000
0000
,  // measure 29
0010
0000
0000
0000
,  // measure 30
0010
0000
0000
0000
,  // measure 31
0001
0000
0000
0000
,  // measure 32
1000
0000
0000
0000
,  // measure 33
0100
0000
0000
0000
,  // measure 34
0100
0000
0000
0000
,  // measure 35
0010
0000
0000
0000
,  // measure 36
0010
0000
0000
0000
,  // measure 37
0010
0000
0000
0000
;

//---------------dance-single - ----------------
#NOTEDATA:;
#CHARTNAME:;
#STEPSTYPE:dance-single;
#DESCRIPTION:;
#CHARTSTYLE:;
#DIFFICULTY:Easy;
#METER:3;
#RADARVALUES:0.129104,0.163112,0.000000,0.066127,0.000000,76.000000,0.000000,6.000000,0.000000,0.000000,0.000000,0.000000,0.000000,0.129104,0.163112,0.000000,0.066127,0.000000,76.000000,0.000000,6.000000,0.000000,0.000000,0.000000,0.000000,0.000000;
#CREDIT:;
#NOTES:
// measure 0
0000
0000
0000
0000
,  // measure 1
0000
0000
0000
0000
,  // measure 2
1000
0000
0000
0000
,  // measure 3
0001
0000
0000
0000
,  // measure 4
1000
1000
1000
0000
,  // measure 5
0001
0001
0001
0000
,  // measure 6
0100
0000
0000
0000
,  // measure 7
0010
0000
0000
0000
,  // measure 8
0100
0100
0100
0000
,  // measure 9
0010
0010
0010
0000
,  // measure 10
0020
0000
0000
0030
,  // measure 11
2000
0000
0000
3000
,  // measure 12
0020
0000
0000
0030
,  // measure 13
1000
0010
1000
0000
,  // measure 14
0002
0000
0000
0003
,  // measure 15
0200
0000
0000
0300
,  // measure 16
0002
0000
0000
0003
,  // measure 17
0100
0001
0100
0000
,  // measure 18
0100
0000
0100
0000
,  // measure 19
0100
0000
0100
0100
,  // measure 20
0010
0000
0010
0000
,  // measure 21
0010
0000
0010
0010
,  // measure 22
1000
0000
0001
0000
,  // measure 23
1000
0000
0001
0000
,  // measure 24
0001
0001
0001
0001
,  // measure 25
0001
0000
0000
0000
,  // measure 26
1000
0000
0000
0000
,  // measure 27
0100
0000
0100
0000
,  // measure 28
0100
0000
0100
0100
,  // measure 29
0010
0000
0010
0000
,  // measure 30
0010
0000
0010
0010
,  // measure 31
1000
0000
0001
0000
,  // measure 32
1000
0000
0001
0000
,  // measure 33
0001
0001
0001
0001
,  // measure 34
0001
0001
0001
0001
,  // measure 35
1000
1000
1000
1000
,  // measure 36
1000
0000
0000
0000
,  // measure 37
0001
0000
0000
0000
;

//---------------dance-single - ----------------
#NOTEDATA:;
#CHARTNAME:;
#STEPSTYPE:dance-single;
#DESCRIPTION:;
#CHARTSTYLE:;
#DIFFICULTY:Medium;
#METER:6;
#RADARVALUES:0.228294,0.248388,0.000000,0.121232,0.071637,134.000000,0.000000,11.000000,0.000000,0.000000,0.000000,0.000000,0.000000,0.228294,0.248388,0.000000,0.121232,0.071637,134.000000,0.000000,11.000000,0.000000,0.000000,0.000000,0.000000,0.000000;
#CREDIT:;
#NOTES:
// measure 0
0000
0000
0000
0000
,  // measure 1
0000
0000
0000
0000
,  // measure 2
1000
0100
0000
0100
,  // measure 3
0010
0001
0000
0001
,  // measure 4
0010
0001
0100
0000
,  // measure 5
0010
1000
0200
0000
,  // measure 6
0310
0001
0000
0001
,  // measure 7
0010
1000
0000
1000
,  // measure 8
0010
0100
1000
0000
,  // measure 9
1000
0100
0020
0000
,  // measure 10
0031
0001
1000
1000
,  // measure 11
1000
0100
0010
0010
,  // measure 12
0100
1000
0001
0010
,  // measure 13
0100
0010
0200
0000
,  // measure 14
0310
0100
1000
1000
,  // measure 15
0001
0100
0010
0010
,  // measure 16
0100
0000
0000
0100
0000
0000
0100
0000
0000
0100
0000
0000
0000
0000
0000
0000
,  // measure 17
0010
0000
0000
0010
0000
0000
0000
0000
0010
0000
0000
0000
0000
0000
0000
0000
,  // measure 18
0010
1000
0010
0001
,  // measure 19
0010
0000
0000
0000
1000
0000
0000
0000
0001
0000
0000
0001
0000
0000
0001
0000
,  // measure 20
0000
1000
0100
0010
,  // measure 21
0001
1000
0100
0001
,  // measure 22
0100
0010
1000
0001
,  // measure 23
0010
0100
1000
0001
,  // measure 24
2000
3001
0002
1003
,  // measure 25
1000
0000
0000
1000
0000
0000
1000
0000
0000
1000
0000
0000
0000
0000
0000
0000
,  // measure 26
0001
0000
0000
0001
0000
0000
0001
0000
0000
0001
0000
0000
0000
0000
0000
0000
,  // measure 27
0100
0001
0100
1000
,  // measure 28
0100
0000
0000
0000
0001
0000
0000
0000
1000
0000
0000
1000
0000
0000
1000
0000
,  // measure 29
0000
0001
0010
0100
,  // measure 30
1000
0001
0010
1000
,  // measure 31
0010
0100
0001
1000
,  // measure 32
0100
0010
0001
1000
,  // measure 33
0002
1003
2000
3001
,  // measure 34
0002
1003
2000
3001
,  // measure 35
0020
0130
0200
0310
,  // measure 36
0010
0000
0000
0010
0000
0000
0010
0000
0000
0010
0000
0000
0000
0000
0000
0000
,  // measure 37
0100
0000
0000
0100
0000
0000
0100
0000
0000
0100
0000
0000
0000
0000
0000
0000
;

//---------------dance-single - ----------------
#NOTEDATA:;
#CHARTNAME:;
#STEPSTYPE:dance-single;
#DESCRIPTION:;
#CHARTSTYLE:;
#DIFFICULTY:Hard;
#METER:8;
#RADARVALUES:0.313314,0.289786,0.000000,0.121232,0.077148,188.000000,0.000000,11.000000,0.000000,0.000000,0.000000,0.000000,0.000000,0.313314,0.289786,0.000000,0.121232,0.077148,188.000000,0.000000,11.000000,0.000000,0.000000,0.000000,0.000000,0.000000;
#CREDIT:;
#NOTES:
// measure 0
0000
0000
0000
0000
,  // measure 1
0000
0000
0000
0000
,  // measure 2
1000
0000
0100
0000
0010
0001
0100
0000
,  // measure 3
0001
0000
0100
0000
0010
1000
0100
0000
,  // measure 4
0010
0100
0010
0100
0010
0100
0000
0100
,  // measure 5
0010
0100
0010
0100
0020
0000
0000
0000
,  // measure 6
0031
0000
0100
0000
0010
1000
0010
0000
,  // measure 7
1000
0000
0010
0000
0100
0001
0100
0000
,  // measure 8
0001
0100
0001
0100
0001
0100
0000
1000
,  // measure 9
0100
1000
0100
1000
0200
0000
0000
0000
,  // measure 10
0310
0000
0100
0000
1000
0001
0100
0000
,  // measure 11
0010
0000
0100
0000
0001
1000
0100
0000
,  // measure 12
1000
0001
0100
0000
0001
1000
0010
0000
,  // measure 13
0100
0010
0200
0000
,  // measure 14
0310
0000
1000
0000
0100
0010
0001
0000
,  // measure 15
0100
0000
0010
0000
0100
0001
1000
0000
,  // measure 16
1000
0000
0000
1000
0000
0000
0001
0000
0000
0001
0000
0000
0000
0000
0000
0000
,  // measure 17
0100
0000
0000
0100
0000
0000
0000
0000
0010
0000
0000
0010
0000
0000
0010
0000
,  // measure 18
0000
1000
0100
0010
0000
1000
0100
0010
,  // measure 19
0000
0000
1000
0000
0100
0000
0010
0000
0001
0000
0000
0001
0000
0000
0001
0000
,  // measure 20
0000
0001
0100
0010
0000
0001
0100
0010
,  // measure 21
0002
0203
0320
2030
,  // measure 22
3001
0000
1000
0000
0100
0010
0001
0000
,  // measure 23
1000
0000
0010
0000
0100
0001
0100
0000
,  // measure 24
0001
0100
1000
0000
1000
0100
0001
0000
,  // measure 25
0001
0000
0000
0001
0000
0000
1000
0000
0000
1000
0000
0000
0000
0000
0000
0000
,  // measure 26
1000
0000
0000
1000
0000
0000
0001
0000
0000
0001
0000
0000
0000
0000
0000
0000
,  // measure 27
0000
0001
0010
0100
0000
0001
0010
0100
,  // measure 28
0000
0000
0001
0000
0010
0000
0100
0000
1000
0000
0000
1000
0000
0000
1000
0000
,  // measure 29
0000
1000
0010
0100
0000
1000
0010
0100
,  // measure 30
2000
3020
0230
0302
,  // measure 31
1003
0000
0001
0000
0010
0100
1000
0000
,  // measure 32
0001
0000
0100
0000
0010
1000
0010
0000
,  // measure 33
1000
0010
0001
0000
0001
0010
1000
0000
,  // measure 34
1000
0100
0001
0000
0001
0100
1000
0000
,  // measure 35
1000
0100
0010
0001
1000
0100
0010
0001
,  // measure 36
0010
0000
0000
0010
0000
0000
0100
0000
0000
0100
0000
0000
0000
0000
0000
0000
,  // measure 37
0100
0000
0000
0100
0000
0000
0010
0000
0000
0010
0000
0000
0000
0000
0000
0000
;
