#TITLE:Baby Boy;
#SUBTITLE:;
#ARTIST:王心凌;
#TITLETRANSLIT:;
#SUBTITLETRANSLIT:;
#ARTISTTRANSLIT:Cyndi Wang;
#GENRE:C-Pop;
#CREDIT:chewi;
#BANNER:Baby Boy.png;
#BACKGROUND:Baby Boy-bg.png;
#LYRICSPATH:;
#CDTITLE:cdtitle.png;
#MUSIC:Baby Boy.ogg;
#OFFSET:-0.406000;
#SAMPLESTART:53.737000;
#SAMPLELENGTH:15.000000;
#SELECTABLE:YES;
#BPMS:0.000000=144.000000
;
#STOPS:
;
#BGCHANGES:0.000=Baby Boy.avi=1.000=1=0=0=StretchNoLoop==CrossFade==,
192.000=Baby Boy-bg.png=1.000=1=0=1===CrossFade==,
99999=-nosongbg-=1.000=0=0=0 // don't automatically add -songbackground-
;
#KEYSOUNDS:;
#ATTACKS:;

//---------------dance-single - ----------------
#NOTES:
     dance-single:
     :
     Beginner:
     1:
     0.097579,0.143800,0.047933,0.047933,0.000000,57.000000,53.000000,4.000000,4.000000,0.000000,0.000000,0.097579,0.143800,0.047933,0.047933,0.000000,57.000000,53.000000,4.000000,4.000000,0.000000,0.000000:
0000
0000
0000
0000
,
0000
0000
0000
0000
,
0000
0000
0000
0000
,
0000
0000
0000
0000
,
1000
0000
0000
0000
,
0001
0000
0000
0000
,
0100
0000
0000
0000
,
0100
0000
0000
0000
,
0110
0000
0000
0000
,
0010
0000
0000
0000
,
1000
0000
0000
0000
,
0001
0000
0000
0000
,
1001
0000
0000
0000
,
0001
0000
0000
0000
,
1000
0000
0000
0000
,
0010
0000
0000
0000
,
0110
0000
0000
0000
,
0100
0000
0000
0000
,
0001
0000
0000
0000
,
1000
0000
0000
0000
,
1001
0000
0000
0000
,
0001
0000
0000
0000
,
1000
0000
0000
0000
,
0100
0000
0000
0000
,
2000
0000
0000
3000
,
1000
0000
0000
0000
,
0002
0000
0000
0003
,
0001
0000
0000
0000
,
2000
0000
0000
3000
,
1000
0000
0000
0000
,
0002
0000
0000
0003
,
0001
0000
0000
0000
,
1000
0000
0000
0000
,
1000
0000
0000
0000
,
0010
0000
0010
0000
,
0100
0000
0100
0000
,
0001
0000
0000
0000
,
0001
0000
0000
0000
,
0010
0000
0010
0000
,
0100
0000
0100
0000
,
1000
0000
0000
0000
,
1000
1000
0000
0000
,
0001
0000
0000
0000
,
0001
0001
0000
0000
,
0100
0000
0000
0000
,
0100
0100
0000
0000
,
0010
0000
0000
0000
,
0010
0010
0000
0000
,
0010
0000
0000
0000
;

//---------------dance-single - ----------------
#NOTES:
     dance-single:
     :
     Easy:
     4:
     0.191734,0.256144,0.000000,0.095867,0.000000,112.000000,112.000000,0.000000,8.000000,0.000000,0.000000,0.191734,0.256144,0.000000,0.095867,0.000000,112.000000,112.000000,0.000000,8.000000,0.000000,0.000000:
0000
0000
0000
0000
,
0000
0000
0000
0000
,
0000
0000
0000
0000
,
0000
0000
0000
0000
,
1000
1000
0001
0001
,
0100
0100
0010
0010
,
0200
0000
0000
0000
,
0020
0000
0000
0330
,
0010
0000
0010
0000
,
0010
0010
0010
0000
,
0100
0000
0100
0000
,
0100
0100
0100
0000
,
0001
0000
0001
0000
,
0001
0001
0001
0000
,
1000
0000
1000
0000
,
1000
1000
1000
0000
,
0001
0000
1000
0000
,
0001
1000
0100
0000
,
1000
0000
0001
0000
,
1000
0001
0100
0000
,
0010
0000
0100
0000
,
0010
0100
0010
0000
,
0100
0000
0010
0000
,
1000
0001
1000
0000
,
0002
0000
0010
0000
,
1000
0000
0013
0000
,
0010
0010
0010
0000
,
0100
0100
0100
0000
,
2000
0000
0100
0000
,
0001
0000
3100
0000
,
0100
0100
0100
0000
,
0100
0010
0100
0000
,
1000
0100
1000
0100
,
1000
1000
0100
0000
,
0001
0100
1000
0000
,
0010
0001
0100
0000
,
1000
0010
1000
0010
,
1000
1000
0010
0000
,
0001
0010
1000
0000
,
0100
0001
0010
0000
,
2000
0000
0000
3000
,
1000
1000
0100
0000
,
0002
0000
0000
0003
,
0001
0001
0100
0000
,
2000
0000
0000
3000
,
1000
1000
0010
0000
,
0002
0000
0000
0003
,
0001
0001
0010
0000
;

//---------------dance-single - ----------------
#NOTES:
     dance-single:
     :
     Medium:
     7:
     0.308144,0.343323,0.179751,0.095867,0.000000,180.000000,165.000000,15.000000,8.000000,0.000000,0.000000,0.308144,0.343323,0.179751,0.095867,0.000000,180.000000,165.000000,15.000000,8.000000,0.000000,0.000000:
0000
0000
0000
0000
,
0000
0000
0000
0000
,
0000
0000
0000
0000
,
0000
0000
0000
0000
,
1000
1000
0010
0010
,
0100
0100
0001
0001
,
1000
0100
0010
0001
,
1001
0000
0000
0000
,
1000
0000
0000
1000
0000
0000
1000
0000
,
0001
0000
0000
0001
0000
0000
0001
0000
,
0100
0000
0000
0100
0000
0000
0100
0000
,
0010
0100
0001
1000
,
0001
0000
0000
0010
0000
0000
0001
0000
,
1000
0000
0000
0100
0000
0000
1000
0000
,
0001
0000
0000
0100
0000
0000
0001
0000
,
0100
0100
0010
0010
,
1000
0100
0010
0100
,
1000
0000
0001
0000
1000
1000
1000
0000
,
0001
0010
0100
0010
,
0001
0000
1000
0000
0001
0001
0001
0000
,
0100
0010
0100
0001
,
0100
0000
0001
0000
1000
0100
0010
0000
,
0100
1000
0010
0100
,
0101
0000
0000
0000
,
1001
0000
0000
1000
0000
0000
1000
0000
,
1001
0000
0000
0001
0000
0000
0001
0000
,
0110
0000
0000
0010
0000
0000
0010
0000
,
0110
0000
0000
0100
0000
0000
0100
0000
,
0010
0100
1000
0001
,
0100
0010
1000
0001
,
0100
0100
0010
0010
,
1010
0000
0000
0000
,
2100
0001
0100
3001
,
0102
0100
1000
0103
,
0100
0000
0010
0000
1000
0000
0001
1000
,
0000
1000
0001
0000
0010
0000
0010
0000
,
0120
0100
0001
0130
,
0120
0100
1000
0130
,
0100
0010
0100
1000
,
1000
0001
0000
0001
1000
0000
1000
0000
,
2001
0100
0010
3001
,
1002
0100
0010
1003
,
0001
0000
1000
0000
0100
0000
0010
0100
,
0000
0100
0010
0000
0001
0000
1000
0000
,
2001
0100
0001
3010
,
1002
0010
1000
0103
,
1000
0000
0010
0000
0100
0000
0001
0100
,
0000
0100
0001
0000
1000
0100
0010
0000
;

//---------------dance-single - ----------------
#NOTES:
     dance-single:
     :
     Hard:
     10:
     0.344094,0.400544,0.059917,0.000000,0.000000,201.000000,196.000000,5.000000,0.000000,0.000000,0.000000,0.344094,0.400544,0.059917,0.000000,0.000000,201.000000,196.000000,5.000000,0.000000,0.000000,0.000000:
// measure 0
0000
0000
0000
0000
,  // measure 1
0000
0000
0000
0000
,  // measure 2
0000
0000
0000
0000
,  // measure 3
0000
0000
0000
0000
,  // measure 4
1000
1000
0001
0001
,  // measure 5
0100
0100
0010
0010
,  // measure 6
0100
0010
1000
0001
,  // measure 7
0000
0000
0000
0000
,  // measure 8
1000
0000
1000
0100
0000
0100
1000
0000
,  // measure 9
0001
0000
0001
0100
0000
0100
0001
0000
,  // measure 10
0100
0000
0100
0010
0000
0010
0100
0000
,  // measure 11
0010
1000
0100
0001
,  // measure 12
0010
0000
1000
0100
0000
0100
1000
0000
,  // measure 13
0010
0000
0100
0001
0000
0001
0100
0000
,  // measure 14
0010
0000
1000
0001
0000
0001
1000
0000
,  // measure 15
0001
0010
0100
1000
,  // measure 16
0001
0010
0001
0000
0010
0000
0100
0000
,  // measure 17
1000
0100
1000
0000
0100
0000
1000
0000
,  // measure 18
0001
1000
0001
0000
1000
0000
0001
0000
,  // measure 19
0100
0010
0100
0000
0010
0000
0100
0000
,  // measure 20
0010
1000
0001
0000
1000
0000
0001
0000
,  // measure 21
0010
0001
1000
0000
0001
0000
1000
0000
,  // measure 22
0001
0100
0010
0000
1000
0100
0010
0000
,  // measure 23
0110
0000
0000
0000
,  // measure 24
1000
0000
0000
0001
0000
0000
0100
0000
,  // measure 25
0010
0000
0000
1000
0000
0000
0001
0000
,  // measure 26
0010
0000
0000
0100
0000
0000
1000
0000
,  // measure 27
0001
0010
0100
1000
,  // measure 28
0001
0001
1000
1000
,  // measure 29
0010
0010
0100
0100
,  // measure 30
0010
0100
0001
1000
,  // measure 31
0000
0000
0000
0000
,  // measure 32
1000
0000
0100
0100
0010
0010
0001
0000
,  // measure 33
0100
0100
0010
0010
1000
0000
1001
0000
,  // measure 34
1000
0100
0001
1000
,  // measure 35
0010
0000
0001
0000
0100
0100
0100
0000
,  // measure 36
0010
0000
0100
0100
0010
0010
1000
0000
,  // measure 37
0100
0100
0010
0010
0001
0000
1001
0000
,  // measure 38
0001
0010
1000
0001
,  // measure 39
0100
0000
1000
0000
0010
0010
0010
0000
,  // measure 40
0001
0000
0010
0010
0100
0100
1000
0000
,  // measure 41
0010
0010
0100
0100
0001
0000
1001
0000
,  // measure 42
0001
0010
1000
0001
,  // measure 43
0100
0000
1000
0000
0010
0010
0010
0000
,  // measure 44
0100
0000
0010
0010
0100
0100
0001
0000
,  // measure 45
0010
0010
0100
0100
1000
0000
1001
0000
,  // measure 46
1000
0100
0001
1000
,  // measure 47
0010
0000
0001
0000
0100
0100
0100
0000
;
