#TITLE:Baby Baby Baby (We Are Terrorists Remix);
#SUBTITLE:;
#ARTIST:Make The Girl Dance;
#TITLETRANSLIT:;
#SUBTITLETRANSLIT:;
#ARTISTTRANSLIT:;
#GENRE:;
#CREDIT:Chewphoria~;
#MENUCOLOR:;
#METERTYPE:DDR X;
#BANNER:Baby Baby Baby (We Are Terrorists Remix).png;
#BACKGROUND:Baby Baby Baby (We Are Terrorists Remix)-bg.png;
#LYRICSPATH:;
#CDTITLE:;
#MUSIC:Baby Baby Baby (We Are Terrorists Remix).mp3;
#OFFSET:-6.304;
#SAMPLESTART:55.428;
#SAMPLELENGTH:15.000;
#SELECTABLE:YES;
#LISTSORT:;
#DISPLAYBPM:127.000;
#BPMS:0.000=127.010;
#STOPS:;
#BGCHANGES:;
#ATTACKS:;

//---------------dance-single - Chewphoria~----------------
#NOTES:
     dance-single:
     Chewphoria~:
     Easy:
     6:
     0.243,0.329,0.179,0.047,0.000: // measure 1
1000
0010
0001
0100
,  // measure 2
1000
0000
0000
0000
,  // measure 3
1000
0100
0001
0010
,  // measure 4
1000
0000
0000
0000
,  // measure 5
0001
0010
1000
0100
,  // measure 6
0001
0000
0000
0000
,  // measure 7
1000
0100
0001
0010
,  // measure 8
1000
0000
0000
0000
,  // measure 9
1000
1001
0001
1000
,  // measure 10
0001
0000
0000
0000
,  // measure 11
0001
1001
1000
0001
,  // measure 12
1000
0000
0000
0000
,  // measure 13
0010
0110
0100
0010
,  // measure 14
0100
0000
0000
0000
,  // measure 15
0100
0110
0010
0100
,  // measure 16
0010
0000
0000
0000
,  // measure 17
1000
0100
0010
0001
,  // measure 18
0000
0000
0000
0000
,  // measure 19
0001
0010
0100
1000
,  // measure 20
1000
0000
0000
0000
,  // measure 21
1000
0001
0100
0010
,  // measure 22
1000
0000
0000
0000
,  // measure 23
1000
0001
0010
0100
,  // measure 24
1000
0000
0000
0000
,  // measure 25
2002
0000
0000
0000
,  // measure 26
0000
0000
0000
3003
,  // measure 27
1000
0010
0001
0010
,  // measure 28
1000
0010
0001
0010
,  // measure 29
1000
0100
0001
0100
,  // measure 30
1000
0100
0001
0010
,  // measure 31
1000
0010
0001
0010
,  // measure 32
1000
0010
0001
0100
,  // measure 33
1000
0100
0001
0100
,  // measure 34
1000
0100
0001
0010
,  // measure 35
1000
0100
0010
1000
,  // measure 36
0100
0010
1000
0100
,  // measure 37
0001
0010
0100
0001
,  // measure 38
0010
0100
0001
0010
,  // measure 39
1000
0100
0001
0100
,  // measure 40
1000
0100
0001
0010
,  // measure 41
1000
0010
0001
0010
,  // measure 42
1000
0010
0001
0100
,  // measure 43
1000
1001
0001
1001
,  // measure 44
1000
1001
0002
0103
,  // measure 45
1000
1001
0001
1001
,  // measure 46
1000
1001
2000
3100
,  // measure 47
0010
0110
0100
0110
,  // measure 48
0010
0110
0020
0031
,  // measure 49
0100
0110
0010
0110
,  // measure 50
0100
0110
0010
0110
,  // measure 51
1001
0000
0000
0000
;

//---------------dance-single - Chewphoria~----------------
#NOTES:
     dance-single:
     Chewphoria~:
     Medium:
     9:
     0.353,0.400,0.056,0.019,0.310: // measure 1
0000
1000
0001
1000
0000
0010
0010
0010
,  // measure 2
0010
0000
0000
0000
,  // measure 3
0000
0001
1000
0001
0000
0100
0100
0100
,  // measure 4
0100
0000
0000
0000
,  // measure 5
0000
0010
0100
0010
0100
0000
1000
1000
,  // measure 6
0000
0000
0000
0000
,  // measure 7
0000
0100
0010
0100
0010
0000
0001
0001
,  // measure 8
0000
0000
0000
0000
,  // measure 9
0001
0000
0000
0100
0001
0000
0000
0000
1000
0000
0001
0000
1000
0000
0010
0000
,  // measure 10
1000
0000
0000
0000
,  // measure 11
0001
0000
0000
1000
0001
0000
0000
0000
1000
0000
0100
0000
1000
0000
0100
0000
,  // measure 12
1000
0000
0000
0000
,  // measure 13
1000
0000
0000
0001
1000
0000
0000
0000
0010
0000
1000
0000
0001
0000
0010
0000
,  // measure 14
0100
0000
0000
0000
,  // measure 15
0001
0000
0000
1000
0001
0000
0000
0000
0100
0000
0010
0000
1000
0000
0100
0000
,  // measure 16
0010
0000
0000
0000
,  // measure 17
0001
0000
0000
0010
0001
0000
0000
0000
0010
0000
0010
0000
0010
0000
0000
0000
,  // measure 18
0100
0000
0000
1000
0100
0000
0000
0000
0100
0000
0100
0000
0100
0000
0000
0000
,  // measure 19
1000
0000
0000
0001
1000
0000
0000
0000
0001
0000
0001
0000
0001
0000
0000
0000
,  // measure 20
0001
0000
0000
1000
0001
0000
0000
0000
1000
0000
1000
0000
1000
0000
0000
0000
,  // measure 21
0010
0000
0110
0000
0100
0001
0100
0000
,  // measure 22
0010
0000
0110
0000
0010
1000
0010
0000
,  // measure 23
1000
0000
1100
0000
0010
0001
0010
0000
,  // measure 24
0001
0000
0101
0000
0010
1000
0010
0000
,  // measure 25
2002
0000
0000
0000
,  // measure 26
0000
0000
0000
3003
,  // measure 27
1000
0000
0000
1000
0010
0000
0000
0000
0001
0000
0000
0001
0010
0000
0000
0000
,  // measure 28
1000
0000
0000
1000
0100
0000
0000
0000
0001
0000
0000
0001
0100
0000
0000
0000
,  // measure 29
1000
0000
0000
1000
0001
0000
0000
0000
0001
0000
0000
0001
1000
0000
0000
0000
,  // measure 30
0010
0000
0000
0010
0100
0000
0000
0000
0100
0000
0000
0100
0010
0000
0000
0000
,  // measure 31
1000
0000
0000
1000
0001
0000
0000
0000
0001
0000
0000
0001
1000
0000
0000
0000
,  // measure 32
1000
0000
0000
1000
0100
0000
0000
0000
0100
0000
0000
0100
0001
0000
0000
0000
,  // measure 33
0001
0000
0000
0001
0010
0000
0000
0000
0010
0000
0000
0010
1000
0000
0000
0000
,  // measure 34
1000
0000
0000
1000
0001
0000
0000
0001
1000
0000
0000
1000
0001
0000
0000
0000
,  // measure 35
1000
0000
0000
1000
0100
0000
0000
0000
0001
0000
0000
0001
0100
0000
0000
0000
,  // measure 36
0010
0000
0000
0010
0100
0000
0000
0000
0100
0000
0000
0100
0010
0000
0000
0000
,  // measure 37
1000
0000
0000
1000
0001
0000
0000
0000
0001
0000
0000
0001
1000
0000
0000
0000
,  // measure 38
1000
0000
0000
1000
0100
0000
0000
0000
0001
0000
0000
0001
0100
0000
0000
0000
,  // measure 39
0010
0000
0000
0010
1000
0000
0000
0000
0010
0000
0000
0010
0001
0000
0000
0000
,  // measure 40
0001
0000
0000
0001
1000
0000
0000
0000
1000
0000
0000
1000
0001
0000
0000
0000
,  // measure 41
0100
0000
0000
0010
0100
0000
0000
0000
0100
0000
0000
0010
0100
0000
0000
0000
,  // measure 42
1000
0000
0000
0001
1000
0000
0000
0000
1000
0000
0000
0001
1000
0000
0000
0000
,  // measure 43
1000
0000
0000
1000
0100
0000
0000
0100
0010
0000
0000
0010
0001
0000
0000
0001
,  // measure 44
0100
0000
0000
0100
0010
0000
0000
0010
1000
0000
0000
0000
0000
0000
0000
0000
,  // measure 45
1000
0000
0000
1000
0010
0000
0000
0010
0100
0000
0000
0100
0001
0000
0000
0001
,  // measure 46
0010
0000
0000
0010
0100
0000
0000
0100
1000
0000
0000
0000
0000
0000
0000
0000
,  // measure 47
1000
0000
0000
1000
0100
0000
0000
0100
0010
0000
0000
0010
0001
0000
0000
0001
,  // measure 48
0100
0000
0000
0100
0010
0000
0000
0010
1000
0000
0000
0000
0000
0000
0000
0000
,  // measure 49
1000
0000
0000
1000
0010
0000
0000
0010
0100
0000
0000
0100
0001
0000
0000
0001
,  // measure 50
0010
0000
0000
0010
0100
0000
0000
0100
1000
0000
0000
1000
0001
0000
0000
0000
,  // measure 51
1001
0000
0000
0000
;

//---------------dance-single - Chewphoria~----------------
#NOTES:
     dance-single:
     Chewphoria~:
     Hard:
     12:
     0.451,0.400,0.141,0.019,0.480: // measure 1
0000
1000
0010
1000
0000
0001
0100
0001
,  // measure 2
0001
0000
0000
0000
,  // measure 3
0000
0001
0010
0001
0000
1000
0100
1000
,  // measure 4
0100
0000
0000
0000
,  // measure 5
0000
1000
0001
1000
0001
0010
0100
1000
,  // measure 6
0000
0000
0000
0000
,  // measure 7
0000
1000
0001
1000
0001
1000
0010
0100
,  // measure 8
0001
0000
0000
0000
,  // measure 9
0001
0000
0000
0001
0100
0000
0000
0000
0010
0000
1000
0000
0001
0000
0010
0000
,  // measure 10
0100
1000
1001
0000
1000
0000
1010
0000
,  // measure 11
1000
0000
0000
0001
1000
0000
0010
0000
0100
0000
0001
0000
0010
0000
0100
0000
,  // measure 12
1000
1100
0001
0011
,  // measure 13
1000
0000
0000
0010
1000
0000
0001
0000
0100
0000
0010
0000
1000
0000
0001
0000
,  // measure 14
0010
0011
1000
1100
,  // measure 15
0001
0000
0000
1000
0001
0000
0010
0000
0100
0000
1000
0000
0010
0000
0100
0000
,  // measure 16
0001
0101
1000
1010
,  // measure 17
1000
0000
0000
0001
1000
0000
0010
0000
0100
0000
0001
0000
0010
0000
0100
0000
,  // measure 18
1000
1100
0101
1100
,  // measure 19
0001
0000
0000
0100
0001
0000
0010
0000
0100
0000
1000
0000
0010
0000
0100
0000
,  // measure 20
0001
0000
1001
0000
1000
0001
1000
0001
,  // measure 21
1000
0000
0000
0010
1000
0000
0000
0000
0001
0000
0100
0000
0001
0000
0010
0000
,  // measure 22
0100
0000
1100
0000
1000
0001
1000
0000
,  // measure 23
0010
0000
0000
1000
0010
0000
0000
0000
1000
0000
0010
0000
1000
0000
0001
0000
,  // measure 24
1000
0100
1000
0000
0001
0000
1000
0000
,  // measure 25
2002
0000
0000
0000
,  // measure 26
0000
0000
0000
3003
,  // measure 27
1000
0000
0000
1000
0010
0000
0000
0010
0100
0000
0000
0100
0001
0000
0000
0001
,  // measure 28
0010
0000
0000
0010
0100
0000
0000
0100
1000
0000
0000
1000
0001
0000
0000
0001
,  // measure 29
1000
0000
0000
1000
0010
0000
0000
0010
0100
0000
0000
0100
0001
0000
0000
0001
,  // measure 30
0010
0000
0000
0010
0100
0000
0000
0100
1000
0000
0000
1000
0001
0000
0000
0001
,  // measure 31
0010
0000
0000
0010
0100
0000
0000
0100
1000
0000
0000
1000
0010
0000
0000
0010
,  // measure 32
0100
0000
0000
0100
0001
0000
0000
0001
1000
0000
0000
1000
0100
0000
0000
0100
,  // measure 33
1000
0000
0000
1000
0010
0000
0000
0010
0100
0000
0000
0100
0001
0000
0000
0001
,  // measure 34
1000
0000
0000
1000
0100
0000
0000
0100
0010
0000
0000
0010
0001
0000
0000
0001
,  // measure 35
0010
0000
0000
0010
1000
0000
0000
1000
0100
0000
0000
0100
0001
0000
0000
0001
,  // measure 36
0100
0000
0000
0100
1000
0000
0000
1000
0010
0000
0000
0010
0001
0000
0000
0001
,  // measure 37
0100
0000
0000
0100
1000
0000
0000
1000
0010
0000
0000
0010
1000
0000
0000
1000
,  // measure 38
0100
0000
0000
0100
0001
0000
0000
0001
0100
0000
0000
0100
0001
0000
0000
0000
,  // measure 39
0001
0000
0000
0001
1000
0000
0000
1000
0001
0000
0000
0001
1000
0000
0000
1000
,  // measure 40
0001
0000
0000
0001
1000
0000
0000
1000
0001
0000
0000
0001
1000
0000
0000
1000
,  // measure 41
0010
0000
0000
0010
0100
0000
0000
0100
0010
0000
0000
0010
0100
0000
0000
0100
,  // measure 42
0010
0000
0000
0010
0100
0000
0000
0100
0010
0000
0000
0010
0100
0000
0000
0010
,  // measure 43
1000
0000
0000
0010
1000
0000
0000
0001
0100
0000
0000
0001
0100
0000
0000
0001
,  // measure 44
1000
0000
0000
0001
1000
0000
0000
0100
1000
0000
0000
0100
1000
0000
0000
0010
,  // measure 45
1000
0000
0000
0010
1000
0000
0000
0001
1000
0000
0000
0001
1000
0000
0000
0001
,  // measure 46
0010
0000
0000
0001
0010
0000
0000
0100
1000
0000
0000
0100
1000
0000
0000
0010
,  // measure 47
0100
0000
0000
0010
0100
0000
0000
0001
1000
0000
0000
0001
1000
0000
0000
0010
,  // measure 48
1000
0000
0000
0010
1000
0000
0000
0100
1000
0000
0000
0100
1000
0000
0000
0001
,  // measure 49
1000
0000
0000
0001
1000
0000
0000
0010
1000
0000
0000
0010
1000
0000
0000
0100
,  // measure 50
0001
0000
0000
0100
0001
0000
0000
0010
1000
0000
0000
0010
1000
0000
0000
0000
,  // measure 51
1001
0000
0000
0000
;

//---------------dance-single - Chewphoria~----------------
#NOTES:
     dance-single:
     Chewphoria~:
     Beginner:
     3:
     0.165,0.165,0.160,0.056,0.000: // measure 1
1000
1000
1000
1000
,  // measure 2
1000
0000
0000
0000
,  // measure 3
0001
0001
0001
0001
,  // measure 4
0001
0000
0000
0000
,  // measure 5
0010
0010
0010
0010
,  // measure 6
0010
0000
0000
0000
,  // measure 7
0100
0100
0100
0100
,  // measure 8
0100
0000
0000
0000
,  // measure 9
1000
0000
0001
0000
,  // measure 10
1001
0000
1001
0000
,  // measure 11
0001
0000
1000
0000
,  // measure 12
1001
0000
1001
0000
,  // measure 13
0010
0000
0100
0000
,  // measure 14
0110
0000
0110
0000
,  // measure 15
0100
0000
0010
0000
,  // measure 16
0110
0000
0110
0000
,  // measure 17
1000
0000
0001
0001
,  // measure 18
0000
0100
0000
0010
,  // measure 19
0000
1000
0000
0001
,  // measure 20
0001
0000
1000
0000
,  // measure 21
0100
0000
0010
0000
,  // measure 22
0001
0001
0000
0100
,  // measure 23
0000
0010
0000
1000
,  // measure 24
1000
0000
0001
0000
,  // measure 25
2002
0000
0000
0000
,  // measure 26
0000
0000
0000
3003
,  // measure 27
1000
0000
1000
0000
,  // measure 28
1001
0000
1001
0000
,  // measure 29
0001
0000
0001
0000
,  // measure 30
1001
0000
1001
0000
,  // measure 31
0010
0000
0010
0000
,  // measure 32
0110
0000
0110
0000
,  // measure 33
0100
0000
0100
0000
,  // measure 34
0110
0000
0110
0000
,  // measure 35
1000
0000
0100
0000
,  // measure 36
0001
0000
0010
0000
,  // measure 37
0001
0000
0100
0000
,  // measure 38
1000
0000
0010
0000
,  // measure 39
0001
0000
0010
0000
,  // measure 40
1000
0000
0100
0000
,  // measure 41
1000
0000
0010
0000
,  // measure 42
0001
0000
0100
0000
,  // measure 43
0002
0000
0000
0000
,  // measure 44
0000
0003
0001
0001
,  // measure 45
2000
0000
0000
0000
,  // measure 46
0000
3000
1000
1000
,  // measure 47
0002
0000
0000
0000
,  // measure 48
0000
0003
0001
0001
,  // measure 49
2000
0000
0000
0000
,  // measure 50
0000
3000
0001
0001
,  // measure 51
0001
0000
0000
0000
;
