#VERSION:0.83;
#TITLE:BUY MY LOVE;
#SUBTITLE:;
#ARTIST:Wynter Gordon;
#TITLETRANSLIT:;
#SUBTITLETRANSLIT:;
#ARTISTTRANSLIT:;
#GENRE:;
#ORIGIN:;
#CREDIT:chewi;
#BANNER:BUY MY LOVE.png;
#BACKGROUND:BUY MY LOVE-bg.png;
#PREVIEWVID:;
#JACKET:BUY MY LOVE-jacket.png;
#CDIMAGE:;
#DISCIMAGE:;
#LYRICSPATH:;
#CDTITLE:cdtitle.png;
#MUSIC:BUY MY LOVE.ogg;
#OFFSET:0.000000;
#SAMPLESTART:44.889000;
#SAMPLELENGTH:12.000000;
#SELECTABLE:YES;
#DISPLAYBPM:127.000000;
#BPMS:0.000=126.980;
#STOPS:;
#DELAYS:;
#WARPS:;
#TIMESIGNATURES:0.000=4=4;
#TICKCOUNTS:0.000=4;
#COMBOS:0.000=1;
#SPEEDS:0.000=1.000=0.000=0;
#SCROLLS:0.000=1.000;
#FAKES:;
#LABELS:0.000=Song Start;
#BGCHANGES:-0.211=BUY MY LOVE.avi=1.000=1=0=1===CrossFade==,
99999=-nosongbg-=1.000=0=0=0 // don't automatically add -songbackground-
;
#KEYSOUNDS:;
#ATTACKS:
;

//---------------dance-single - chewi----------------
#NOTEDATA:;
#CHARTNAME:;
#STEPSTYPE:dance-single;
#DESCRIPTION:chewi;
#CHARTSTYLE:;
#DIFFICULTY:Hard;
#METER:10;
#RADARVALUES:0.440390,0.452919,0.299071,0.069016,0.166789,268.000000,242.000000,26.000000,6.000000,0.000000,0.000000,0.000000,0.000000,0.000000,0.440390,0.452919,0.299071,0.069016,0.166789,268.000000,242.000000,26.000000,6.000000,0.000000,0.000000,0.000000,0.000000,0.000000;
#CREDIT:chewi;
#NOTES:
// measure 0
0000
0000
0000
0000
,  // measure 1
0000
0000
0000
0000
,  // measure 2
0000
0000
0000
0000
,  // measure 3
0000
0000
0000
0000
,  // measure 4
1000
0000
0001
0000
0100
0000
0001
1000
0000
0000
0100
0000
0000
0100
0000
0000
,  // measure 5
0010
0000
0001
0000
1000
0000
0010
0100
0000
0000
0001
0000
0000
0001
0000
0000
,  // measure 6
0001
0000
1000
0000
0010
0000
1000
0001
0000
0000
0010
0000
0000
0010
0000
0000
,  // measure 7
0100
0000
1000
0000
0001
0000
0100
0010
0000
0000
1000
0000
1000
0000
0000
0000
,  // measure 8
1000
0000
0001
0000
1000
0100
0001
0000
,  // measure 9
0100
1000
0010
0100
0000
0001
1000
0000
,  // measure 10
0001
0000
1000
0000
0001
0010
1000
0000
,  // measure 11
0010
0001
0100
0010
0000
1000
0001
0000
,  // measure 12
1100
0000
0010
0000
0001
0100
0001
0000
,  // measure 13
0110
0000
0001
0000
1000
0100
1000
0100
,  // measure 14
0011
0000
0100
0000
1000
0010
1000
0000
,  // measure 15
0110
0000
1000
0000
0001
0010
0001
0010
,  // measure 16
0001
0000
0001
0000
0010
0000
0010
0000
0001
0100
0000
0001
0000
0100
0000
0000
,  // measure 17
0010
0000
1000
0000
0001
0000
1000
0000
0100
0010
0000
0010
0000
0010
0000
0000
,  // measure 18
0100
0000
1000
0000
0100
0000
1000
0001
0000
0010
0000
0001
0000
0000
0100
0000
,  // measure 19
0100
0001
1000
0001
0010
0001
1001
0000
,  // measure 20
1000
0000
1000
0000
0100
0000
0100
0000
1000
0010
0000
1000
0000
0010
0000
0000
,  // measure 21
0100
0000
0001
0000
1000
0000
0001
0000
0010
0100
0000
0100
0000
0100
0000
0000
,  // measure 22
0010
0001
0010
0001
1000
0100
1000
0100
,  // measure 23
0010
0001
0100
0010
1000
0001
1001
0000
,  // measure 24
0011
1000
0010
0000
1010
0001
0010
0010
,  // measure 25
0200
0000
1300
1000
0200
0000
0302
0000
,  // measure 26
0013
1000
0100
0000
0010
0001
0100
0000
,  // measure 27
1100
0101
1100
0101
,  // measure 28
1001
0000
0000
0010
0010
0000
0000
0000
,  // measure 29
0110
0000
0000
1000
1000
0000
0000
0000
,  // measure 30
0001
0010
0001
0010
0100
1000
0100
1000
,  // measure 31
0001
0010
0011
0000
1000
0010
1010
0000
,  // measure 32
1100
0001
0100
0000
0101
1000
0100
0100
,  // measure 33
0020
0000
0031
0001
0020
0000
2030
0000
,  // measure 34
3100
0001
0010
0000
0100
1000
0010
0000
,  // measure 35
0011
1010
0011
1010
,  // measure 36
1001
0000
0000
0100
0100
0000
0000
0000
,  // measure 37
0110
0000
0000
0001
0001
0000
0000
0000
,  // measure 38
1000
0100
1000
0100
0010
0001
0010
0001
,  // measure 39
1000
0100
1100
0000
0001
0100
0101
0000
,  // measure 40
1000
0000
0000
0000
0001
0000
1000
0100
0000
0000
0100
0000
0000
0100
0000
0000
,  // measure 41
0010
0000
0000
0000
0001
0000
1000
0001
0000
0000
0001
0000
0000
0001
0000
0000
,  // measure 42
0001
0000
0000
0000
1000
0000
0001
0010
0000
0000
0010
0000
0000
0010
0000
0000
,  // measure 43
0100
0000
0000
0000
1000
0000
0001
1000
0000
0000
1000
0000
0001
0000
0000
0000
;

//---------------dance-single - ----------------
#NOTEDATA:;
#CHARTNAME:;
#STEPSTYPE:dance-single;
#DESCRIPTION:;
#CHARTSTYLE:;
#DIFFICULTY:Medium;
#METER:8;
#RADARVALUES:0.330292,0.352271,0.241557,0.425600,0.069016,201.000000,180.000000,21.000000,37.000000,0.000000,0.000000,0.000000,0.000000,0.000000,0.330292,0.352271,0.241557,0.425600,0.069016,201.000000,180.000000,21.000000,37.000000,0.000000,0.000000,0.000000,0.000000,0.000000;
#CREDIT:chewi;
#NOTES:
// measure 0
0000
0000
0000
0000
,  // measure 1
0000
0000
0000
0000
,  // measure 2
0000
0000
0000
0000
,  // measure 3
0000
0000
0000
0000
,  // measure 4
1000
0000
0000
0000
0100
0000
0000
1000
0000
0000
1000
0000
0000
1000
0000
0000
,  // measure 5
0001
0000
0000
0000
0100
0000
0000
0001
0000
0000
0001
0000
0000
0001
0000
0000
,  // measure 6
0100
0000
0000
0000
0010
0000
0000
0100
0000
0000
0100
0000
0000
0100
0000
0000
,  // measure 7
0010
1000
0100
0001
,  // measure 8
0020
1030
0020
0031
,  // measure 9
0010
0010
1000
0000
0001
1000
0100
0000
,  // measure 10
0200
1300
0200
0301
,  // measure 11
0100
0100
1000
0000
0001
0010
0100
0000
,  // measure 12
2200
0000
3300
0000
1000
1000
1000
0000
,  // measure 13
2002
0000
3003
0000
0100
0010
0100
0000
,  // measure 14
0202
0000
0303
0000
0001
0001
0001
0000
,  // measure 15
0220
0000
0330
0000
0010
1000
0001
0000
,  // measure 16
2000
0001
3001
0000
0001
1000
0001
0000
,  // measure 17
0200
0010
0310
0000
0010
0100
0010
0000
,  // measure 18
0200
0001
0301
0000
0100
0001
1000
0000
,  // measure 19
0010
1000
0001
0000
1000
0001
1000
0000
,  // measure 20
0002
1000
1003
0000
1000
0001
1000
0000
,  // measure 21
0020
0100
0130
0000
0100
0010
0100
0000
,  // measure 22
0020
1000
1030
0000
0010
1000
0001
0000
,  // measure 23
0100
0001
1000
0000
0001
1000
0001
0000
,  // measure 24
0012
0000
1000
0000
0013
0000
0100
0010
,  // measure 25
0200
0302
0023
0230
,  // measure 26
1300
0001
0010
0100
,  // measure 27
1100
1010
0110
0101
,  // measure 28
2002
0000
0000
3000
0003
0000
0000
0000
,  // measure 29
0220
0000
0000
0300
0030
0000
0000
0000
,  // measure 30
0001
0010
0100
1000
,  // measure 31
0001
0010
0100
0000
0010
0100
1000
0000
,  // measure 32
2100
0000
0001
0000
3100
0000
0010
0100
,  // measure 33
0020
2030
3200
0320
,  // measure 34
0031
1000
0100
0010
,  // measure 35
0011
0101
0110
1010
,  // measure 36
2002
0000
0000
0003
3000
0000
0000
0000
,  // measure 37
0220
0000
0000
0030
0300
0000
0000
0000
,  // measure 38
1000
0100
0010
0001
,  // measure 39
1000
0100
0010
0000
0100
0010
0001
0000
,  // measure 40
1001
0000
0000
0000
0100
0000
0000
0100
0000
0000
0100
0000
0000
0100
0000
0000
,  // measure 41
0110
0000
0000
0000
1000
0000
0000
1000
0000
0000
1000
0000
0000
1000
0000
0000
,  // measure 42
1100
0000
0000
0000
0100
0000
0000
0100
0000
0000
0100
0000
0000
0100
0000
0000
,  // measure 43
0200
0010
0001
0310
;

//---------------dance-single - ----------------
#NOTEDATA:;
#CHARTNAME:;
#STEPSTYPE:dance-single;
#DESCRIPTION:;
#CHARTSTYLE:;
#DIFFICULTY:Easy;
#METER:4;
#RADARVALUES:0.193903,0.226460,0.000000,0.207049,0.000000,118.000000,118.000000,0.000000,18.000000,0.000000,0.000000,0.000000,0.000000,0.000000,0.193903,0.226460,0.000000,0.207049,0.000000,118.000000,118.000000,0.000000,18.000000,0.000000,0.000000,0.000000,0.000000,0.000000;
#CREDIT:chewi;
#DISPLAYBPM:0.000000:127.000000;
#NOTES:
// measure 0
0000
0000
0000
0000
,  // measure 1
0000
0000
0000
0000
,  // measure 2
0000
0000
0000
0000
,  // measure 3
0000
0000
0000
0000
,  // measure 4
2000
0100
0000
3100
,  // measure 5
0002
0100
0000
0103
,  // measure 6
2000
0010
0000
3010
,  // measure 7
0002
0010
0000
0013
,  // measure 8
0001
0010
0001
0000
,  // measure 9
0001
0100
0001
0000
,  // measure 10
1000
0010
1000
0000
,  // measure 11
1000
0100
1000
0000
,  // measure 12
0100
0010
0100
0000
,  // measure 13
0010
0100
0010
0000
,  // measure 14
0100
0010
0001
0000
,  // measure 15
0001
0010
0100
0000
,  // measure 16
1000
0001
0100
0000
,  // measure 17
0100
0001
0100
0000
,  // measure 18
0010
1000
0001
0000
,  // measure 19
1000
0001
1000
0000
,  // measure 20
0001
0010
0100
0000
,  // measure 21
0010
0100
1000
0000
,  // measure 22
1000
0001
0100
0000
,  // measure 23
0010
0100
0001
0000
,  // measure 24
0002
1000
0010
1000
,  // measure 25
0203
1000
0002
0303
,  // measure 26
0100
1000
0010
0000
,  // measure 27
0001
0100
1000
0000
,  // measure 28
0020
0000
0030
0000
,  // measure 29
0200
0000
0300
0000
,  // measure 30
0010
1000
0100
1000
,  // measure 31
0001
1000
0001
1000
,  // measure 32
2000
0001
0100
0001
,  // measure 33
3020
0001
2000
3030
,  // measure 34
0010
0001
0100
0000
,  // measure 35
1000
0010
0001
0000
,  // measure 36
0200
0000
0300
0000
,  // measure 37
0020
0000
0030
0000
,  // measure 38
0100
0001
0010
1000
,  // measure 39
0100
0001
0010
1000
,  // measure 40
0002
1000
0000
1003
,  // measure 41
2000
0001
0000
3001
,  // measure 42
0200
0010
0000
0310
,  // measure 43
0020
0100
0000
0130
;

//---------------dance-single - ----------------
#NOTEDATA:;
#CHARTNAME:;
#STEPSTYPE:dance-single;
#DESCRIPTION:;
#CHARTSTYLE:;
#DIFFICULTY:Beginner;
#METER:1;
#RADARVALUES:0.072303,0.123654,0.000000,0.161038,0.000000,44.000000,44.000000,0.000000,14.000000,0.000000,0.000000,0.000000,0.000000,0.000000,0.072303,0.123654,0.000000,0.161038,0.000000,44.000000,44.000000,0.000000,14.000000,0.000000,0.000000,0.000000,0.000000,0.000000;
#CREDIT:chewi;
#DISPLAYBPM:0.000000:127.000000;
#NOTES:
// measure 0
0000
0000
0000
0000
,  // measure 1
0000
0000
0000
0000
,  // measure 2
0000
0000
0000
0000
,  // measure 3
0000
0000
0000
0000
,  // measure 4
2000
0000
0000
3000
,  // measure 5
0002
0000
0000
0003
,  // measure 6
0200
0000
0000
0300
,  // measure 7
0020
0000
0000
0030
,  // measure 8
1000
0000
0000
0000
,  // measure 9
0001
0000
0000
0000
,  // measure 10
0010
0000
0000
0000
,  // measure 11
0100
0000
0000
0000
,  // measure 12
0100
0000
0000
0000
,  // measure 13
0010
0000
0000
0000
,  // measure 14
0001
0000
0000
0000
,  // measure 15
1000
0000
0000
0000
,  // measure 16
2000
0000
0000
3000
,  // measure 17
1000
0000
0000
0000
,  // measure 18
0002
0000
0000
0003
,  // measure 19
0001
0000
0000
0000
,  // measure 20
0200
0000
0000
0300
,  // measure 21
0100
0000
0000
0000
,  // measure 22
0020
0000
0000
0030
,  // measure 23
0010
0000
0000
0000
,  // measure 24
0001
0000
0001
0000
,  // measure 25
0010
0000
0000
0000
,  // measure 26
1000
0000
1000
0000
,  // measure 27
0010
0000
0000
0000
,  // measure 28
0020
0000
0030
0000
,  // measure 29
0200
0000
0300
0000
,  // measure 30
0100
0000
0001
0000
,  // measure 31
0100
0000
0001
0000
,  // measure 32
0002
0000
0000
0003
,  // measure 33
0001
0000
0000
0000
,  // measure 34
2000
0000
0000
3000
,  // measure 35
1000
0000
0000
0000
,  // measure 36
0020
0000
0000
0030
,  // measure 37
0010
0000
0000
0000
,  // measure 38
0200
0000
0000
0300
,  // measure 39
0100
0000
0000
0000
,  // measure 40
1000
0000
0000
0000
,  // measure 41
0100
0000
0000
0000
,  // measure 42
0001
0000
0000
0000
,  // measure 43
0010
0000
0000
0000
;
