#VERSION:0.83;
#TITLE:BUBBLE BASS;
#SUBTITLE:;
#ARTIST:YOOKiE;
#TITLETRANSLIT:;
#SUBTITLETRANSLIT:;
#ARTISTTRANSLIT:;
#GENRE:;
#ORIGIN:;
#CREDIT:;
#BANNER:BUBBLE BASS.png;
#BACKGROUND:BUBBLE BASS-bg.png;
#PREVIEWVID:;
#JACKET:BUBBLE BASS-jacket.png;
#CDIMAGE:;
#DISCIMAGE:;
#LYRICSPATH:;
#CDTITLE:cdtitle.png;
#MUSIC:BUBBLE BASS.ogg;
#OFFSET:0.000000;
#SAMPLESTART:70.400002;
#SAMPLELENGTH:12.000000;
#SELECTABLE:YES;
#DISPLAYBPM:75.000000:150.000000;
#BPMS:0.000=75.000,
8.000=150.000,
40.000=75.000,
56.000=150.000,
71.000=300.000,
72.000=150.000;
#STOPS:71.000=0.200;
#DELAYS:;
#WARPS:;
#TIMESIGNATURES:0.000=4=4;
#TICKCOUNTS:0.000=4;
#COMBOS:0.000=1;
#SPEEDS:0.000=1.000=0.000=0;
#SCROLLS:0.000=1.000;
#FAKES:;
#LABELS:0.000=Song Start;
#BGCHANGES:;
#KEYSOUNDS:;
#ATTACKS:
;

//---------------dance-single - ----------------
#NOTEDATA:;
#CHARTNAME:;
#STEPSTYPE:dance-single;
#DESCRIPTION:;
#CHARTSTYLE:;
#DIFFICULTY:Hard;
#METER:13;
#RADARVALUES:0.431272,0.701364,0.165096,0.318400,0.224059,256.000000,242.000000,14.000000,27.000000,28.000000,0.000000,3.000000,0.000000,0.000000,0.431272,0.701364,0.165096,0.318400,0.224059,256.000000,242.000000,14.000000,27.000000,28.000000,0.000000,3.000000,0.000000,0.000000;
#CREDIT:chewi;
#DISPLAYBPM:75.000000:150.000000;
#NOTES:
0000
0000
0000
0000
,
0000
0000
0000
0000
,
2010
0000
0010
0010
3010
0000
0200
0000
,
0302
0000
0013
0100
0010
0001
1000
0000
,
0201
0000
0001
0001
0301
0000
0200
0000
,
0302
0000
0103
0010
1000
0001
0010
0000
,
0012
0000
0010
0010
0013
0000
0020
0000
,
0230
0000
0310
0100
0010
0001
0010
0000
,
1200
0000
1000
1000
1300
0000
0200
0000
,
0320
0000
0031
0100
0010
1000
0001
0000
,
2002
0000
3003
0000
,
0220
0000
0330
0000
,
2020
0000
3030
0000
,
0202
0000
0000
0000
0000
0000
0000
0000
0303
0000
0000
0000
0001
1000
0001
0000
,
0100
0000
0000
0100
0010
0000
1000
0000
0100
0000
0000
0100
0010
0000
0001
0000
,
0010
0000
0000
0010
0100
0000
1000
0000
0010
0000
0000
0010
0100
0000
0001
0000
,
1000
0000
0000
1000
0001
0000
0010
0000
0001
0000
0000
0001
0010
0000
0001
0000
,
1000
0000
0000
1000
0100
0000
1000
0000
0001
0000
0000
0000
MMMM
0000
0000
0000
,
1000
0010
1000
0010
0100
0001
0100
0001
,
1000
0100
1000
0100
0010
0001
0010
0001
,
0010
0001
0010
0001
0010
0001
0010
0001
0100
0001
0100
0001
0100
0001
0100
0001
,
0100
0010
0100
0010
0100
0010
1001
0000
,
0202
0000
0303
MMMM
,
0200
0000
1000
0000
0001
0000
1000
1300
,
0200
0000
0001
0000
1000
0000
0001
0301
,
0200
0000
0310
0000
1001
0000
0100
0010
,
0100
0000
0000
0001
0100
1000
0100
0000
0000
MMMM
0000
0000
,
0010
0000
1000
0000
0001
0000
0100
0000
0001
0000
0010
0000
,
0100
0000
1000
0000
0001
0000
0010
0000
0001
0000
1000
0000
,
0010
0000
0000
0000
0100
0000
0000
0000
0001
0000
0000
0000
1000
0000
0000
0001
0000
0000
1000
0000
0000
0000
0000
0000
,
2200
3300
1000
MMMM
,
0400
0010
0001
0310
,
0040
0001
0100
0031
,
0400
0000
1000
0000
0310
0000
0010
0100
,
0101
0000
0000
0001
0100
1000
0100
0000
0000
MMMM
0000
0000
,
0001
0000
1000
0000
0010
0000
1000
0000
0001
MMMM
0000
0000
,
0010
0000
0100
0000
0010
0000
0001
0000
1000
MMMM
0000
0000
,
0010
0000
0000
0000
0100
0000
0000
0000
0001
0000
0000
0000
1000
0000
0000
0001
0000
0000
1001
0000
0000
0000
0000
0000
,
1000
0000
0100
0010
0100
1000
0010
0000
,
0100
0000
0001
0010
0100
0001
0100
0000
,
0010
0000
0001
0100
1000
0100
0001
0000
,
0100
0000
1000
0100
0001
0100
1000
0000
,
1000
0000
0100
0010
1000
0010
0100
0000
,
1000
0000
0001
0010
0100
0001
0100
0000
,
0010
0000
0001
0100
1000
0100
0001
0000
,
0010
0000
1000
0100
0001
0100
1000
0000
;

//---------------dance-single - ----------------
#NOTEDATA:;
#CHARTNAME:;
#STEPSTYPE:dance-single;
#DESCRIPTION:;
#CHARTSTYLE:;
#DIFFICULTY:Medium;
#METER:11;
#RADARVALUES:0.350408,0.458584,0.176889,0.341985,0.182785,208.000000,193.000000,15.000000,29.000000,4.000000,0.000000,0.000000,0.000000,0.000000,0.350408,0.458584,0.176889,0.341985,0.182785,208.000000,193.000000,15.000000,29.000000,4.000000,0.000000,0.000000,0.000000,0.000000;
#CREDIT:chewi;
#DISPLAYBPM:75.000000:150.000000;
#NOTES:
// measure 0
0000
0000
0000
0000
,  // measure 1
0000
0000
0000
0000
,  // measure 2
2020
0000
3030
1030
,  // measure 3
0301
0000
0013
0100
0010
0000
0001
0000
,  // measure 4
2200
0003
3300
1300
,  // measure 5
0301
0000
0103
0010
0100
0000
0010
0000
,  // measure 6
2002
0030
3003
0013
,  // measure 7
0130
0000
0310
0100
0010
0000
0100
0000
,  // measure 8
2002
0000
3303
0100
,  // measure 9
0310
0000
1030
0001
1000
0000
0001
0000
,  // measure 10
0022
0000
3033
0000
,  // measure 11
0220
0000
0330
0000
,  // measure 12
2200
0000
3330
0000
,  // measure 13
0202
0000
0303
0000
,  // measure 14
0100
0000
0000
0100
0010
0000
0000
0000
1000
0000
0000
1000
0001
0000
0000
0000
,  // measure 15
0010
0000
0000
0010
0100
0000
0000
0000
1000
0000
0000
1000
0001
0000
0000
0000
,  // measure 16
1000
0000
0000
1000
0010
0000
0000
0000
0100
0000
0000
0100
0001
0000
0000
0000
,  // measure 17
0001
0000
0000
0001
1000
0000
0000
0000
1001
0000
0000
0000
MMMM
0000
0000
0000
,  // measure 18
1000
0010
1000
0010
1000
0010
1000
0010
,  // measure 19
0100
0001
0100
0001
0100
0001
0100
0001
,  // measure 20
0020
0000
0000
0000
,  // measure 21
0133
0010
0100
0010
0100
0010
0100
0000
,  // measure 22
1001
0000
0313
0001
,  // measure 23
0200
0000
0010
0000
0001
0000
0310
0300
,  // measure 24
0200
0000
0010
0000
0001
0000
0310
0300
,  // measure 25
0200
0310
1001
0110
,  // measure 26
1001
0000
0000
0001
0100
0001
0100
0000
0000
0001
0000
0000
,  // measure 27
0010
0000
0010
0000
0010
0000
0010
0000
0010
0000
0010
0000
,  // measure 28
0100
0000
0100
0000
0100
0000
0100
0000
0100
0000
0100
0000
,  // measure 29
1000
0000
0001
0000
1000
0000
0001
0000
0000
0000
0000
0000
,  // measure 30
2200
3300
1001
0010
,  // measure 31
0200
0010
0001
0310
,  // measure 32
0200
0010
0001
0310
,  // measure 33
0200
0000
1000
0000
1300
0000
1000
0010
,  // measure 34
1000
0000
0000
0010
0100
0010
0100
0000
0000
0001
0000
0000
,  // measure 35
1000
0000
0000
0000
1000
3003
0000
0000
1000
0000
0000
0000
1000
0000
0000
0000
1000
0000
0000
0000
0000
0000
0000
0000
,  // measure 36
0001
0000
0001
0000
0001
0000
0001
0000
0001
0000
0000
0000
,  // measure 37
0010
0000
0100
0000
0010
0000
0100
0000
0003
0000
0000
0000
,  // measure 38
0020
0000
0031
0000
0100
0100
0100
0000
,  // measure 39
0020
0000
1030
0000
0001
0100
0001
0100
,  // measure 40
0001
0000
1000
0000
1000
0100
0001
0000
,  // measure 41
0001
0100
1000
0000
1000
0001
1000
0000
,  // measure 42
0200
0000
1300
0000
0010
0010
0010
0000
,  // measure 43
0200
0000
0301
0000
1000
0010
1000
0000
,  // measure 44
1000
0000
0001
0000
0001
0010
1000
0000
,  // measure 45
1000
0000
0001
0000
1000
0010
0001
0000
;

//---------------dance-single - ----------------
#NOTEDATA:;
#CHARTNAME:;
#STEPSTYPE:dance-single;
#DESCRIPTION:;
#CHARTSTYLE:;
#DIFFICULTY:Easy;
#METER:6;
#RADARVALUES:0.225744,0.458584,0.070756,0.283022,0.000000,134.000000,128.000000,6.000000,24.000000,0.000000,0.000000,0.000000,0.000000,0.000000,0.225744,0.458584,0.070756,0.283022,0.000000,134.000000,128.000000,6.000000,24.000000,0.000000,0.000000,0.000000,0.000000,0.000000;
#CREDIT:chewi;
#DISPLAYBPM:75.000000:150.000000;
#NOTES:
0000
0000
0000
0000
,
0000
0000
0000
0000
,
2000
0000
3000
2000
,
3000
3000
1000
0000
,
0002
0000
0003
0002
,
0003
0000
0000
0003
0001
0000
0000
0000
,
0200
0000
0300
0200
,
0300
0300
0100
0000
,
0020
0000
0030
0020
,
0030
0030
0010
0000
,
0220
0000
0330
0000
,
2002
0000
3003
3003
,
1000
0100
1000
0100
0010
0001
0310
0001
,
0001
0100
0001
0100
0010
1003
0010
1000
,
0001
0001
0001
0001
,
0010
0010
0010
0010
,
0100
0100
0100
0100
,
1000
1000
1000
0000
,
1000
0010
0100
0010
,
1000
0100
0010
0001
,
0001
0100
0010
0100
,
0001
0000
0000
0000
,
1000
0000
1001
0000
,
0020
0000
0001
0030
,
0002
0000
0010
0033
,
0020
0000
0000
0000
0031
0000
1000
1000
,
1000
0000
1001
0000
,
0200
0000
0010
0300
,
0020
0000
0100
0330
,
0200
0000
0310
0000
,
1001
0000
0110
0000
,
2000
0000
0100
3000
,
0200
0000
1000
0303
,
2000
0000
0000
0000
3001
0000
0001
0001
,
0001
0100
0010
1000
,
0200
0000
0010
0300
,
0020
0000
0100
0030
,
2000
0000
3001
0300
,
0100
0010
0100
0001
,
0010
0100
1000
0001
,
1000
0010
1000
0100
,
0010
0001
0100
0001
,
0010
0100
1000
0001
,
0010
0100
0001
0100
,
0010
0001
0100
0010
,
0001
0010
1000
0010
;

//---------------dance-single - ----------------
#NOTEDATA:;
#CHARTNAME:;
#STEPSTYPE:dance-single;
#DESCRIPTION:;
#CHARTSTYLE:;
#DIFFICULTY:Beginner;
#METER:3;
#RADARVALUES:0.131403,0.241453,0.058963,0.224059,0.000000,78.000000,73.000000,5.000000,19.000000,0.000000,0.000000,0.000000,0.000000,0.000000,0.131403,0.241453,0.058963,0.224059,0.000000,78.000000,73.000000,5.000000,19.000000,0.000000,0.000000,0.000000,0.000000,0.000000;
#CREDIT:chewi;
#DISPLAYBPM:75.000000:150.000000;
#NOTES:
0000
0000
0000
0000
,
0000
0000
0000
0000
,
1000
0000
3000
1000
,
3000
3000
0000
0000
,
0001
0000
0003
0001
,
0003
0000
0000
0003
0000
0000
0000
0000
,
0100
0000
0300
0100
,
0300
0300
0000
0000
,
0010
0000
0030
0010
,
0030
0030
0000
0000
,
0220
0000
0330
0000
,
2002
0000
3003
3003
,
1000
0000
0100
0300
,
0010
0000
0000
0000
0001
0003
0000
0000
,
0001
0001
0001
0001
,
0001
0001
0001
0001
,
1000
1000
1000
1000
,
1000
1000
1000
0000
,
2000
0000
0000
3000
,
0002
0000
0000
0003
,
0200
0000
0000
0300
,
0103
0003
0000
0000
0000
0000
0030
0000
,
1000
0000
1001
0000
,
0020
0000
0000
0030
,
0020
0000
0000
0033
,
0020
0000
0330
0100
,
1000
0000
1001
0000
,
0200
0000
0000
0300
,
0200
0000
0000
0330
,
0200
0000
0300
0000
,
0100
0000
0110
0000
,
2000
0000
0000
3000
,
2000
0000
0000
3303
,
2000
0000
3001
0010
,
0100
0000
0010
0000
,
0200
0000
0000
0300
,
0200
0000
0000
0330
,
0200
0000
3310
0300
,
0100
0000
0100
0000
,
1000
0000
1000
0000
,
0010
0000
0010
0000
,
0100
0000
0100
0000
,
0001
0000
0001
0000
,
1000
0000
1000
0000
,
0001
0000
0001
0000
,
1000
0003
0000
0000
1000
0000
0000
0000
;
