#TITLE:BRE∀K DOWN!;
#SUBTITLE:;
#ARTIST:SUPER JUNIOR-M;
#TITLETRANSLIT:BREAK DOWN;
#SUBTITLETRANSLIT:;
#ARTISTTRANSLIT:;
#GENRE:Pop;
#CREDIT:chewi;
#BANNER:BREAK DOWN.png;
#BACKGROUND:BREAK DOWN-bg.png;
#LYRICSPATH:;
#CDTITLE:cdtitle.png;
#MUSIC:BREAK DOWN.ogg;
#OFFSET:-4.177000;
#SAMPLESTART:33.716000;
#SAMPLELENGTH:15.000000;
#SELECTABLE:YES;
#BPMS:0.000000=130.000000
,95.000000=65.000000
,96.000000=130.000000
,116.000000=65.000000
,152.000000=130.000000
,238.000000=65.000000
;
#STOPS:60.000000=1.385000,
152.000000=1.385000,
181.000000=1.385000
;
#BGCHANGES:-0.500=BREAK DOWN.avi=1.000=0=0=1=====,
99999=-nosongbg-=1.000=0=0=0 // don't automatically add -songbackground-
;
#KEYSOUNDS:;
#ATTACKS:;

//---------------dance-single - ----------------
#NOTES:
     dance-single:
     :
     Hard:
     10:
     0.274400,0.344468,0.163020,0.375655,0.035439,271.000000,248.000000,23.000000,53.000000,0.000000,0.000000,0.274400,0.344468,0.163020,0.375655,0.035439,271.000000,248.000000,23.000000,53.000000,0.000000,0.000000:
0000
0000
0000
0000
,
0000
0000
0000
0000
,
0000
0000
0000
0000
,
0000
0000
0000
0000
,
2000
0000
0000
3000
,
0200
0000
0000
0300
,
0002
0000
0000
0003
,
0020
0000
0000
0030
,
0010
0000
0000
0010
0000
0000
0010
0000
,
0000
0000
0000
1000
,
0100
0000
0000
0100
0000
0000
0100
0000
,
0020
0032
0023
0032
,
0203
0302
0203
0302
,
2003
3020
2030
3020
,
1030
0100
0010
0001
1000
0010
0100
0001
,
1000
0000
0001
0000
1001
0000
1000
0100
,
0010
0001
1000
0100
1000
0001
0200
0000
,
0320
0000
0130
0000
0110
0000
0010
0100
,
0010
0100
0010
0000
1000
0000
0100
0000
,
0001
0000
0020
0000
0130
0000
0001
0010
,
0100
1000
0002
0000
1003
0000
0100
0010
,
0100
1000
0001
0000
0101
0000
1000
0000
,
1100
1001
1001
0110
,
0110
0200
0310
0110
,
1000
0001
2000
3200
,
0310
0001
1000
0000
0001
0100
0001
1000
,
0001
0000
1000
0001
0010
0100
1000
0001
,
2000
0000
3001
0000
0010
0001
0010
0100
,
0020
0032
2003
3200
,
1300
0000
0000
0000
1001
0000
0000
0000
0001
0000
0000
0000
1000
0001
0000
0000
,
1000
0100
0001
0000
0001
0100
1000
0000
,
1000
0000
0000
0000
0001
0000
0000
0000
0000
1000
0000
0000
0100
0000
0000
0000
0000
0000
0000
0000
0000
0000
0000
0000
1000
0000
0000
0000
0001
0000
0000
0000
0000
1000
0000
0000
0100
0000
0000
0000
0000
0000
0000
0000
0000
0000
0000
0000
,
1000
0010
0001
0000
0001
0010
1000
0000
,
1000
0000
0000
0000
0010
0000
0000
0000
0000
1000
0000
0000
0100
0000
0000
0000
0000
0000
0000
0000
0000
0000
0000
0000
1000
0000
0000
0000
0010
0000
0000
0000
0000
1000
0000
0000
0100
0000
0000
0000
0000
0000
0000
0000
0000
0000
0000
0000
,
1000
0000
1001
0000
0001
0100
0001
0000
,
0002
0000
2003
0000
3010
1000
0010
0000
,
0100
0000
0110
0000
1000
0001
1000
0000
,
2002
0000
3003
0000
0010
0100
0010
0000
,
0110
0020
0000
0000
,
0030
0002
0000
0000
,
0003
0200
0000
0000
,
0300
2000
0000
0000
,
3000
0020
0000
0000
,
0030
0200
0000
0000
,
0300
0002
0000
0000
,
0003
0000
1000
1001
,
0001
0010
0100
1000
0001
0010
0001
1000
,
0020
0230
0310
0110
,
0100
0010
0100
0010
0100
0000
0001
0000
,
0010
1000
0200
0310
,
1000
0100
0010
0001
2000
0000
3001
0000
,
0010
0100
0010
0001
1000
0000
1010
0000
,
0001
0011
1001
1001
,
0110
0110
0020
0130
,
0100
0010
1000
0001
1000
0000
0001
0000
,
0002
0000
0023
0000
0130
1000
0001
0000
,
1000
0010
1000
0001
1000
0000
0001
1000
,
0100
0010
0001
1000
0002
0000
1003
0000
,
0100
1000
0100
0010
0200
0000
2300
0000
,
3002
0023
0031
1001
,
1000
0000
0000
0000
0001
1000
0000
0000
0002
0000
2000
0000
3003
0000
0000
0000
;

//---------------dance-single - ----------------
#NOTES:
     dance-single:
     :
     Medium:
     6:
     0.214660,0.279880,0.120493,0.141757,0.000000,212.000000,195.000000,17.000000,20.000000,0.000000,0.000000,0.214660,0.279880,0.120493,0.141757,0.000000,212.000000,195.000000,17.000000,20.000000,0.000000,0.000000:
0000
0000
0000
0000
,
0000
0000
0000
0000
,
0000
0000
0000
0000
,
0000
0000
0000
0000
,
2000
0000
0000
3000
,
0002
0000
0000
0003
,
2000
0000
0000
3000
,
0002
0000
0000
0003
,
1000
0000
0001
0000
,
0100
0100
0010
0010
,
1000
0000
0001
0000
,
0010
0010
0100
0100
,
0020
0000
0100
0000
,
0230
0000
1000
0000
,
2300
0000
0001
0000
,
3001
0000
1001
0000
1001
0000
1000
0001
,
1000
0001
1000
0100
,
0010
0001
0010
0100
,
1000
0001
0101
1000
,
1100
1000
0001
0100
,
0010
1000
0001
0010
,
0100
0000
1000
0000
0001
0000
1000
0100
,
1000
0000
0001
0000
0010
0000
0100
0010
,
0001
1000
0001
1001
,
0001
0000
1000
0000
0001
1000
0001
0000
,
1000
0010
0100
0001
,
0100
0010
1000
0001
,
1000
0000
0100
0000
0010
0100
1000
0000
,
0001
0000
0010
0000
0100
0010
0001
0000
,
0010
0011
0001
0011
,
0010
0110
0100
1000
,
0001
0001
0100
0000
1000
1000
0100
0000
,
1000
1001
0001
1001
,
0001
0100
0100
0000
1000
0100
0100
0000
,
0200
1000
0000
0301
,
0020
0001
0000
1030
,
0020
0100
0000
0130
,
0020
0001
0000
1030
,
0000
0200
0000
0000
,
0300
0020
0000
0000
,
0030
0002
0000
0000
,
0003
2000
0000
0000
,
3000
0020
0000
0000
,
0030
0200
0000
0000
,
0300
0002
0000
0000
,
0003
0000
1001
1001
,
1000
0001
1000
0000
0001
0000
1000
0000
,
0100
0010
0001
0010
,
0100
1000
0001
0101
,
1000
1100
1000
0001
,
0100
0010
1000
0001
,
0010
0100
1000
0001
,
1000
0100
1000
0000
0001
0000
0010
0000
,
0100
0010
0001
0000
1000
0000
0001
0000
,
1001
1000
0100
0001
,
1000
0000
0001
1000
0001
0000
1000
0000
,
0010
0100
0001
0100
,
0010
1000
0001
1000
,
0100
0000
0010
0100
1000
0000
0001
0000
,
0010
0000
0100
1000
0100
0000
1100
0000
,
1000
0000
1100
0000
0200
0020
0330
0000
;

//---------------dance-single - ----------------
#NOTES:
     dance-single:
     :
     Easy:
     4:
     0.137706,0.193763,0.000000,0.269337,0.000000,136.000000,136.000000,0.000000,38.000000,0.000000,0.000000,0.137706,0.193763,0.000000,0.269337,0.000000,136.000000,136.000000,0.000000,38.000000,0.000000,0.000000:
0000
0000
0000
0000
,
0000
0000
0000
0000
,
0000
0000
0000
0000
,
0000
0000
0000
0000
,
2000
0000
0000
3000
,
2000
0000
0000
3000
,
0002
0000
0000
0003
,
0002
0000
0000
0003
,
0001
0000
0000
0000
,
1000
0000
0000
0000
,
0010
0000
0000
0000
,
0100
0000
0000
0000
,
0001
0000
0001
0000
,
1000
0000
1000
0000
,
0001
0010
0100
1000
,
0001
1000
1000
0002
,
1003
0001
1000
0200
,
0000
0310
0100
0020
,
0000
0130
0010
0001
,
1000
0100
0000
0100
,
1000
0010
0000
0010
,
0100
0002
0003
0002
,
0003
2000
3000
2000
,
3000
0000
0010
0010
,
0000
0100
0200
0000
,
0310
1000
0002
0000
,
1003
0001
1000
0000
,
0001
0010
0100
0000
,
1000
0010
0100
0000
,
0010
0010
0010
0010
,
2000
0000
3002
0000
,
1003
0100
0001
0100
,
1000
1000
0001
0001
,
1000
0100
0001
0100
,
0020
0000
0230
0000
,
0320
0000
2030
0000
,
3002
0000
0023
0000
,
0032
0000
2003
0000
,
3000
0002
0000
0000
,
0003
0002
0000
0000
,
0003
2000
0000
0000
,
3000
2000
0000
0000
,
3000
1000
0000
0000
,
0000
0001
0000
0000
,
0000
0100
0000
0000
,
0000
0000
0001
0001
,
2000
3001
1000
0001
,
0020
0000
0130
0010
,
0200
0000
0310
0100
,
1000
0001
0010
0000
,
0010
0001
0100
0000
,
0100
0010
2000
3000
,
2000
3000
0002
0003
,
0002
0003
0000
0100
,
0200
0000
0310
0010
,
0020
0000
0130
0001
,
2000
0000
3001
1000
,
0001
0000
1000
0100
,
0010
0000
0001
0100
,
0010
0000
0100
0100
,
0100
0100
0002
0003
;

//---------------dance-single - ----------------
#NOTES:
     dance-single:
     :
     Beginner:
     1:
     0.075941,0.128644,0.007088,0.085054,0.000000,75.000000,74.000000,1.000000,12.000000,0.000000,0.000000,0.075941,0.128644,0.007088,0.085054,0.000000,75.000000,74.000000,1.000000,12.000000,0.000000,0.000000:
// measure 0
0000
0000
0000
0000
,  // measure 1
0000
0000
0000
0000
,  // measure 2
0000
0000
0000
0000
,  // measure 3
0000
0000
0000
0000
,  // measure 4
1000
0000
0000
0000
,  // measure 5
0001
0000
0000
0000
,  // measure 6
1000
0000
0000
0000
,  // measure 7
0001
0000
0000
0000
,  // measure 8
0200
0000
0000
0300
,  // measure 9
0100
0000
0000
0000
,  // measure 10
0020
0000
0000
0030
,  // measure 11
0010
0000
0000
0000
,  // measure 12
2000
0000
0000
3000
,  // measure 13
1000
0000
0000
0000
,  // measure 14
0002
0000
0000
0003
,  // measure 15
0001
0001
0000
0000
,  // measure 16
0000
1000
0000
0000
,  // measure 17
0000
0001
0000
0000
,  // measure 18
0000
0100
0000
0000
,  // measure 19
0000
0010
0000
0000
,  // measure 20
0000
1000
0000
0000
,  // measure 21
0000
0001
0000
0000
,  // measure 22
0000
1000
0000
0000
,  // measure 23
0000
0100
0000
0100
,  // measure 24
0100
0000
0000
0000
,  // measure 25
0010
0000
0010
0000
,  // measure 26
0010
0000
0000
0000
,  // measure 27
1000
0000
1000
0000
,  // measure 28
1000
0000
0000
0000
,  // measure 29
0002
0000
0003
0001
,  // measure 30
0001
0000
1000
0000
,  // measure 31
0001
0000
1000
0000
,  // measure 32
0010
0000
0100
0000
,  // measure 33
0010
0000
0100
0000
,  // measure 34
0200
0000
0300
0101
,  // measure 35
0020
0000
0030
0010
,  // measure 36
2000
0000
3000
1000
,  // measure 37
0002
0000
0003
0001
,  // measure 38
0001
1000
0000
0000
,  // measure 39
0000
0001
0000
0000
,  // measure 40
0000
1000
0000
0000
,  // measure 41
0000
0001
0000
0000
,  // measure 42
0000
0200
0000
0000
,  // measure 43
0300
0100
0000
0000
,  // measure 44
0000
0020
0000
0000
,  // measure 45
0030
0010
0001
0000
,  // measure 46
0000
0000
1000
0000
,  // measure 47
0000
0000
0001
0000
,  // measure 48
0000
0000
0100
0000
,  // measure 49
0000
0000
0010
0000
,  // measure 50
0000
0000
1000
0000
,  // measure 51
0000
0000
0001
0000
,  // measure 52
0000
0000
1000
0000
,  // measure 53
0000
0000
0100
0000
,  // measure 54
0100
0000
0100
0000
,  // measure 55
0000
0000
0010
0000
,  // measure 56
0010
0000
0010
0000
,  // measure 57
0000
0000
1000
0000
,  // measure 58
1000
0000
1000
0000
,  // measure 59
0000
0000
0002
0000
,  // measure 60
0000
0000
0003
0000
;
