#TITLE:BLUE☆STAR;
#SUBTITLE:;
#ARTIST:Mi;
#TITLETRANSLIT:BLUE STAR;
#SUBTITLETRANSLIT:;
#ARTISTTRANSLIT:;
#GENRE:;
#CREDIT:Chewi☆;
#MENUCOLOR:;
#METERTYPE:DDR X;
#BANNER:BLUE STAR.png;
#BACKGROUND:BLUE STAR-bg.png;
#LYRICSPATH:;
#CDTITLE:;
#MUSIC:BLUE STAR.mp3;
#OFFSET:-0.505;
#SAMPLESTART:55.901;
#SAMPLELENGTH:15.000;
#SELECTABLE:YES;
#LISTSORT:;
#DISPLAYBPM:138.000;
#BPMS:0.000=138.000;
#STOPS:;
#BGCHANGES:;
#ATTACKS:;

//---------------dance-single - Chewi----------------
#NOTES:
     dance-single:
     Chewi:
     Hard:
     10:
     0.412,0.408,0.145,0.136,0.054:
0000
0000
0000
0000
,
0000
0000
0000
0000
,
0000
0000
0000
0000
,
0000
0000
0000
0000
,
1000
0000
0000
1000
0100
0000
0000
0100
0010
0000
0000
0000
0000
0000
0100
0000
,
0000
0010
0001
0010
0000
0001
0001
0000
,
0001
0000
0000
0001
0100
0000
0000
0100
0010
0000
0000
0000
0000
0000
0100
0000
,
0000
0100
0010
0100
0000
0010
0010
0000
,
1010
0100
0001
0010
,
0011
0100
1000
0010
,
0100
0010
0100
0000
0001
0100
0001
0000
,
1000
0100
1000
0000
0100
0010
0100
0000
,
1100
0010
1000
0100
,
0011
0100
0001
0010
,
0100
0010
0100
0000
0010
0100
0010
0000
,
0002
0023
0230
2300
,
3001
1000
0100
0000
0100
0000
0100
0000
,
1000
0001
0010
0000
0010
0000
0010
0000
,
0001
0010
0001
0000
0010
1000
0010
0000
,
1000
0100
1000
0000
0100
0001
0100
0000
,
0001
0100
1000
0000
0100
0000
1001
0000
,
1000
0010
0001
0000
0010
0000
1001
0000
,
1000
0100
1000
0000
0100
0001
0100
0000
,
0001
0010
0001
0000
0010
1000
0010
0000
,
1000
0010
0100
0010
1000
0000
0100
0000
,
0100
0011
0100
1010
,
0001
0100
0010
0100
0001
0000
0010
0000
,
0100
1010
0100
0011
,
1000
0001
1000
0100
1000
0000
0001
0000
,
0001
1000
0001
0100
0001
0000
1000
0000
,
1000
0010
0100
0000
0001
0100
0010
0000
,
1000
0001
1000
0001
1000
0001
0000
1000
,
0001
0000
1000
0010
0100
0000
0001
0100
,
0000
0010
1000
0001
0010
0000
0100
0000
,
0020
0032
0203
2300
,
3010
0110
0100
0110
,
0100
0001
0100
0010
0200
0000
0320
0000
,
1030
0010
0100
0010
1000
0000
0100
0000
,
0010
0011
1000
0001
,
0010
0000
0101
0000
0100
0000
0000
1000
,
0001
1000
0100
0001
0100
0000
0010
1000
,
0000
1000
0001
0010
0100
0000
1000
0000
,
0200
2300
3020
0230
,
0301
0101
1000
1100
,
0001
1000
0010
0100
0001
0000
1000
0000
,
0001
1000
0010
0100
0001
0000
1000
0000
,
0100
1000
0010
0000
0100
0001
0010
0000
,
0100
0100
0010
0010
0100
0010
0001
1000
,
0010
0000
0000
0010
0100
0000
0000
0100
1000
0000
0000
0000
0000
0000
0010
0000
,
0000
0001
0100
1000
0010
0100
0010
0000
,
1000
0000
0000
1000
0100
0000
0000
0100
0010
0000
0000
0000
0001
0000
0010
0000
,
0000
0010
0001
0100
1000
0010
1000
0100
,
0010
0000
0000
0010
0100
0000
0000
0100
1000
0000
0000
0000
0000
0000
0010
0000
,
0000
0100
0001
0100
0010
1000
0001
0000
,
0001
0000
0000
0001
1000
0000
0000
1000
0010
0000
0000
0000
1000
0000
0010
0000
,
0000
0010
1000
0100
0010
0001
1000
0100
,
0020
0000
0000
0000
,
0000
0000
0000
0000
,
0000
0000
0000
0000
,
0000
0000
0000
0000
,
0030
0000
0000
0000
;

//---------------dance-single - Chewi----------------
#NOTES:
     dance-single:
     Chewi:
     Medium:
     6:
     0.240,0.299,0.082,0.163,0.000:
0000
0000
0000
0000
,
0000
0000
0000
0000
,
0000
0000
0000
0000
,
0000
0000
0000
0000
,
1000
0000
0100
0000
0010
0000
0000
0100
,
0000
0010
0000
0010
0100
0000
0000
0000
,
0100
0000
0010
0000
0001
0000
0000
0001
,
0000
0100
0000
0100
0001
0000
0000
0000
,
1002
0000
0000
0000
,
0203
0000
0000
0000
,
0320
0000
0000
0000
,
2030
0000
0000
0000
,
3200
0000
0000
0000
,
0302
0000
0000
0000
,
0023
0000
0000
0000
,
2030
0000
0000
0000
,
3010
0000
0010
0000
1000
0001
0100
0000
,
0100
0100
0001
0100
,
0010
0000
0010
0000
1000
0001
0100
0000
,
1000
1000
0001
0001
,
1000
0100
0001
0000
,
0001
0100
1000
0010
,
0001
0010
1000
0000
,
1000
0100
0010
0001
,
2000
0100
0000
0100
,
0000
0010
0000
3010
,
0002
0100
0000
0100
,
0000
0010
0000
0013
,
0010
0100
0010
0000
,
0001
1000
1001
0000
,
1000
0001
1000
0000
,
0100
0000
0010
0000
0110
0000
0000
1000
,
0000
0000
0010
0000
1000
0000
0000
0001
,
0000
0010
0001
0000
,
0010
0010
0100
0100
,
0010
0100
1001
0000
,
1000
1000
0001
0000
,
0001
0001
1000
0000
,
0001
0100
0010
1000
,
0001
1000
0100
0000
1000
0000
0000
0010
,
0000
0000
0010
0000
0100
0000
0000
0010
,
0000
1000
0100
0000
,
0010
0100
0010
0001
,
0100
0010
0001
0100
,
1000
1100
0001
0101
,
0100
0100
0010
0010
,
1000
0010
0100
0001
,
1000
0100
0010
0001
,
0102
0000
0000
0000
,
2003
0000
0000
0000
,
3200
0000
0000
0000
,
0320
0000
0000
0031
,
1002
0000
0000
0000
,
0203
0000
0000
0000
,
0320
0000
0000
0000
,
2030
0000
0000
3001
,
0001
0000
0001
0000
0001
0000
0000
1000
,
0000
1000
0000
1000
1000
0000
0000
0000
,
0010
0000
0010
0000
0010
0000
0000
0100
,
0000
0100
0000
0100
0100
0000
0000
0000
,
0110
0000
0000
0000
;

//---------------dance-single - Chewi----------------
#NOTES:
     dance-single:
     Chewi:
     Easy:
     4:
     0.171,0.190,0.045,0.199,0.000:
0000
0000
0000
0000
,
0000
0000
0000
0000
,
0000
0000
0000
0000
,
0000
0000
0000
0000
,
1000
0100
1000
0000
,
1000
0000
1000
0000
,
0001
0100
0001
0000
,
0001
0000
0001
0000
,
2000
0000
0000
3000
,
0020
0000
0000
0030
,
0200
0000
0000
0300
,
0002
0000
0000
0003
,
2000
0000
0000
3000
,
0002
0000
0000
0003
,
0020
0000
0000
0030
,
0200
0000
0000
0300
,
0010
0001
0100
0000
,
1000
0000
1000
0000
,
1000
0010
0001
0000
,
0100
0000
0100
0000
,
1000
0010
0100
0000
,
0100
0000
0100
0000
,
0100
0001
0010
0000
,
0010
0000
0010
0000
,
0200
0000
0000
0300
,
0020
0000
0000
0030
,
0002
0000
0000
0003
,
2000
0000
0000
3000
,
0020
0000
0000
0030
,
2000
0000
0000
3000
,
0200
0000
0000
0300
,
0002
0000
0000
0003
,
0010
0010
0010
0000
,
0000
0100
0100
0000
,
1000
0000
1001
0000
,
0001
0000
1001
0000
,
1000
1000
1000
0000
,
0000
0001
0001
0000
,
1000
0000
1001
0000
,
0010
0000
0110
0000
,
0100
0001
0010
0000
,
0010
1000
0100
0000
,
0100
0100
0100
0000
,
0010
0010
0010
0000
,
0100
0001
0010
0000
,
0010
1000
0100
0000
,
1000
1000
1000
0000
,
0001
0001
0001
0000
,
2000
0000
0000
3000
,
1000
0001
0001
0000
,
0002
0000
0000
0003
,
0001
1000
1000
0000
,
0200
0000
0000
0300
,
0100
0010
0010
0000
,
0020
0000
0000
0030
,
0010
0100
0100
0000
,
2002
0000
0000
0000
,
0000
0000
0000
0000
,
0000
0000
0000
0000
,
0000
0000
0000
0000
,
0000
3003
0000
0000
0000
0000
0000
0000
0000
0000
0000
0000
0000
0000
0000
0000
0000
0000
0000
0000
0000
0000
0000
0000
0000
0000
0000
0000
0000
0000
0000
0000
0000
0000
0000
0000
0000
0000
0000
0000
0000
0000
0000
0000
0000
0000
0000
0000
0000
0000
0000
0000
0000
0000
0000
0000
0000
0000
0000
0000
0000
0000
0000
0000
0000
0000
0000
0000
0000
0000
0000
0000
0000
0000
0000
0000
0000
0000
0000
0000
0000
0000
0000
0000
0000
0000
0000
0000
0000
0000
0000
0000
0000
0000
0000
0000
0000
0000
0000
0000
0000
0000
0000
0000
0000
0000
0000
0000
0000
0000
0000
0000
0000
0000
0000
0000
0000
0000
0000
0000
0000
0000
0000
0000
0000
0000
0000
0000
0000
0000
0000
0000
0000
0000
0000
0000
0000
0000
0000
0000
0000
0000
0000
0000
0000
0000
0000
0000
0000
0000
0000
0000
0000
0000
0000
0000
0000
0000
0000
0000
0000
0000
0000
0000
0000
0000
0000
0000
0000
0000
0000
0000
0000
0000
0000
0000
0000
0000
0000
0000
0000
0000
0000
0000
0000
0000
0000
0000
0000
0000
0000
0000
;

//---------------dance-single - Chewi----------------
#NOTES:
     dance-single:
     Chewi:
     Beginner:
     2:
     0.126,0.136,0.027,0.082,0.000:
0000
0000
0000
0000
,
0000
0000
0000
0000
,
0000
0000
0000
0000
,
0000
0000
0000
0000
,
1000
0000
1000
0000
,
2000
0000
0000
3000
,
0001
0000
0001
0000
,
0002
0000
0000
0003
,
0100
0000
0100
0000
,
0010
0000
0010
0000
,
1000
0000
1000
0000
,
0001
0000
0001
0000
,
0010
0000
0010
0000
,
0100
0000
0100
0000
,
0010
0000
0010
0000
,
0001
0000
0001
0000
,
0001
0000
0001
0000
,
0002
0000
0000
0003
,
1000
0000
1000
0000
,
2000
0000
0000
3000
,
0010
0000
0010
0000
,
0020
0000
0000
0030
,
0100
0000
0100
0000
,
0200
0000
0000
0300
,
0100
0000
0000
0000
,
0001
0000
1000
0000
,
0001
0000
0000
0000
,
0010
0000
0100
0000
,
0010
0000
0000
0000
,
1000
0000
0100
0000
,
1000
0000
0000
0000
,
1001
0000
0000
0000
,
0001
0000
0001
0000
,
1000
0000
1000
0000
,
0010
0000
0010
0000
,
0100
0000
0100
0000
,
1000
0000
1000
0000
,
0010
0000
0010
0000
,
0001
0000
0001
0000
,
0001
0000
0001
0000
,
0100
0000
0100
0000
,
0010
0000
0010
0000
,
1000
0000
1000
0000
,
0010
0000
0010
0000
,
0100
0000
0100
0000
,
0001
0000
0001
0000
,
1000
0000
1000
0000
,
0010
0000
0010
0000
,
0020
0000
0000
0000
,
0000
0000
0000
0030
,
0010
0000
0000
0000
,
0110
0000
0000
0000
,
0200
0000
0000
0000
,
0000
0000
0000
0300
,
0100
0000
0000
0000
,
0110
0000
0000
0000
,
2000
0000
0000
0000
,
0000
0000
0000
0000
,
0000
0000
0000
0000
,
0000
0000
0000
3000
,
1000
0000
0000
0000
;
