#TITLE:BLUE BIRD;
#SUBTITLE:;
#ARTIST:浜崎あゆみ;
#TITLETRANSLIT:;
#SUBTITLETRANSLIT:;
#ARTISTTRANSLIT:ayumi hamasaki;
#GENRE:;
#CREDIT:;
#BANNER:BLUE BIRD.png;
#BACKGROUND:BLUE BIRD-bg.png;
#LYRICSPATH:;
#CDTITLE:cdtitle.png;
#MUSIC:BLUE BIRD.ogg;
#OFFSET:-0.231000;
#SAMPLESTART:31.712000;
#SAMPLELENGTH:12.000000;
#SELECTABLE:YES;
#BPMS:0.000000=122.000000
;
#STOPS:
;
#BGCHANGES:-0.462=BLUE BIRD.avi=1.000=1=0=1===CrossFade==,
212.000=BLUE BIRD-bg.png=1.000=1=0=1===CrossFade==,
99999=-nosongbg-=1.000=0=0=0 // don't automatically add -songbackground-
;
#KEYSOUNDS:;
#ATTACKS:;

//---------------dance-single - ----------------
#NOTES:
     dance-single:
     :
     Hard:
     10:
     0.353249,0.421959,0.084298,0.299726,0.112397,264.000000,255.000000,9.000000,32.000000,0.000000,0.000000,0.353249,0.421959,0.084298,0.299726,0.112397,264.000000,255.000000,9.000000,32.000000,0.000000,0.000000:
0000
0000
0000
0000
,
0000
0000
0000
0000
,
0000
0000
0000
0000
,
0000
0000
0000
0000
,
0020
0030
0002
0003
,
2000
0000
3010
0100
0001
0000
0000
0000
,
0002
0003
0020
0030
,
0200
0000
1300
0001
0100
0000
0100
0000
,
0001
0100
1000
0100
0000
0010
0001
0010
,
0000
0100
0001
0100
0000
0010
1000
0010
,
0000
1000
0100
1000
0000
0001
0100
0001
,
0200
0302
0023
0230
,
0300
0010
0001
0010
0000
0100
1000
0100
,
0000
0010
1000
0010
0000
0100
0001
0100
,
0000
0001
0010
0001
0000
1000
0010
1000
,
0100
0000
0010
0000
0001
0000
0000
1000
0000
0010
0000
0100
0001
0000
1001
0000
,
1000
0001
0200
0000
1000
0000
0010
0000
,
0301
0010
0010
0000
0100
1000
1000
0000
,
1000
0000
0000
1000
0000
0000
1000
0000
0001
0000
0000
0001
0000
0000
0001
0000
,
0100
0000
0000
0010
0000
0000
0100
0000
0110
0000
0000
0000
0000
0000
0000
0000
,
0001
1000
0020
0000
0001
0000
0100
0000
,
1030
0100
0100
0000
0010
0001
0001
0000
,
0001
0000
0000
0001
0000
0000
0001
0000
1000
0000
0000
1000
0000
0000
1000
0000
,
0010
0000
0000
0100
0000
0000
0010
0000
0110
0000
0000
0000
0000
0000
0000
0000
,
0010
1000
0002
0000
0010
0000
0100
0000
,
0013
0100
0100
0000
1000
0001
0001
0000
,
0100
0000
0000
0100
0000
0000
0100
0000
0010
0000
0000
0010
0000
0000
0010
0000
,
1000
0000
0000
0001
0000
0000
1000
0000
1001
0000
0000
0000
0000
0000
0000
0000
,
0100
0001
2000
0000
0100
0000
0010
0000
,
3100
0010
0010
0000
0001
1000
1000
0000
,
0010
0000
0000
0010
0000
0000
0010
0000
0100
0000
0000
0100
0000
0000
0100
0000
,
0001
0000
0000
1000
0000
0000
0001
0000
1001
0000
0000
0000
0000
0000
0000
0000
,
0100
0000
0000
0001
0000
0000
0010
0000
0100
0000
0000
1000
0000
0000
0010
0000
,
1000
0000
0000
0100
0000
0000
0010
0000
0001
0000
0000
0000
0000
0000
0000
0000
,
1000
0000
0000
0010
0000
0000
0100
0000
0001
0000
0000
0100
0000
0000
0010
0000
,
1000
0000
0000
0001
0000
0000
1000
0000
0001
0010
0000
0100
0000
1000
0000
0000
,
1000
0001
0200
0000
0302
0000
1003
0100
,
0020
0130
0200
0310
,
0100
0010
0002
0000
0023
0000
0130
1000
,
0002
1003
2000
3001
,
0010
0100
2000
0000
3200
0000
0310
0001
,
2000
3001
0002
1003
,
0001
1000
0020
0000
2030
0000
3001
0010
,
0200
0310
0020
0130
,
1000
0010
1000
0010
0100
0001
0100
0000
,
0001
0010
0100
1000
0010
0000
1010
0000
,
0001
0010
0001
0010
0100
1000
0100
0000
,
1000
0001
0010
0000
0001
0000
0101
0000
,
0001
0100
0001
0100
0010
1000
0010
0000
,
1000
0100
0010
0001
0100
0000
0101
0000
,
1000
0100
1000
0100
0010
0001
0010
0000
,
2002
0000
0000
0000
,
0000
0000
0000
0000
,
3003
0000
0000
0000
;

//---------------dance-single - ----------------
#NOTES:
     dance-single:
     :
     Medium:
     8:
     0.289022,0.347495,0.206062,0.243528,0.065565,216.000000,194.000000,22.000000,26.000000,0.000000,0.000000,0.289022,0.347495,0.206062,0.243528,0.065565,216.000000,194.000000,22.000000,26.000000,0.000000,0.000000:
0000
0000
0000
0000
,
0000
0000
0000
0000
,
0000
0000
0000
0000
,
0000
0000
0000
0000
,
2000
3000
0020
0030
,
1000
0010
0001
0000
,
0002
0003
0020
0030
,
1000
0010
0001
0000
,
1000
0010
0000
0010
0000
0100
0000
0100
,
0000
0001
0000
0001
0000
0010
0000
0010
,
0000
0001
0000
0001
0000
1000
0000
1000
,
0002
0000
0000
0003
,
0001
0100
0000
0100
0000
0010
0000
0010
,
0000
1000
0000
1000
0000
0100
0000
0100
,
0000
1000
0000
1000
0000
0001
0000
0001
,
1000
0001
1000
0000
0001
1000
0001
0000
,
1000
0001
0010
0010
,
0001
0101
1000
1100
,
1000
0000
0000
1000
0000
0000
1000
0000
0001
0000
0000
0001
0000
0000
0001
0000
,
0100
0010
1001
0000
,
0001
1000
0100
0100
,
1000
1010
0001
0011
,
0001
0000
0000
0001
0000
0000
0001
0000
1000
0000
0000
1000
0000
0000
1000
0000
,
0010
0100
1001
0000
,
0100
0010
1000
0001
,
0001
0011
1000
1010
,
0100
0000
0000
0100
0000
0000
0100
0000
0010
0000
0000
0010
0000
0000
0010
0000
,
1000
0001
0110
0000
,
0010
0100
1000
0001
,
1000
1010
0001
0011
,
0010
0000
0000
0010
0000
0000
0010
0000
0100
0000
0000
0100
0000
0000
0100
0000
,
1000
0001
0110
0000
,
0100
0000
0000
0100
0000
0000
0000
0000
0100
0000
0000
0100
0000
0000
0000
0000
,
0010
0000
0000
0010
0000
0000
0000
0000
0110
0000
0000
0000
0000
0000
0000
0000
,
1000
0000
0000
1000
0000
0000
0000
0000
0001
0000
0000
0001
0000
0000
0000
0000
,
1000
0000
0000
1000
0000
0000
0000
0000
1100
0000
0000
0000
0000
0000
0000
0000
,
1000
0001
2000
0000
3002
0000
1003
0000
,
0100
0000
0010
0000
0100
1000
0100
0000
,
0001
0011
1000
1100
,
0001
0101
1000
1010
,
0001
1000
0002
0000
2003
0000
3001
0000
,
0010
0000
0100
0000
0010
0001
0010
0000
,
1000
1100
0001
0011
,
1000
1010
0001
0101
,
0010
0100
0020
0000
0230
0000
0310
0000
,
1000
0000
0001
0000
1000
0010
1000
0000
,
0200
2300
3020
0230
,
0302
2003
3002
0023
,
0130
0010
0200
0000
0320
0000
0130
0000
,
1000
0000
0001
0000
0100
0001
0100
0000
,
0020
2030
3002
0023
,
0200
0000
0000
0000
,
0000
0000
0000
0000
,
0330
0000
0000
0000
;

//---------------dance-single - ----------------
#NOTES:
     dance-single:
     :
     Easy:
     4:
     0.176625,0.223390,0.065565,0.224795,0.000000,132.000000,125.000000,7.000000,24.000000,0.000000,0.000000,0.176625,0.223390,0.065565,0.224795,0.000000,132.000000,125.000000,7.000000,24.000000,0.000000,0.000000:
0000
0000
0000
0000
,
0000
0000
0000
0000
,
0000
0000
0000
0000
,
0000
0000
0000
0000
,
2000
0000
3001
0000
,
0100
0100
0100
0000
,
0200
0000
0310
0000
,
0010
0010
0010
0000
,
0020
0000
1030
0000
,
0020
0000
0031
0000
,
0020
0000
0130
0000
,
0200
0010
0310
0000
,
0200
0000
0301
0000
,
0200
0000
1300
0000
,
0200
0000
0310
0000
,
0020
0100
0130
0000
,
0110
0100
0001
1000
,
0001
0010
0001
0000
,
1000
0000
1000
0000
,
0001
0001
0001
0000
,
1001
1000
0100
1000
,
0010
0100
0010
0000
,
0100
0000
0100
0000
,
0010
0010
0010
0000
,
0110
0010
1000
0001
,
1000
0100
1000
0000
,
0001
0000
0001
0000
,
1000
1000
1000
0000
,
1001
0001
0010
0001
,
0100
0010
0100
0000
,
0010
0000
0010
0000
,
0100
0100
0100
0000
,
2000
0000
3002
0000
,
0013
0010
0010
0000
,
0002
0000
2003
0000
,
3010
0010
0010
0000
,
2000
0000
3020
0000
,
1030
0010
1000
0000
,
0020
0000
0230
0000
,
0310
0100
0010
0000
,
0200
0000
0302
0000
,
0103
0001
0100
0000
,
0002
0000
2003
0000
,
3001
1000
0001
0000
,
1001
0000
0100
0000
,
0100
0100
0100
0000
,
0010
0000
1000
0000
,
0010
0010
0010
0000
,
0110
0000
0100
0000
,
0001
0001
0001
0000
,
1000
1000
1000
0000
,
2002
0000
0000
0000
,
0000
0000
0000
0000
,
3003
0000
0000
0000
;

//---------------dance-single - ----------------
#NOTES:
     dance-single:
     :
     Beginner:
     2:
     0.089650,0.191076,0.074932,0.074932,0.000000,67.000000,59.000000,8.000000,8.000000,0.000000,0.000000,0.089650,0.191076,0.074932,0.074932,0.000000,67.000000,59.000000,8.000000,8.000000,0.000000,0.000000:
// measure 0
0000
0000
0000
0000
,  // measure 1
0000
0000
0000
0000
,  // measure 2
0000
0000
0000
0000
,  // measure 3
0000
0000
0000
0000
,  // measure 4
2000
0000
0000
3000
,  // measure 5
1000
0000
0000
0000
,  // measure 6
0002
0000
0000
0003
,  // measure 7
0001
0000
0000
0000
,  // measure 8
0020
0000
0000
0030
,  // measure 9
0010
0000
0000
0000
,  // measure 10
0200
0000
0000
0300
,  // measure 11
0100
0000
0000
0000
,  // measure 12
0001
0000
0001
0000
,  // measure 13
1000
0000
1000
0000
,  // measure 14
0010
0000
0010
0000
,  // measure 15
0100
0000
0100
0000
,  // measure 16
0110
0000
0000
0000
,  // measure 17
0001
0000
0000
0000
,  // measure 18
1000
0000
0000
0000
,  // measure 19
0001
0000
0000
0000
,  // measure 20
1001
0000
0000
0000
,  // measure 21
0010
0000
0000
0000
,  // measure 22
0100
0000
0000
0000
,  // measure 23
0010
0000
0000
0000
,  // measure 24
0110
0000
0000
0000
,  // measure 25
1000
0000
0000
0000
,  // measure 26
0001
0000
0000
0000
,  // measure 27
1000
0000
0000
0000
,  // measure 28
1001
0000
0000
0000
,  // measure 29
0100
0000
0000
0000
,  // measure 30
0010
0000
0000
0000
,  // measure 31
0100
0000
0000
0000
,  // measure 32
1000
0000
0001
0000
,  // measure 33
0010
0000
0000
0000
,  // measure 34
0001
0000
1000
0000
,  // measure 35
0010
0000
0000
0000
,  // measure 36
1000
0000
0001
0000
,  // measure 37
0100
0000
0000
0000
,  // measure 38
0001
0000
1000
0000
,  // measure 39
0100
0000
0000
0000
,  // measure 40
0200
0000
0000
0300
,  // measure 41
0100
0000
0000
0000
,  // measure 42
0020
0000
0000
0030
,  // measure 43
0010
0000
0000
0000
,  // measure 44
0002
0000
0000
0003
,  // measure 45
0001
0000
0000
0000
,  // measure 46
2000
0000
0000
3000
,  // measure 47
1000
0000
0000
0000
,  // measure 48
0110
0000
0100
0000
,  // measure 49
1001
0000
0001
0000
,  // measure 50
1001
0000
1000
0000
,  // measure 51
1001
0000
0000
0000
;
