#TITLE:BLACK OUT;
#SUBTITLE:;
#ARTIST:VERBAL feat. Lil Wayne & 安室奈美恵;
#TITLETRANSLIT:;
#SUBTITLETRANSLIT:;
#ARTISTTRANSLIT:VERBAL feat. Lil Wayne & Namie Amuro;
#GENRE:;
#CREDIT:Chewi☆;
#MENUCOLOR:#FFFF00;
#METERTYPE:DDR X;
#BANNER:BLACK OUT.png;
#BACKGROUND:BLACK OUT-bg.png;
#LYRICSPATH:;
#CDTITLE:;
#MUSIC:BLACK OUT.mp3;
#OFFSET:-0.302;
#SAMPLESTART:14.510;
#SAMPLELENGTH:15.000;
#SELECTABLE:YES;
#LISTSORT:;
#BPMS:0.000=135.000;
#STOPS:;
#BGCHANGES:;
#ATTACKS:;

//---------------dance-single - Chewi----------------
#NOTES:
     dance-single:
     Chewi:
     Hard:
     11:
     0.573,0.631,0.435,0.263,0.109:
0000
0000
0000
0000
,
0000
0000
0000
0000
,
0000
0000
0000
0000
,
0000
0000
0000
0000
,
2000
0000
0000
0000
0000
0000
0000
0100
,
3200
0000
0010
0320
0000
0000
0000
0001
,
0031
1000
0010
0100
,
0001
0000
0100
0000
0010
0000
1000
0000
1000
0100
1000
0100
1000
0100
1000
0000
,
1001
0000
0000
1000
0000
0000
1000
0000
0000
0000
0100
0000
0010
0000
0001
0000
,
0101
0000
0000
0100
0000
0000
0100
0000
0000
0000
0010
0000
1000
0000
0001
0000
,
0011
0000
0000
0010
0000
0000
0010
0000
0000
0000
0100
0000
1000
0000
0010
0000
,
1100
0000
0000
0100
0000
0000
0100
0000
2002
0000
3003
0000
0202
0000
0303
0000
,
0101
0000
0000
0011
0000
0000
0010
0000
0001
0000
0010
0000
0100
0000
1000
0000
,
1010
0000
0000
1100
0000
0000
0100
0000
0010
0000
1000
0000
0100
0000
0010
0000
,
1001
0000
0000
0101
0000
0000
0010
0000
1000
0000
0001
0000
0100
0000
0001
0000
,
0011
0000
0000
1100
0000
0000
1000
0000
2020
0000
3030
0000
2200
0000
3300
0000
,
1000
1000
1000
0000
0100
0010
0001
0000
,
0100
0010
1000
0001
0000
1000
0001
0000
,
0001
0001
0001
0000
1000
0100
0010
0000
,
0100
1000
0010
1000
0000
0010
1000
0000
,
0010
0100
0001
1000
0100
0100
0100
0000
,
1000
0001
0100
0010
0010
0010
0010
0000
,
1010
0100
0001
0000
0011
0100
1000
0000
,
0001
1000
0010
0100
0001
1000
0100
0010
,
0001
1000
0010
0000
0001
0100
1000
0000
,
0010
0100
0001
0000
0010
0100
1000
0000
,
0001
0100
1000
0000
0010
0001
0100
0000
,
0010
0001
0100
0000
0010
1000
0100
0000
,
1000
0100
0010
0100
1000
0001
1001
0000
,
0001
0100
0010
0100
0001
1000
1001
0000
,
1000
0100
1000
0100
0010
0001
0100
0010
,
0100
0001
0100
0001
0100
0010
1000
0001
,
1000
0100
1000
0000
0001
0010
0100
1000
,
0001
0010
0001
1000
1000
0010
0100
0001
,
0100
0010
0100
0001
0001
1000
0100
0010
,
0001
0001
0010
0010
0100
1000
0010
0100
,
0001
0100
0010
1000
0100
0010
0001
1000
,
0001
1000
0001
1000
0010
0100
0010
0100
,
0010
0010
0100
0100
0001
0001
1000
1000
,
0001
0010
0100
1000
2002
3003
0220
0330
,
0110
0000
0000
1000
0000
0000
0010
0000
0100
0000
0001
0000
0010
0000
0100
0000
,
1100
0000
0000
0100
0000
0000
1000
0000
0010
0000
0100
0000
0001
0000
0100
0000
,
0110
0000
0000
0100
0000
0000
0010
0000
1000
0000
0001
0000
0010
0000
0100
0000
,
1100
0000
0000
0010
0000
0000
1000
0000
2200
0000
3300
0000
0022
0000
0033
0000
,
1001
0000
0000
0101
0000
0000
0100
0000
0010
0000
1000
0000
0001
0000
0010
0000
,
0011
0000
0000
1100
0000
0000
1000
0000
0100
0000
0010
0000
0001
0000
1000
0000
,
1010
0000
0000
0101
0000
0000
0100
0000
0010
0000
1000
0000
0001
0000
0010
0000
,
1100
0000
0000
1001
0000
0000
0001
0000
2002
0000
3003
0000
0220
0000
0330
0000
;

//---------------dance-single - Chewi----------------
#NOTES:
     dance-single:
     Chewi:
     Medium:
     7:
     0.347,0.356,0.275,0.034,0.000: // measure 1
0000
0000
0000
0000
,  // measure 2
0000
0000
0000
0000
,  // measure 3
0000
0000
0000
0000
,  // measure 4
0000
0000
0000
0000
,  // measure 5
2000
0000
0000
0000
0000
0000
0000
3001
,  // measure 6
0002
0000
1000
2000
0000
0000
0000
3003
,  // measure 7
1000
1000
0001
0001
,  // measure 8
1000
0001
1000
0001
1001
0000
1001
0000
,  // measure 9
1000
0100
0010
0001
,  // measure 10
1000
0100
0010
0001
,  // measure 11
1000
0010
0100
0001
,  // measure 12
0100
0010
1010
0101
,  // measure 13
1000
0100
0010
0100
,  // measure 14
1000
0010
0100
0001
,  // measure 15
0010
0100
0010
0001
,  // measure 16
0100
0010
0110
1001
,  // measure 17
1001
0000
1001
0000
,  // measure 18
1000
0100
0010
0001
0000
0010
0001
0000
,  // measure 19
0011
0000
1100
0000
,  // measure 20
0001
0010
0100
1000
0000
0100
1000
0000
,  // measure 21
0001
1000
0010
0110
,  // measure 22
0100
0010
1000
1001
,  // measure 23
1000
0100
0010
0001
,  // measure 24
0010
1000
0100
0001
,  // measure 25
0010
0000
0100
0000
0010
0001
0100
0000
,  // measure 26
0010
0000
0100
0000
0010
0100
0010
0000
,  // measure 27
0010
0000
0100
0000
0010
1000
0100
0000
,  // measure 28
1000
0000
0100
0000
0010
0001
0010
0000
,  // measure 29
0001
1000
0010
0010
,  // measure 30
1000
0001
0100
0100
,  // measure 31
0010
1010
0100
0101
,  // measure 32
0001
0010
0100
1000
,  // measure 33
0100
0000
0100
0000
0100
0010
0001
0000
,  // measure 34
0010
0000
0010
0000
0010
0100
1000
0000
,  // measure 35
0010
0100
0001
0101
,  // measure 36
0001
1000
0100
1100
,  // measure 37
1000
0100
0010
0001
,  // measure 38
1000
0100
1000
0000
0001
0100
0001
0000
,  // measure 39
0001
0100
0010
1000
,  // measure 40
1000
0010
1000
0000
0001
0010
0001
0000
,  // measure 41
0011
0101
0100
0010
,  // measure 42
1000
0100
0001
0010
,  // measure 43
1000
0010
0001
0100
,  // measure 44
1000
0010
1010
0101
,  // measure 45
1001
1100
0001
0010
,  // measure 46
0100
1000
0001
0100
,  // measure 47
1000
0100
0001
0010
,  // measure 48
0100
1000
1100
1010
;

//---------------dance-single - Chewi----------------
#NOTES:
     dance-single:
     Chewi:
     Beginner:
     2:
     0.085,0.137,0.069,0.000,0.000:
0000
0000
0000
0000
,
0000
0000
0000
0000
,
0000
0000
0000
0000
,
0000
0000
0000
0000
,
1000
0000
0000
0000
,
0100
0000
0000
0000
,
0010
0000
0000
0000
,
0001
0000
0000
0000
,
1000
0000
0000
0000
,
0001
0000
0000
0000
,
1000
0000
0000
0000
,
0001
0000
0000
0000
,
1000
0000
0000
0000
,
0001
0000
0000
0000
,
0100
0000
0000
0000
,
0010
0000
0000
0000
,
0110
0000
0000
0000
,
0100
0000
0000
0000
,
1001
0000
0000
0000
,
1000
0000
0000
0000
,
1000
0000
0000
0000
,
0010
0000
0000
0000
,
1000
0000
0000
0000
,
0010
0000
0000
0000
,
0001
0000
0000
0000
,
0010
0000
0000
0000
,
0001
0000
0000
0000
,
0010
0000
0000
0000
,
1000
0000
0000
0000
,
0001
0000
0000
0000
,
0010
0000
0000
0000
,
0100
0000
0000
0000
,
0110
0000
0000
0000
,
0001
0000
0000
0000
,
1001
0000
0000
0000
,
1000
0000
0000
0000
,
0110
0000
0000
0000
,
0010
0000
0000
0000
,
1001
0000
0000
0000
,
0001
0000
0000
0000
,
1000
0000
0000
0000
,
0001
0000
0000
0000
,
0100
0000
0000
0000
,
0010
0000
0000
0000
,
1000
0000
0000
0000
,
0001
0000
0000
0000
,
1000
0000
0000
0000
,
0001
0000
0001
0001
;

//---------------dance-single - Chewi----------------
#NOTES:
     dance-single:
     Chewi:
     Easy:
     4:
     0.216,0.273,0.149,0.046,0.000: // measure 1
0000
0000
0000
0000
,  // measure 2
0000
0000
0000
0000
,  // measure 3
0000
0000
0000
0000
,  // measure 4
0000
0000
0000
0000
,  // measure 5
2000
0000
0000
0000
,  // measure 6
3200
0000
0000
0000
,  // measure 7
0320
0000
0000
0000
,  // measure 8
0032
0000
0000
0000
,  // measure 9
1003
0010
1000
0000
,  // measure 10
0001
0100
0001
0000
,  // measure 11
1000
0100
1000
0000
,  // measure 12
0001
0010
0001
0000
,  // measure 13
1000
0001
1000
0000
,  // measure 14
0001
1000
0001
0000
,  // measure 15
0100
0010
0100
0000
,  // measure 16
0010
0100
0010
0000
,  // measure 17
0110
0000
0110
0000
,  // measure 18
0100
0100
0100
0000
,  // measure 19
1001
0000
1001
0000
,  // measure 20
1000
1000
1000
0000
,  // measure 21
1000
0000
0100
0000
,  // measure 22
0010
0000
0001
0000
,  // measure 23
1000
0000
0100
0000
,  // measure 24
0010
0000
0001
0000
,  // measure 25
0001
0000
0100
0000
,  // measure 26
0010
0000
1000
0000
,  // measure 27
0001
0000
0100
0000
,  // measure 28
0010
0000
1000
0000
,  // measure 29
1000
1000
1000
0000
,  // measure 30
0001
0001
0001
0000
,  // measure 31
0010
0100
0010
0000
,  // measure 32
0100
0010
0100
0000
,  // measure 33
0110
0000
0110
0000
,  // measure 34
0001
0010
0100
1000
,  // measure 35
1001
0000
1001
0000
,  // measure 36
1000
0010
0100
0001
,  // measure 37
0110
0000
0110
0000
,  // measure 38
0010
1000
0001
1000
,  // measure 39
1001
0000
1001
0000
,  // measure 40
0001
0010
0100
1000
,  // measure 41
1000
0100
1000
0000
,  // measure 42
0001
0100
0001
0000
,  // measure 43
0100
0010
0100
0000
,  // measure 44
0010
0100
0010
0000
,  // measure 45
1000
0010
1000
0000
,  // measure 46
0001
0100
0001
0000
,  // measure 47
1000
0100
1000
0000
,  // measure 48
0001
0010
0001
1001
