#TITLE:BLACK DIAMOND;
#SUBTITLE:;
#ARTIST:DOUBLE & 安室奈美恵;
#TITLETRANSLIT:;
#SUBTITLETRANSLIT:;
#ARTISTTRANSLIT:DOUBLE & NAMIE AMURO;
#GENRE:;
#CREDIT:Chewi☆;
#MENUCOLOR:#FFFFFF;
#METERTYPE:DDR X;
#BANNER:BLACK DIAMOND.png;
#BACKGROUND:BLACK DIAMOND-bg.png;
#LYRICSPATH:;
#CDTITLE:./CDTITLES/DanceDanceRevolution skyMIX3 -breeze-.png;
#MUSIC:BLACK DIAMOND.mp3;
#OFFSET:-0.697;
#SAMPLESTART:41.652;
#SAMPLELENGTH:15.000;
#SELECTABLE:YES;
#LISTSORT:;
#DISPLAYBPM:118.000;
#BPMS:0.000=118.000;
#STOPS:;
#BGCHANGES:;
#ATTACKS:;

//---------------dance-single - Chewi----------------
#NOTES:
     dance-single:
     Chewi:
     Beginner:
     2:
     0.094,0.140,0.011,0.064,0.000: // measure 1
0000
0000
0000
0000
,  // measure 2
0000
0000
0000
0000
,  // measure 3
0000
0000
0000
0000
,  // measure 4
0000
0000
0000
0000
,  // measure 5
0010
0000
0000
0000
,  // measure 6
0100
0000
0000
0000
,  // measure 7
1000
0000
0000
0000
,  // measure 8
0001
0000
0000
0000
,  // measure 9
0001
0000
0000
0000
,  // measure 10
1000
0000
0000
0000
,  // measure 11
0100
0000
0000
0000
,  // measure 12
0010
0000
0010
0000
,  // measure 13
2000
0000
0000
3000
,  // measure 14
1000
0000
0000
0000
,  // measure 15
1000
0000
0000
0000
,  // measure 16
0001
0000
0010
0000
,  // measure 17
0002
0000
0000
0003
,  // measure 18
0001
0000
0000
0000
,  // measure 19
0100
0000
0000
0000
,  // measure 20
0100
0000
0000
0000
,  // measure 21
0010
0000
0010
0000
,  // measure 22
1000
0000
0001
0000
,  // measure 23
0100
0000
0100
0000
,  // measure 24
0001
0000
1000
0000
,  // measure 25
0010
0000
0010
0000
,  // measure 26
1000
0000
0000
0000
,  // measure 27
0100
0000
0100
0000
,  // measure 28
0001
0001
0001
0000
,  // measure 29
0001
0000
0001
0000
,  // measure 30
0010
0000
0100
0000
,  // measure 31
1000
0000
1000
0000
,  // measure 32
0100
0000
0010
0000
,  // measure 33
0001
0000
0001
0000
,  // measure 34
0010
0000
0000
0000
,  // measure 35
1000
0000
1000
0000
,  // measure 36
0100
0100
0100
0000
,  // measure 37
0020
0000
0000
0030
,  // measure 38
0000
0000
0000
0000
,  // measure 39
2000
0000
0000
3000
,  // measure 40
0000
0000
0000
0000
,  // measure 41
0002
0000
0000
0003
,  // measure 42
0000
0000
0000
0000
,  // measure 43
0200
0000
0000
0300
,  // measure 44
0000
0000
0000
0000
,  // measure 45
0110
0000
0000
0000
;

//---------------dance-single - Chewi----------------
#NOTES:
     dance-single:
     Chewi:
     Easy:
     3:
     0.194,0.218,0.000,0.138,0.000: // measure 1
0000
0000
0000
0000
,  // measure 2
0000
0000
0000
0000
,  // measure 3
0000
0000
0000
0000
,  // measure 4
0000
0000
0000
0000
,  // measure 5
0010
0010
0100
0000
,  // measure 6
0100
0100
0010
0000
,  // measure 7
1000
0100
1000
0000
,  // measure 8
0001
0010
0001
0000
,  // measure 9
0001
0001
1000
0000
,  // measure 10
1000
1000
0001
0000
,  // measure 11
0100
0010
0100
0000
,  // measure 12
0010
0100
0010
0000
,  // measure 13
2000
0000
3002
0000
,  // measure 14
0203
0000
0302
0000
,  // measure 15
1003
0000
0100
0000
,  // measure 16
0001
0000
0010
0000
,  // measure 17
2000
0000
3002
0000
,  // measure 18
2003
0000
3020
0000
,  // measure 19
0130
0000
1000
0000
,  // measure 20
0100
0000
0001
0000
,  // measure 21
0010
0010
0010
0000
,  // measure 22
1000
0100
0001
0100
,  // measure 23
0100
0100
0100
0000
,  // measure 24
0001
0010
1000
0010
,  // measure 25
0010
0010
0010
0000
,  // measure 26
1000
0100
0001
0010
,  // measure 27
0100
0000
0010
0000
,  // measure 28
0001
1000
0001
1000
,  // measure 29
0001
0001
0001
0000
,  // measure 30
0010
1000
0100
1000
,  // measure 31
1000
1000
1000
0000
,  // measure 32
0100
0001
0010
0001
,  // measure 33
0001
0001
0001
0000
,  // measure 34
0010
1000
0100
0001
,  // measure 35
1000
0000
0001
0000
,  // measure 36
0100
0010
0100
0010
,  // measure 37
0020
0000
0000
0030
,  // measure 38
0010
0100
0010
0100
,  // measure 39
2000
0000
0000
3000
,  // measure 40
1000
0001
1000
0001
,  // measure 41
0002
0000
0000
0003
,  // measure 42
0001
1000
0001
1000
,  // measure 43
0200
0000
0000
0300
,  // measure 44
0100
0010
0100
0010
,  // measure 45
0200
0000
0000
0000
,  // measure 46
0000
0000
0000
0300
;

//---------------dance-single - Chewi----------------
#NOTES:
     dance-single:
     Chewi:
     Medium:
     6:
     0.277,0.291,0.064,0.148,0.000: // measure 1
0000
0000
0000
0000
,  // measure 2
0000
0000
0000
0000
,  // measure 3
0000
0000
0000
0000
,  // measure 4
0000
0000
0000
0000
,  // measure 5
1000
0100
0010
0001
,  // measure 6
1000
0010
1000
0010
,  // measure 7
0001
0100
0010
1000
,  // measure 8
0100
1000
0100
1000
,  // measure 9
0001
1000
0100
0001
,  // measure 10
1000
0001
0100
0001
,  // measure 11
0100
0010
1000
0100
,  // measure 12
0010
0100
0001
0010
,  // measure 13
0200
0000
0320
0000
,  // measure 14
0032
0000
2003
0000
,  // measure 15
3010
0000
0010
0000
0010
0100
0010
0000
,  // measure 16
0100
0000
0100
0000
0010
0100
0010
0000
,  // measure 17
2000
0000
3020
0000
,  // measure 18
0230
0000
0302
0000
,  // measure 19
1003
0000
0100
0000
1000
0100
1000
0000
,  // measure 20
0001
0000
0100
0000
0001
0100
0001
0000
,  // measure 21
0002
0000
1003
0000
0010
0100
0010
0000
,  // measure 22
0100
0001
0010
1000
,  // measure 23
0100
0010
0100
1000
,  // measure 24
0100
0010
0100
0001
,  // measure 25
0200
0000
0310
0000
0001
0100
0010
0000
,  // measure 26
1000
0010
0100
0001
,  // measure 27
0100
0000
0010
0000
1000
0001
1000
0000
,  // measure 28
0100
0000
0010
0000
0100
0010
0100
0000
,  // measure 29
0002
0000
0013
0000
0100
1000
0100
0000
,  // measure 30
0010
1000
0100
0001
,  // measure 31
0100
0010
0100
1000
,  // measure 32
0200
0000
0310
0000
0100
0010
0001
0000
,  // measure 33
0010
1000
0100
0001
,  // measure 34
0010
0100
0010
0100
,  // measure 35
1000
1100
0001
0101
,  // measure 36
1000
0001
0100
0020
,  // measure 37
0000
0000
0000
0030
,  // measure 38
1000
1000
1000
1100
,  // measure 39
0001
0001
0001
0011
,  // measure 40
0100
0010
0100
0000
0010
0100
0010
0000
,  // measure 41
0001
0001
0001
0011
,  // measure 42
1000
1000
1000
1010
,  // measure 43
0010
0100
0010
0000
0100
0010
0100
0000
,  // measure 44
1000
0100
0010
0001
,  // measure 45
0200
0000
0000
0000
,  // measure 46
0000
0000
0000
0000
0000
0000
0000
0000
0000
0000
0000
0000
0000
0000
0000
0000
0000
0000
0000
0000
0000
0000
0000
0000
0000
0000
0000
0000
0000
0000
0000
0000
0000
0000
0000
0000
0000
0000
0000
0000
0000
0000
0000
0000
0000
0000
0000
0000
0000
0000
0000
0000
0000
0000
0000
0000
0000
0000
0000
0000
0000
0000
0000
0000
0000
0000
0000
0000
0000
0000
0000
0000
0000
0000
0000
0000
0000
0000
0000
0000
0000
0000
0000
0000
0000
0000
0000
0000
0000
0000
0000
0000
0000
0000
0000
0000
0000
0000
0000
0000
0000
0000
0000
0000
0000
0000
0000
0000
0000
0000
0000
0000
0000
0000
0000
0000
0000
0000
0000
0000
0000
0000
0000
0000
0000
0000
0000
0000
0000
0000
0000
0000
0000
0000
0000
0000
0000
0000
0000
0000
0000
0000
0000
0000
0000
0300
0000
0000
0000
0000
0000
0000
0000
0000
0000
0000
0000
0000
0000
0000
0000
0000
0000
0000
0000
0000
0000
0000
0000
0000
0000
0000
0000
0000
0000
0000
0000
0000
0000
0000
0000
0000
0000
0000
0000
0000
0000
0000
0000
0000
0000
0000
;

//---------------dance-single - Chewi----------------
#NOTES:
     dance-single:
     Chewi:
     Hard:
     9:
     0.318,0.364,0.106,0.117,0.000: // measure 1
0000
0000
0000
0000
,  // measure 2
0000
0000
0000
0000
,  // measure 3
0000
0000
0000
0000
,  // measure 4
0000
0000
0000
0000
,  // measure 5
1000
0000
0100
0000
0001
1000
0100
0000
,  // measure 6
0001
0000
0100
0000
1000
0001
0100
0000
,  // measure 7
0010
0000
0100
0000
0001
0010
0100
0000
,  // measure 8
0010
0000
0100
0000
1000
0100
0010
0000
,  // measure 9
0001
0000
1000
0000
0010
0001
0100
0000
,  // measure 10
0001
0000
1000
0000
0010
1000
0100
0000
,  // measure 11
0010
0000
0100
0000
1000
0001
0100
0000
,  // measure 12
0010
0000
0100
0000
0001
1000
0100
0000
,  // measure 13
0002
0000
0023
0000
,  // measure 14
2030
0000
3020
0000
,  // measure 15
0130
0000
0010
0000
0100
0010
1000
0000
,  // measure 16
0100
0000
0010
0000
0100
0010
0001
0000
,  // measure 17
2000
0000
3002
0000
,  // measure 18
0203
0000
2300
0000
,  // measure 19
3010
0001
0010
1000
,  // measure 20
0100
0000
0001
0000
0010
0100
0010
0000
,  // measure 21
0100
0000
0101
0000
0001
0010
0100
0000
,  // measure 22
1000
1000
0100
0100
1000
0001
0100
0000
,  // measure 23
0010
0000
0100
0000
0001
1000
0001
0000
,  // measure 24
0010
0000
0100
0000
0010
0100
0010
0000
,  // measure 25
0001
0000
1100
0000
1000
0100
1000
0000
,  // measure 26
1000
1000
0001
0001
0001
0100
1000
0000
,  // measure 27
1000
0110
1001
1010
,  // measure 28
0100
0010
0001
0000
0001
1000
0001
1000
,  // measure 29
0010
0000
1010
0000
1000
0100
0010
0000
,  // measure 30
0001
0001
0010
0010
0001
1000
0010
0000
,  // measure 31
0100
0000
0010
0000
1000
0001
1000
0000
,  // measure 32
0100
0000
0010
0000
0100
0010
0100
0000
,  // measure 33
1000
0000
0011
0000
0001
0010
0001
0000
,  // measure 34
0001
0001
1000
1000
1000
0010
0001
0000
,  // measure 35
0001
0110
1001
0101
,  // measure 36
0010
0100
1000
0000
1000
0001
2000
0000
,  // measure 37
0002
0000
0000
0000
,  // measure 38
0000
0000
0000
3003
,  // measure 39
0010
0000
1000
0000
0000
0100
0000
0001
,  // measure 40
0010
0001
0100
0000
0010
1000
0100
0000
,  // measure 41
0010
0000
0100
0000
0000
0010
0000
1000
,  // measure 42
0010
1000
0100
0000
0010
0001
0100
0000
,  // measure 43
0100
0000
0001
0000
0100
0010
1000
0000
,  // measure 44
0100
0000
0001
0000
0010
1000
0010
0001
,  // measure 45
0020
0000
0000
0000
,  // measure 46
0000
0000
0000
0030
;
