#TITLE:BECAUSE OF YOU;
#SUBTITLE:;
#ARTIST:Sweet Vacation;
#TITLETRANSLIT:;
#SUBTITLETRANSLIT:;
#ARTISTTRANSLIT:;
#CREDIT:Chewi☆;
#BANNER:BECAUSE OF YOU.png;
#BACKGROUND:BECAUSE OF YOU-bg.png;
#LYRICSPATH:;
#CDTITLE:;
#MUSIC:BECAUSE OF YOU.mp3;
#OFFSET:-0.525;
#SAMPLESTART:30.291;
#SAMPLELENGTH:15.000;
#SELECTABLE:YES;
#DISPLAYBPM:123.000;
#BPMS:0.000=123.000;
#STOPS:;
#BGCHANGES:;

//---------------dance-single - Chewi----------------
#NOTES:
     dance-single:
     Chewi:
     Beginner:
     1:
     0.068,0.116,0.052,0.000,0.000: // measure 1
0000
0000
0000
0000
,  // measure 2
0000
0000
0000
0000
,  // measure 3
0000
0000
0000
0000
,  // measure 4
0000
0000
0000
0000
,  // measure 5
1000
0000
0000
0000
,  // measure 6
0001
0000
0000
0000
,  // measure 7
0100
0000
0000
0000
,  // measure 8
0010
0000
0000
0000
,  // measure 9
1000
0000
0000
0000
,  // measure 10
1000
0000
0000
0000
,  // measure 11
0001
0000
0000
0000
,  // measure 12
0001
0000
0000
0000
,  // measure 13
0010
0000
0000
0000
,  // measure 14
0100
0000
0000
0000
,  // measure 15
0010
0000
0000
0000
,  // measure 16
0001
0000
0000
0000
,  // measure 17
1000
0000
0000
0000
,  // measure 18
0001
0000
0000
0000
,  // measure 19
1000
0000
0000
0000
,  // measure 20
0001
0000
0000
0000
,  // measure 21
0100
0000
0000
0000
,  // measure 22
0010
0000
0000
0000
,  // measure 23
0100
0000
0000
0000
,  // measure 24
0010
0000
0000
0000
,  // measure 25
1000
0000
0000
0000
,  // measure 26
0001
0000
0000
0000
,  // measure 27
0100
0000
0000
0000
,  // measure 28
0001
0000
0000
0000
,  // measure 29
0010
0000
0000
0000
,  // measure 30
0010
0000
0000
0000
,  // measure 31
0001
0000
0000
0000
,  // measure 32
1001
0000
0000
0000
,  // measure 33
0010
0000
0000
0000
,  // measure 34
1001
0000
0000
0000
,  // measure 35
0010
0000
0000
0000
,  // measure 36
1001
0000
0000
0000
,  // measure 37
0110
0000
0000
0000
;

//---------------dance-single - Chewi----------------
#NOTES:
     dance-single:
     Chewi:
     Easy:
     3:
     0.142,0.203,0.039,0.180,0.000: // measure 1
0000
0000
0000
0000
,  // measure 2
0000
0000
0000
0000
,  // measure 3
0000
0000
0000
0000
,  // measure 4
0000
0000
0000
0000
,  // measure 5
2000
0000
3002
0000
,  // measure 6
2003
0000
3002
0000
,  // measure 7
0203
0000
0320
0000
,  // measure 8
0230
0000
0320
0000
,  // measure 9
1030
0000
1000
1000
,  // measure 10
2000
0000
0000
3000
,  // measure 11
0001
0000
0010
0000
,  // measure 12
0001
0000
0100
0000
,  // measure 13
0010
0000
1000
0000
,  // measure 14
0100
0000
1000
0000
,  // measure 15
0010
0000
0100
0000
,  // measure 16
0002
0000
0000
0003
,  // measure 17
2000
0000
0000
3000
,  // measure 18
0002
0000
0000
0003
,  // measure 19
1000
0000
1000
0000
,  // measure 20
0001
0000
0001
0000
,  // measure 21
0200
0000
0000
0300
,  // measure 22
0020
0000
0000
0030
,  // measure 23
0100
0000
0100
0000
,  // measure 24
0010
0000
0010
0000
,  // measure 25
1000
1000
0001
0000
,  // measure 26
0001
0000
0010
0000
,  // measure 27
0100
0100
0010
0000
,  // measure 28
0001
0000
1000
0000
,  // measure 29
0010
0010
1000
0000
,  // measure 30
0010
0000
0100
0000
,  // measure 31
0001
0001
1000
0000
,  // measure 32
1001
0000
0000
0000
,  // measure 33
0010
0000
1000
0000
,  // measure 34
1001
0000
0000
0000
,  // measure 35
0010
0000
0001
0000
,  // measure 36
1001
0000
0000
0000
;

//---------------dance-single - Chewi----------------
#NOTES:
     dance-single:
     Chewi:
     Medium:
     7:
     0.305,0.366,0.283,0.180,0.000: // measure 1
0000
0000
0000
0000
,  // measure 2
0000
0000
0000
0000
,  // measure 3
0000
0000
0000
0000
,  // measure 4
0000
0000
0000
0000
,  // measure 5
2000
0000
3200
0000
,  // measure 6
0320
0000
0032
0000
,  // measure 7
2003
0000
3002
0000
,  // measure 8
0203
0000
0320
0000
,  // measure 9
0130
0010
1000
0001
,  // measure 10
1002
0010
1000
0103
,  // measure 11
1000
0100
0010
0001
,  // measure 12
1000
0100
0001
0100
,  // measure 13
0010
0100
0001
1000
,  // measure 14
1020
1000
0100
1030
,  // measure 15
0010
0010
0010
0000
0100
0001
0010
0000
,  // measure 16
0001
1001
1000
1001
,  // measure 17
2000
0100
0001
3100
,  // measure 18
0002
0100
1000
0103
,  // measure 19
0010
1000
0001
0000
1000
0001
0100
0000
,  // measure 20
0001
1000
0100
0000
1000
0100
0010
0000
,  // measure 21
0002
0010
0100
1003
,  // measure 22
2000
0010
0100
3001
,  // measure 23
1000
0001
0010
0000
0001
1000
0010
0000
,  // measure 24
1000
0010
0100
0000
0010
0100
0001
0000
,  // measure 25
0011
0011
0011
0011
,  // measure 26
0010
0100
1000
0000
0100
1000
0010
0000
,  // measure 27
1010
1010
1010
1010
,  // measure 28
0010
0100
0001
0000
0100
0001
0100
0000
,  // measure 29
0101
0101
0101
0101
,  // measure 30
0001
0010
0001
0000
0010
0100
1000
0000
,  // measure 31
1100
0000
1001
0000
,  // measure 32
1000
0000
0001
1000
0100
0000
0000
0000
,  // measure 33
1001
0000
0101
0000
,  // measure 34
0001
0000
1000
0001
0010
0000
0000
0000
,  // measure 35
0110
0000
1001
0000
,  // measure 36
0010
0000
0100
0001
1000
0000
0000
0000
;

//---------------dance-single - Chewi----------------
#NOTES:
     dance-single:
     Chewi:
     Hard:
     10:
     0.396,0.414,0.258,0.232,0.000: // measure 1
0000
0000
0000
0000
,  // measure 2
0000
0000
0000
0000
,  // measure 3
0000
0000
0000
0000
,  // measure 4
0000
0000
0000
0000
,  // measure 5
1000
2000
3000
0000
0100
0200
0300
0000
,  // measure 6
0010
0020
0030
0000
0001
0002
0003
0000
,  // measure 7
0100
0200
0300
0000
0010
0020
0030
0000
,  // measure 8
1000
2000
3000
0000
0001
0002
0003
0000
,  // measure 9
1000
0100
0001
0000
0100
0001
0010
0000
,  // measure 10
0001
0010
1000
0000
0010
1000
0100
0000
,  // measure 11
0010
0001
1000
0000
0001
1000
0010
0000
,  // measure 12
1000
0010
0100
0000
0010
0100
0001
0000
,  // measure 13
0100
0010
1000
0000
0010
1000
0001
0000
,  // measure 14
1000
0100
0010
0000
0100
1000
0100
0000
,  // measure 15
1000
0001
0010
0000
0001
0010
0001
0000
,  // measure 16
1000
0100
0001
0100
1000
0010
0001
0010
,  // measure 17
2000
0000
3100
0000
1000
0100
0010
0001
,  // measure 18
0002
0000
1003
0000
1000
0010
0100
0001
,  // measure 19
0001
0001
0101
0000
1000
1000
1100
0000
,  // measure 20
0001
0001
0011
0000
1000
1000
1010
0000
,  // measure 21
0002
0000
0013
0000
0001
0010
0100
1000
,  // measure 22
2000
0000
3001
0000
0001
0100
0010
1000
,  // measure 23
1000
1000
1010
0000
0001
0001
0011
0000
,  // measure 24
1000
1000
1100
0000
0001
0001
0101
0000
,  // measure 25
0011
0011
1100
1100
,  // measure 26
1000
0100
0001
1000
0010
0001
1000
0001
,  // measure 27
0101
0101
1010
1010
,  // measure 28
1000
0010
0001
1000
0100
0001
1000
0001
,  // measure 29
1100
1100
0011
0011
,  // measure 30
0001
0010
1000
0010
0001
0100
1000
0100
,  // measure 31
0002
0000
0103
0000
2000
0000
3100
0010
,  // measure 32
0001
0100
1000
0010
,  // measure 33
0002
0000
0013
0000
2000
0000
3010
0100
,  // measure 34
0001
0010
1000
0100
,  // measure 35
0002
0000
0103
0000
2000
0000
3100
1000
,  // measure 36
0010
0001
0100
1000
;
