#VERSION:0.83;
#TITLE:BAD GIRL feat.DEV (The Cataracs remix);
#SUBTITLE:;
#ARTIST:少女時代;
#TITLETRANSLIT:;
#SUBTITLETRANSLIT:;
#ARTISTTRANSLIT:Girls' Generation;
#GENRE:Electronic;
#ORIGIN:;
#CREDIT:chewi;
#BANNER:BAD GIRL feat.DEV (The Cataracs remix).png;
#BACKGROUND:BAD GIRL feat.DEV (The Cataracs remix)-bg.png;
#PREVIEWVID:;
#JACKET:BAD GIRL feat.DEV (The Cataracs remix)-jacket.png;
#CDIMAGE:;
#DISCIMAGE:;
#LYRICSPATH:;
#CDTITLE:cdtitle.png;
#MUSIC:BAD GIRL feat.DEV (The Cataracs remix).ogg;
#OFFSET:-2.306000;
#SAMPLESTART:67.586998;
#SAMPLELENGTH:15.000000;
#SELECTABLE:YES;
#DISPLAYBPM:125.000000;
#BPMS:0.000=125.000;
#STOPS:164.000=1.440;
#DELAYS:;
#WARPS:;
#TIMESIGNATURES:0.000=4=4;
#TICKCOUNTS:0.000=4;
#COMBOS:0.000=1;
#SPEEDS:0.000=1.000=0.000=0;
#SCROLLS:0.000=1.000;
#FAKES:;
#LABELS:0.000=Song Start;
#BGCHANGES:;
#KEYSOUNDS:;
#ATTACKS:
;

//---------------dance-single - ----------------
#NOTEDATA:;
#CHARTNAME:;
#STEPSTYPE:dance-single;
#DESCRIPTION:;
#CHARTSTYLE:;
#DIFFICULTY:Beginner;
#METER:2;
#RADARVALUES:0.096714,0.132130,0.061545,0.000000,0.000000,88.000000,80.000000,8.000000,0.000000,0.000000,0.000000,0.000000,0.000000,0.000000,0.096714,0.132130,0.061545,0.000000,0.000000,88.000000,80.000000,8.000000,0.000000,0.000000,0.000000,0.000000,0.000000,0.000000;
#CREDIT:;
#DISPLAYBPM:125.000000;
#NOTES:
0000
0000
0000
0000
,
0000
0000
0000
0000
,
0000
0000
0000
0000
,
0000
0000
0000
0000
,
0010
0000
0000
0000
,
1000
0000
0000
0000
,
0100
0000
0000
0000
,
0001
0000
0000
0000
,
0000
0001
0000
0001
,
0000
0001
0000
0001
,
0000
1000
0000
1000
,
0000
1000
0000
1000
,
0000
0010
0000
0010
,
0000
0000
0000
0000
,
0100
0000
0000
0000
,
0100
0000
0000
0000
,
0010
0000
0000
0000
,
0010
0000
0000
0000
,
1000
0000
0000
0000
,
1000
0000
0000
0000
,
0001
0000
0000
0000
,
0001
0000
0000
0000
,
0001
0000
0010
0000
,
0001
0000
0000
0000
,
1000
0000
0010
0000
,
1000
0000
0000
0000
,
0001
0000
0010
0000
,
0001
0000
0000
0000
,
1000
0000
0010
0000
,
1000
0000
0000
0000
,
1000
0000
0000
0000
,
0001
0000
0000
0000
,
1000
0000
0001
0000
,
1000
0000
0001
0000
,
1001
0000
0000
0000
,
0110
0000
0000
0010
,
0010
0000
0000
0000
,
1000
0000
0001
0000
,
0110
0000
0000
0000
,
1001
0000
0000
0100
,
0100
0000
0000
0000
,
0000
1001
0000
0000
,
0000
0110
0000
0000
,
0010
0010
0000
0000
,
0000
1000
0000
0001
,
0000
0110
0000
0000
,
0000
1001
0000
0000
,
0100
0100
0000
0000
,
0000
0010
0010
0000
,
0010
0000
1000
0000
,
1000
0000
1000
0000
,
1000
0000
0001
0000
,
0001
0000
0001
0000
,
0001
0000
0010
0000
,
0010
0000
0010
0000
,
0010
0000
0100
0000
,
0100
0000
0100
0000
,
0100
0100
0000
0000
;

//---------------dance-single - ----------------
#NOTEDATA:;
#CHARTNAME:;
#STEPSTYPE:dance-single;
#DESCRIPTION:;
#CHARTSTYLE:;
#DIFFICULTY:Hard;
#METER:10;
#RADARVALUES:0.381360,0.408505,0.092318,0.015386,0.061545,347.000000,335.000000,12.000000,2.000000,0.000000,0.000000,0.000000,0.000000,0.000000,0.381360,0.408505,0.092318,0.015386,0.061545,347.000000,335.000000,12.000000,2.000000,0.000000,0.000000,0.000000,0.000000,0.000000;
#CREDIT:;
#DISPLAYBPM:125.000000;
#NOTES:
// measure 0
0000
0000
0000
0000
,  // measure 1
0000
0000
0000
0000
,  // measure 2
0000
0000
0000
0000
,  // measure 3
0000
0000
0000
0000
,  // measure 4
1000
0000
0100
0000
0010
0100
1000
0000
,  // measure 5
0010
0100
0001
0101
,  // measure 6
0001
0000
0100
0000
0010
0100
0001
0000
,  // measure 7
0010
0100
1000
1100
,  // measure 8
1000
0100
1000
1000
0100
0010
0100
0100
,  // measure 9
0010
0001
0010
0010
0001
0100
0001
0001
,  // measure 10
0100
0010
0100
0100
0010
1000
0010
0010
,  // measure 11
1000
0010
1000
1000
0010
0100
0010
0010
,  // measure 12
0110
0100
0001
1000
,  // measure 13
0010
0000
0000
0000
0100
0100
0100
0100
,  // measure 14
0010
0000
0000
1000
0000
0000
0010
0000
0000
1000
0000
0000
0010
0000
0010
0000
,  // measure 15
0100
0000
0000
0001
0000
0000
0100
0000
0000
0001
0000
0000
0100
0000
0100
0000
,  // measure 16
0010
0000
0000
1000
0000
0000
0001
0000
0000
0010
0000
0000
0100
0000
0100
0000
,  // measure 17
1000
0000
0000
0001
0000
0000
0010
0000
0000
0001
0000
0000
1000
0000
1000
0000
,  // measure 18
0001
0000
0000
1000
0000
0000
0001
0000
0000
1000
0000
0000
0001
0000
0001
0000
,  // measure 19
0100
0000
0000
0010
0000
0000
0100
0000
0000
0010
0000
0000
0100
0000
0100
0000
,  // measure 20
0010
0000
0000
1000
0000
0000
0100
0000
0000
1000
0000
0000
0001
0000
0001
0000
,  // measure 21
0010
0000
0000
0001
0000
0000
0100
0000
0000
0001
0000
0000
0010
0000
0010
0000
,  // measure 22
0001
0000
0001
0000
0010
0010
0010
0000
,  // measure 23
0100
1000
0100
1000
0010
0000
1010
0000
,  // measure 24
1000
0000
1000
0000
0010
0010
0010
0000
,  // measure 25
0100
0001
0100
0010
0100
0000
0101
0000
,  // measure 26
0001
0000
1000
0000
0100
0100
0010
0010
,  // measure 27
0100
0000
1000
0000
0010
0010
0100
0100
,  // measure 28
0001
0000
0100
0000
0010
0010
1000
1000
,  // measure 29
0010
0100
0001
0010
0100
1000
0001
1000
,  // measure 30
0100
0000
0100
0000
,  // measure 31
0100
0000
0100
0000
,  // measure 32
0100
0100
0010
0010
0001
0001
1000
1000
,  // measure 33
0010
0100
0001
1000
0010
0100
0001
0000
,  // measure 34
0101
0000
0100
0010
0100
0001
0100
0010
,  // measure 35
1000
0000
0100
0010
0100
1000
0100
0100
,  // measure 36
1000
1000
0001
0100
0010
0100
0001
0010
,  // measure 37
0100
1000
0010
0000
0010
0100
0001
0000
,  // measure 38
0101
0000
0100
0001
0100
0010
0100
0001
,  // measure 39
0010
0000
0100
1000
0010
1000
0100
0100
,  // measure 40
0010
0010
0100
1000
0010
0100
0001
1000
,  // measure 41
0000
0000
1010
0000
0010
0100
0010
1000
,  // measure 42
0010
0100
0001
0000
0010
0100
0010
0001
,  // measure 43
0010
0010
0001
0001
1000
0010
0100
0010
,  // measure 44
1000
0100
0010
0001
0100
0000
0100
0010
,  // measure 45
1000
0000
1010
0000
0010
1000
0010
0100
,  // measure 46
0010
1000
0100
0000
0010
0001
0100
0001
,  // measure 47
0010
0010
0100
0100
0010
0001
0100
0010
,  // measure 48
1000
0001
1000
0000
1000
1000
1000
1000
,  // measure 49
1000
0000
0001
0100
0010
0000
1000
0000
,  // measure 50
1001
0000
1000
0100
0010
0000
0001
0000
,  // measure 51
1001
0000
0100
0010
1000
0000
0010
0100
,  // measure 52
0001
0000
0010
0100
1000
0000
0100
0010
,  // measure 53
0001
0000
0010
0001
0010
0010
0001
0010
,  // measure 54
0100
0100
1000
0010
1000
1000
0010
0100
,  // measure 55
0010
0010
0100
0001
0100
0100
0010
1000
,  // measure 56
0010
0010
1000
0100
0010
0010
0100
1000
,  // measure 57
0100
0100
2200
0000
0000
0000
0000
0000
,  // measure 58
0000
0000
0000
0000
,  // measure 59
3300
0000
0000
0000
;

//---------------dance-single - ----------------
#NOTEDATA:;
#CHARTNAME:;
#STEPSTYPE:dance-single;
#DESCRIPTION:;
#CHARTSTYLE:;
#DIFFICULTY:Easy;
#METER:4;
#RADARVALUES:0.129684,0.181558,0.046159,0.076931,0.000000,118.000000,112.000000,6.000000,10.000000,0.000000,0.000000,0.000000,0.000000,0.000000,0.129684,0.181558,0.046159,0.076931,0.000000,118.000000,112.000000,6.000000,10.000000,0.000000,0.000000,0.000000,0.000000,0.000000;
#CREDIT:;
#DISPLAYBPM:125.000000;
#NOTES:
0000
0000
0000
0000
,
0000
0000
0000
0000
,
0000
0000
0000
0000
,
0000
0000
0000
0000
,
2000
0000
0100
0000
,
0010
0000
3001
0000
,
0002
0000
0100
0000
,
0010
0000
1003
0000
,
0001
0001
0100
0000
,
1000
1000
0100
0000
,
0001
0001
0010
0000
,
1000
1000
0010
0000
,
0020
0000
0000
0000
,
0200
0000
0000
0330
,
0110
0000
0000
0000
,
0100
0100
0100
0000
,
0010
0000
0000
0000
,
1000
0001
1000
0000
,
1001
0000
0000
0000
,
0001
0001
0001
0000
,
1000
0000
0000
0000
,
0001
1000
0001
0000
,
0010
0000
0010
0000
,
0010
0010
0010
0000
,
0100
0000
1000
0000
,
0001
0000
1000
0000
,
0100
0000
0100
0000
,
0100
0100
0100
0000
,
0010
0000
0001
0000
,
1000
0000
0010
0000
,
0200
0000
0000
0300
,
0200
0000
0000
0300
,
0020
0000
0000
0030
,
0020
0000
0000
0030
,
0110
0000
0000
1000
,
0001
0000
0000
1000
,
0001
1000
0000
0000
,
0001
1000
0001
1000
,
1001
0000
0000
0000
,
0010
0000
0000
0100
,
0010
0000
0000
0100
,
0000
0110
0000
0000
,
1000
0001
0000
0000
,
1000
0001
1000
0000
,
0000
0001
1000
0001
,
1000
1001
0000
0000
,
0000
0010
0000
0000
,
0100
0010
0000
0000
,
0000
0100
0010
0100
,
0010
0000
1000
0000
,
1000
0000
0001
0000
,
0001
0000
0010
0000
,
0010
0000
0100
0000
,
0100
1000
0010
0000
,
0100
0000
0001
0100
,
0001
0000
0100
0000
,
0010
0000
1000
0000
,
2000
0002
0000
0000
,
0000
0000
0000
0000
,
3003
0000
0000
0000
;

//---------------dance-single - ----------------
#NOTEDATA:;
#CHARTNAME:;
#STEPSTYPE:dance-single;
#DESCRIPTION:;
#CHARTSTYLE:;
#DIFFICULTY:Medium;
#METER:6;
#RADARVALUES:0.211012,0.317726,0.069238,0.238487,0.000000,192.000000,183.000000,9.000000,31.000000,0.000000,0.000000,0.000000,0.000000,0.000000,0.211012,0.317726,0.069238,0.238487,0.000000,192.000000,183.000000,9.000000,31.000000,0.000000,0.000000,0.000000,0.000000,0.000000;
#CREDIT:;
#DISPLAYBPM:125.000000;
#NOTES:
// measure 0
0000
0000
0000
0000
,  // measure 1
0000
0000
0000
0000
,  // measure 2
0000
0000
0000
0000
,  // measure 3
0000
0000
0000
0000
,  // measure 4
1000
1000
0010
0010
,  // measure 5
0100
0100
0001
0000
,  // measure 6
0001
0001
0010
0010
,  // measure 7
0100
0100
1000
0000
,  // measure 8
0200
0000
0310
0000
0100
0100
0010
0000
,  // measure 9
0200
2300
3020
0230
,  // measure 10
0302
0000
0103
0000
0001
0001
0100
0000
,  // measure 11
0002
0023
0230
2300
,  // measure 12
3002
1003
0000
0001
,  // measure 13
0000
0000
0000
0000
0001
1000
0001
1000
,  // measure 14
0002
0000
0000
0000
,  // measure 15
0203
0000
0000
0000
,  // measure 16
0320
0000
0000
0000
,  // measure 17
2030
0000
0000
0000
,  // measure 18
3020
0000
0000
0000
,  // measure 19
0230
0000
0000
0000
,  // measure 20
0302
0000
0000
0000
,  // measure 21
2003
0000
0000
0000
,  // measure 22
3001
0010
0100
0001
,  // measure 23
0010
0100
0001
0010
,  // measure 24
1000
0100
0010
1000
,  // measure 25
0100
0010
1000
0100
,  // measure 26
0001
0010
1000
0100
,  // measure 27
0001
0100
1000
0010
,  // measure 28
0001
0010
1000
0100
,  // measure 29
1000
0010
0001
0100
,  // measure 30
2000
0000
0010
0000
,  // measure 31
3020
0000
1000
0000
,  // measure 32
2030
3200
0320
0032
,  // measure 33
1003
0001
1000
0001
1000
0001
1000
0000
,  // measure 34
1001
0000
0000
0000
1000
0001
1000
0000
,  // measure 35
0110
0000
0000
0000
0010
0100
0010
0000
,  // measure 36
1000
0100
0010
0001
,  // measure 37
0001
0010
0100
1000
,  // measure 38
1100
0000
0000
0000
1000
0100
1000
0000
,  // measure 39
0011
0000
0000
0000
0001
0010
0001
0000
,  // measure 40
0001
0010
0100
1000
,  // measure 41
0000
0000
1001
0000
0000
0000
0001
1000
,  // measure 42
0001
0000
0110
0000
0000
0000
0100
0010
,  // measure 43
0100
0001
0010
0100
,  // measure 44
1000
1000
0100
0010
,  // measure 45
0001
0000
0011
0000
0000
0000
0001
0010
,  // measure 46
0001
0000
1100
0000
0000
0000
1000
0100
,  // measure 47
1000
1000
0100
0010
,  // measure 48
0001
0001
0010
0100
,  // measure 49
1000
0002
0100
0000
,  // measure 50
0103
2000
0100
0000
,  // measure 51
3100
0002
0010
0000
,  // measure 52
0013
2000
0010
0010
,  // measure 53
0010
3000
0010
0000
0001
0000
0100
0000
,  // measure 54
1000
0010
0010
0010
,  // measure 55
0000
0010
1000
0100
,  // measure 56
0001
0010
0010
0010
,  // measure 57
0010
0220
0000
0000
,  // measure 58
0000
0000
0000
0000
,  // measure 59
0330
0000
0000
0000
;
