#TITLE:BAD BOY BASS!! (dj Remo-con MIX);
#SUBTITLE:;
#ARTIST:Y&Co.;
#TITLETRANSLIT:;
#SUBTITLETRANSLIT:;
#ARTISTTRANSLIT:;
#GENRE:;
#CREDIT:Chewi☆;
#MENUCOLOR:#FFFFFF;
#METERTYPE:DDR X;
#BANNER:BAD BOY BASS!! (dj Remo-con MIX).png;
#BACKGROUND:BAD BOY BASS!! (dj Remo-con MIX)-bg.png;
#LYRICSPATH:;
#CDTITLE:./CDTITLES/DanceDanceRevolution skyMIX3 -breeze-.png;
#MUSIC:BAD BOY BASS!! (dj Remo-con MIX).mp3;
#OFFSET:-2.083;
#SAMPLESTART:79.921;
#SAMPLELENGTH:15.000;
#SELECTABLE:YES;
#LISTSORT:;
#DISPLAYBPM:148.000;
#BPMS:0.000=148.000;
#STOPS:;
#BGCHANGES:;
#ATTACKS:;

//---------------dance-single - Chewi----------------
#NOTES:
     dance-single:
     Chewi:
     Beginner:
     2:
     0.081,0.117,0.024,0.000,0.000: // measure 1
0000
0000
0000
0000
,  // measure 2
0000
0000
0000
0000
,  // measure 3
0000
0000
0000
0000
,  // measure 4
0000
0000
0000
0000
,  // measure 5
1000
0000
0000
0000
,  // measure 6
0000
0000
0000
0000
,  // measure 7
0001
0000
0000
0000
,  // measure 8
0000
0000
0000
0000
,  // measure 9
1000
0000
0000
0000
,  // measure 10
0001
0000
0000
0000
,  // measure 11
0010
0000
0000
0000
,  // measure 12
0100
0000
0000
0000
,  // measure 13
1000
0000
0000
0000
,  // measure 14
0001
0000
0000
0000
,  // measure 15
0010
0000
0000
0000
,  // measure 16
0001
0000
0000
0000
,  // measure 17
1000
0000
0000
0000
,  // measure 18
0100
0000
0000
0000
,  // measure 19
1000
0000
0000
0000
,  // measure 20
0010
0000
0000
0000
,  // measure 21
0010
0000
0000
0000
,  // measure 22
0100
0000
0000
0000
,  // measure 23
0010
0000
0000
0000
,  // measure 24
0001
0000
0000
0000
,  // measure 25
1001
0000
0000
0000
,  // measure 26
0100
0000
0000
0000
,  // measure 27
0010
0000
0000
0000
,  // measure 28
0001
0000
0000
0000
,  // measure 29
1001
0000
0000
0000
,  // measure 30
0010
0000
0000
0000
,  // measure 31
0100
0000
0000
0000
,  // measure 32
1000
0000
0000
0000
,  // measure 33
0100
0000
0000
0000
,  // measure 34
0010
0000
0000
0000
,  // measure 35
0001
0000
0000
0000
,  // measure 36
1000
0000
0000
0000
,  // measure 37
1000
0000
0000
0000
,  // measure 38
0001
0000
0000
0000
,  // measure 39
0010
0000
0000
0000
,  // measure 40
0010
0000
0000
0000
,  // measure 41
0100
0000
0000
0000
,  // measure 42
0100
0000
0000
0000
,  // measure 43
1000
0000
0000
0000
,  // measure 44
0001
0000
0000
0000
,  // measure 45
0100
0000
0000
0000
,  // measure 46
1000
0000
0000
0000
,  // measure 47
1000
0000
0000
0000
,  // measure 48
1001
0000
0000
0000
,  // measure 49
0001
0000
0000
0000
,  // measure 50
1000
0000
0000
0000
,  // measure 51
1000
0000
0000
0000
,  // measure 52
0001
0000
0000
0000
,  // measure 53
0001
0000
0000
0000
,  // measure 54
0100
0000
0000
0000
,  // measure 55
0001
0000
0000
0000
,  // measure 56
0010
0000
0000
0000
,  // measure 57
0010
0000
0000
0000
,  // measure 58
0100
0000
0000
0000
,  // measure 59
0010
0000
0000
0000
,  // measure 60
0010
0000
0000
0000
,  // measure 61
1000
0000
0000
0000
,  // measure 62
0001
0000
0000
0000
,  // measure 63
1000
0000
0000
0000
,  // measure 64
0001
0000
0000
0000
,  // measure 65
0010
0000
0000
0000
,  // measure 66
0100
0000
0000
0000
,  // measure 67
0001
0000
0000
0000
,  // measure 68
1000
0000
0000
0000
,  // measure 69
0001
0000
0000
0000
,  // measure 70
0100
0000
0000
0000
,  // measure 71
1000
0000
0000
0000
,  // measure 72
0001
0000
0000
0000
,  // measure 73
0100
0000
0000
0000
;

//---------------dance-single - Chewi----------------
#NOTES:
     dance-single:
     Chewi:
     Easy:
     4:
     0.244,0.295,0.049,0.057,0.000: // measure 1
0000
0000
0000
0000
,  // measure 2
0000
0000
0000
0000
,  // measure 3
0000
0000
0000
0000
,  // measure 4
0000
0000
0000
0000
,  // measure 5
1000
0100
0010
0001
,  // measure 6
0000
0000
0000
0000
,  // measure 7
0001
0010
0100
1000
,  // measure 8
0000
0000
0000
0000
,  // measure 9
1000
1000
0001
0000
,  // measure 10
0001
0001
1000
0000
,  // measure 11
0010
0010
0100
0000
,  // measure 12
0100
0100
0010
0000
,  // measure 13
1000
0010
1000
0000
,  // measure 14
0001
0010
0001
0000
,  // measure 15
0010
0100
0010
0000
,  // measure 16
0001
1000
0001
0000
,  // measure 17
2000
0000
0000
3000
,  // measure 18
0200
0000
0000
0300
,  // measure 19
2000
0000
0000
3000
,  // measure 20
0020
0000
0000
0030
,  // measure 21
0010
0010
0010
0010
,  // measure 22
0100
0100
0100
0100
,  // measure 23
0010
0010
0010
0010
,  // measure 24
0001
0001
0001
0001
,  // measure 25
1001
0000
0000
0000
,  // measure 26
0100
0000
0000
0000
,  // measure 27
0110
0000
0000
0000
,  // measure 28
0001
0000
0000
0000
,  // measure 29
1001
0000
0000
0000
,  // measure 30
0010
0000
0000
0000
,  // measure 31
0110
0000
0000
0000
,  // measure 32
1000
0100
1000
0000
,  // measure 33
0100
1000
0010
0000
,  // measure 34
0010
0001
0010
0000
,  // measure 35
0001
0100
0001
0000
,  // measure 36
1000
0100
1000
0000
,  // measure 37
1000
0001
1000
0000
,  // measure 38
0001
1000
0001
0000
,  // measure 39
0010
0100
0010
0000
,  // measure 40
0010
1000
0010
0001
,  // measure 41
0100
0001
0100
0000
,  // measure 42
0100
1000
0100
0000
,  // measure 43
1000
0001
1000
0000
,  // measure 44
0001
1000
0001
0000
,  // measure 45
0100
0100
0010
0010
,  // measure 46
1000
1000
0001
0001
,  // measure 47
2002
0000
0000
3003
,  // measure 48
1001
0000
0000
0000
,  // measure 49
0001
0010
0001
0010
,  // measure 50
1000
0010
1000
0010
,  // measure 51
1000
0100
1000
0100
,  // measure 52
0001
0100
0001
0100
,  // measure 53
0001
1000
0001
1000
,  // measure 54
0100
0010
0100
0010
,  // measure 55
0001
1000
0001
1000
,  // measure 56
0010
0100
0010
0100
,  // measure 57
0010
1000
0100
0000
,  // measure 58
0100
0010
0100
0000
,  // measure 59
0010
0001
0100
0000
,  // measure 60
0010
0100
0010
0000
,  // measure 61
1000
0100
1000
0000
,  // measure 62
0001
0010
0001
0000
,  // measure 63
1000
0100
0001
0000
,  // measure 64
0001
0100
1000
0000
,  // measure 65
0010
0100
0010
0100
,  // measure 66
0100
0010
0100
0010
,  // measure 67
0001
1000
0001
1000
,  // measure 68
1000
0001
1000
0001
,  // measure 69
0001
0001
0001
0001
,  // measure 70
0100
0100
0100
0100
,  // measure 71
1000
0100
0001
0010
,  // measure 72
0001
0100
1000
0010
,  // measure 73
0200
0000
0000
0000
,  // measure 74
0300
0000
0000
0000
;

//---------------dance-single - Chewi----------------
#NOTES:
     dance-single:
     Chewi:
     Medium:
     8:
     0.336,0.384,0.162,0.057,0.000: // measure 1
0000
0000
0000
0000
,  // measure 2
0000
0000
0000
0000
,  // measure 3
0000
0000
0000
0000
,  // measure 4
0000
0000
0000
0000
,  // measure 5
1000
0000
0100
0000
0001
0100
1000
0000
,  // measure 6
0000
0000
0000
0000
,  // measure 7
1000
0000
0010
0000
0001
0010
1000
0000
,  // measure 8
0000
0000
0000
0000
,  // measure 9
0010
0000
0100
0000
0010
0100
0010
0000
,  // measure 10
0100
0000
0100
0000
0100
0010
0100
0000
,  // measure 11
0010
0000
0100
0000
0010
0100
0010
0000
,  // measure 12
0010
0000
0010
0000
0100
0010
0100
0000
,  // measure 13
1000
0000
0100
0000
0010
0001
0010
0000
,  // measure 14
0001
0100
1000
0010
,  // measure 15
0001
0000
0010
0000
1000
0100
1000
0000
,  // measure 16
0100
0000
0010
0000
0001
1000
0001
0000
,  // measure 17
2002
0000
0000
3000
,  // measure 18
0200
0000
0000
0003
,  // measure 19
0002
0000
0000
0300
,  // measure 20
0020
0000
0000
0033
,  // measure 21
0001
0010
0000
0100
,  // measure 22
1000
0100
0000
0010
,  // measure 23
0001
1000
0000
0010
,  // measure 24
0100
0010
0100
0000
0010
0100
0010
0000
,  // measure 25
1000
0001
1001
0000
,  // measure 26
0110
0000
0100
0010
,  // measure 27
0001
1000
1001
0000
,  // measure 28
0110
0000
0100
0010
,  // measure 29
1000
0100
1100
0000
,  // measure 30
0011
0000
0001
1000
,  // measure 31
0010
0100
0110
0000
,  // measure 32
1010
0000
0101
0000
,  // measure 33
0001
0010
0100
0000
0010
0000
0000
0000
,  // measure 34
0100
1000
0010
0000
0100
0000
0000
0000
,  // measure 35
1000
0001
1000
0000
0001
0000
0000
0000
,  // measure 36
1000
0001
1000
0000
0001
0000
0000
0000
,  // measure 37
0001
0100
0010
0100
,  // measure 38
1000
0100
0010
0100
,  // measure 39
1000
0100
0010
0001
,  // measure 40
0001
0100
0010
1000
,  // measure 41
0001
1001
1000
0001
,  // measure 42
1000
1001
0001
1000
,  // measure 43
0010
0110
0100
0010
,  // measure 44
0100
0110
0010
0100
,  // measure 45
0010
0010
0010
0000
1000
0000
0100
0000
,  // measure 46
0001
0010
1000
0100
,  // measure 47
0100
0100
0100
0000
1000
0000
0010
0000
,  // measure 48
0001
0100
1000
0010
,  // measure 49
0101
0010
0100
0010
,  // measure 50
0100
0000
0010
0000
1000
0100
1000
0000
,  // measure 51
1010
0100
1000
0010
,  // measure 52
1000
0000
0100
0000
1000
0010
1000
0000
,  // measure 53
0110
1000
0001
0010
,  // measure 54
0100
0000
1000
0000
0001
0001
0001
0000
,  // measure 55
0101
0010
1000
0001
,  // measure 56
0010
0000
0100
0000
0010
0010
0010
0000
,  // measure 57
0001
1000
0010
0100
,  // measure 58
0001
1000
0100
0010
,  // measure 59
0001
0010
1000
0010
,  // measure 60
0001
0100
1000
0100
,  // measure 61
1000
0100
0010
0001
,  // measure 62
0010
0100
1000
0010
,  // measure 63
0100
0010
1000
0001
,  // measure 64
0010
0100
1000
0001
,  // measure 65
1000
0000
0100
0000
0001
0010
1000
0000
,  // measure 66
0001
0000
0100
0000
0001
0100
1000
0000
,  // measure 67
0010
0000
0100
0000
1000
0001
1000
0000
,  // measure 68
0100
0000
0010
0000
0001
1000
0001
0000
,  // measure 69
1000
0100
1000
0100
,  // measure 70
0001
0100
0001
0100
,  // measure 71
0010
0100
0010
0000
0100
0010
0100
0000
,  // measure 72
1010
0001
0100
1000
,  // measure 73
0220
0000
0000
0000
,  // measure 74
0330
0000
0000
0000
;

//---------------dance-single - Chewi----------------
#NOTES:
     dance-single:
     Chewi:
     Hard:
     10:
     0.519,0.532,0.178,0.186,0.045: // measure 1
0000
0000
0000
0000
,  // measure 2
0000
0000
0000
0000
,  // measure 3
0000
0000
0000
0000
,  // measure 4
0000
0000
0000
0000
,  // measure 5
1000
0001
1000
0000
0010
0100
0020
0000
,  // measure 6
0030
0000
0000
0000
,  // measure 7
0001
1000
0001
0000
0100
0010
0200
0000
,  // measure 8
0300
0000
0000
0000
,  // measure 9
1000
0100
0010
0000
0001
0010
0011
0000
,  // measure 10
0001
0010
0100
0000
1000
0100
1100
0000
,  // measure 11
0001
1000
0100
0000
0010
0100
0110
0000
,  // measure 12
0001
1000
0010
0000
0100
0010
0110
0000
,  // measure 13
0100
0001
0010
0000
0100
0100
0100
0000
,  // measure 14
0100
1000
0010
0000
0100
0100
0100
0000
,  // measure 15
0010
0100
0001
0000
0010
0010
0010
0000
,  // measure 16
0001
0010
0100
0000
1000
1000
1000
0000
,  // measure 17
1000
2000
3000
0000
0010
0020
0030
0000
,  // measure 18
0100
0200
0300
0000
0001
0002
0003
0000
,  // measure 19
0010
0020
0030
0000
1000
2000
3000
0000
,  // measure 20
0100
0200
0300
0000
0010
0001
0100
1000
,  // measure 21
1000
0100
0010
0000
0000
0001
1001
0000
,  // measure 22
0001
0100
0010
0000
0000
1000
1001
0000
,  // measure 23
0010
0100
0010
0000
0000
0100
0110
0000
,  // measure 24
0001
0010
0001
0010
0001
0100
0001
0100
,  // measure 25
0001
0000
0100
0000
0010
0000
0000
1000
0000
0000
0002
0000
0000
0000
0000
0000
,  // measure 26
0003
0000
0000
0000
0100
0110
0100
0000
,  // measure 27
0100
0000
0010
0000
0001
0000
0000
1000
0000
0000
0002
0000
0000
0000
0000
0000
,  // measure 28
0003
0000
0000
0000
0010
0110
0010
0000
,  // measure 29
0100
0000
0010
0000
0001
0000
0000
0010
0000
0000
2000
0000
0000
0000
0000
0000
,  // measure 30
3000
0000
0000
0000
0010
1001
0010
0000
,  // measure 31
0100
0000
0010
0000
0001
0000
0000
0010
0000
0000
0100
0000
0000
0000
0000
0000
,  // measure 32
1000
0100
0010
0000
0001
0010
0100
0001
,  // measure 33
1000
0000
0010
0000
0100
0000
0000
0010
0000
0000
0020
0000
0000
0000
0030
0000
,  // measure 34
0100
0000
0010
0000
1000
0000
0000
0001
0000
0000
0020
0000
0000
0000
0030
0000
,  // measure 35
0100
0000
0010
0000
0001
0000
0000
1000
0000
0000
0200
0000
0000
0000
0300
0000
,  // measure 36
0001
0000
0010
0000
0100
0000
0000
1000
0000
0000
0200
0000
0000
0000
0300
0000
,  // measure 37
1000
0000
0001
0000
0100
0000
0000
0010
0000
0000
0200
0000
0000
0000
0300
0000
,  // measure 38
0010
0000
1000
0000
0001
0000
0000
0100
0000
0000
0002
0000
0000
0000
0003
0000
,  // measure 39
1000
0000
0100
0000
0010
0000
0000
0001
0000
0000
0020
0000
0000
0000
0030
0000
,  // measure 40
0100
0100
0010
0010
0001
1000
0010
0100
,  // measure 41
0001
0100
1000
0000
0001
0100
1000
0000
,  // measure 42
1000
0010
0001
0000
1000
0010
0001
0000
,  // measure 43
1000
0001
0100
0000
0001
1000
0100
0000
,  // measure 44
0001
1000
0010
0000
1000
0001
0010
0000
,  // measure 45
0100
0100
0010
0010
0100
0100
0010
0010
,  // measure 46
0001
0010
0100
0010
0001
0100
1000
0010
,  // measure 47
1000
1000
0001
0001
0010
0010
0100
0100
,  // measure 48
0220
0000
0000
0330
,  // measure 49
1000
0010
0001
0010
1000
0010
0001
0010
,  // measure 50
1000
0100
0001
0100
1000
0100
0001
0100
,  // measure 51
1000
0010
1000
0100
1000
0010
1000
0100
,  // measure 52
0001
0010
0001
0100
0001
0010
0001
0100
,  // measure 53
0010
0100
0001
0100
0010
0100
0001
0100
,  // measure 54
0010
1000
0100
1000
0010
1000
0100
1000
,  // measure 55
0010
0100
0001
0010
0100
1000
0010
0100
,  // measure 56
0010
1000
0001
0010
0100
0010
0001
0100
,  // measure 57
0010
0100
0101
0000
1000
0100
1100
0000
,  // measure 58
0001
0010
0100
0000
1000
0100
0001
0100
,  // measure 59
1000
0010
0110
0000
0001
0100
0101
0000
,  // measure 60
0100
0010
1000
0000
0001
0010
0100
1000
,  // measure 61
0100
0010
0001
0000
0100
0100
0110
0000
,  // measure 62
0010
0100
1001
0000
0010
0010
0010
0000
,  // measure 63
0010
1000
0001
0100
0010
0100
0010
0000
,  // measure 64
0001
0010
0100
1000
0001
0010
0100
1000
,  // measure 65
0010
0100
0101
0000
0010
0100
0110
0000
,  // measure 66
0100
1000
0001
0000
0100
0010
0100
1000
,  // measure 67
0010
1000
1001
0000
1000
0001
1100
0000
,  // measure 68
0001
0010
0100
0000
1000
0100
1000
0000
,  // measure 69
0100
0001
0100
0001
0100
1000
0100
1000
,  // measure 70
0010
1000
0010
1000
0010
0001
0010
0001
,  // measure 71
0010
0100
0001
1000
0100
0010
0001
1000
,  // measure 72
0100
0100
0010
0010
0100
1000
0001
1000
,  // measure 73
2002
0000
0000
0000
,  // measure 74
3003
0000
0000
0000
;
