#TITLE:BABYBABYの夢;
#SUBTITLE:;
#ARTIST:TANUKI;
#TITLETRANSLIT:BABYBABY NO YUME;
#SUBTITLETRANSLIT:;
#ARTISTTRANSLIT:;
#GENRE:Dance/Electronic;
#CREDIT:chewi;
#BANNER:BABYBABY NO YUME.png;
#BACKGROUND:BABYBABY NO YUME-bg.png;
#LYRICSPATH:;
#CDTITLE:cdtitle.png;
#MUSIC:BABYBABY NO YUME.ogg;
#OFFSET:-0.003000;
#SAMPLESTART:55.750999;
#SAMPLELENGTH:15.000000;
#SELECTABLE:YES;
#BPMS:0.000000=120.000000
;
#STOPS:
;
#BGCHANGES:0.000=BABYBABY NO YUME.mp4=1.000=1=0=1===CrossFade==,
216.000=BABYBABY NO YUME-bg.png=1.000=1=0=1===CrossFade==,
99999=-nosongbg-=1.000=0=0=0 // don't automatically add -songbackground-
;
#KEYSOUNDS:;
#ATTACKS:;

//---------------dance-single - ----------------
#NOTES:
     dance-single:
     :
     Beginner:
     2:
     0.077213,0.095693,0.008860,0.106325,0.000000,61.000000,60.000000,1.000000,12.000000,0.000000,0.000000,0.077213,0.095693,0.008860,0.106325,0.000000,61.000000,60.000000,1.000000,12.000000,0.000000,0.000000:
// measure 0
0000
0000
0000
0000
,  // measure 1
0000
0000
0000
0000
,  // measure 2
0000
0000
0000
0000
,  // measure 3
0000
0000
0000
0000
,  // measure 4
1000
0000
0000
0000
,  // measure 5
0001
0000
0000
0000
,  // measure 6
0100
0000
0000
0000
,  // measure 7
0010
0000
0000
0000
,  // measure 8
0010
0000
0000
0000
,  // measure 9
0100
0000
0000
0000
,  // measure 10
0001
0000
0000
0000
,  // measure 11
1000
0000
0000
0000
,  // measure 12
0002
0000
0000
0003
,  // measure 13
0001
0000
0000
0000
,  // measure 14
2000
0000
0000
3000
,  // measure 15
1000
0000
0000
0000
,  // measure 16
0200
0000
0000
0300
,  // measure 17
0100
0000
0000
0000
,  // measure 18
0020
0000
0000
0030
,  // measure 19
0010
0000
0000
0000
,  // measure 20
0002
0000
0000
0003
,  // measure 21
0001
0000
0000
0000
,  // measure 22
0020
0000
0000
0030
,  // measure 23
0010
0000
0000
0000
,  // measure 24
0200
0000
0000
0300
,  // measure 25
0100
0000
0000
0000
,  // measure 26
2000
0000
0000
3000
,  // measure 27
1000
0000
0000
0000
,  // measure 28
0100
0000
0100
0000
,  // measure 29
0100
0000
0000
0000
,  // measure 30
0010
0000
0010
0000
,  // measure 31
0010
0000
0000
0000
,  // measure 32
0001
0000
0001
0000
,  // measure 33
0001
0000
0000
0000
,  // measure 34
1000
0000
1000
0000
,  // measure 35
1000
0000
0000
0000
,  // measure 36
0010
0000
0100
0000
,  // measure 37
0010
0000
0000
0000
,  // measure 38
0100
0000
0010
0000
,  // measure 39
0100
0000
0000
0000
,  // measure 40
0010
0000
0010
0000
,  // measure 41
0010
0000
0000
0000
,  // measure 42
1000
0000
1000
0000
,  // measure 43
1000
0000
0000
0000
,  // measure 44
1000
0000
0001
0000
,  // measure 45
1000
0000
0000
0000
,  // measure 46
0020
0000
0000
0030
,  // measure 47
0010
0000
0000
0000
,  // measure 48
0200
0000
0000
0300
,  // measure 49
0100
0000
0000
0000
,  // measure 50
2000
0000
0000
3000
,  // measure 51
1000
0000
0000
0000
,  // measure 52
0002
0000
0000
0003
,  // measure 53
0001
0000
0000
0000
,  // measure 54
1001
0000
0000
0000
;

//---------------dance-single - ----------------
#NOTES:
     dance-single:
     :
     Easy:
     4:
     0.151894,0.191386,0.026581,0.106325,0.000000,120.000000,117.000000,3.000000,12.000000,0.000000,0.000000,0.151894,0.191386,0.026581,0.106325,0.000000,120.000000,117.000000,3.000000,12.000000,0.000000,0.000000:
0000
0000
0000
0000
,
0000
0000
0000
0000
,
0000
0000
0000
0000
,
0000
0000
0000
0000
,
1000
1000
0100
0000
,
0010
0010
0001
0000
,
1000
0100
1000
0000
,
0001
0100
0001
0000
,
0100
0100
0010
0000
,
0010
0010
1000
0000
,
1000
0010
1000
0000
,
0001
0100
0001
0000
,
0002
0003
0001
0000
,
0001
1000
0001
0000
,
2000
3000
1000
0000
,
0001
1000
0001
0000
,
0200
0300
0100
0000
,
0010
1000
0001
0000
,
0020
0030
0010
0000
,
0010
0100
1000
0000
,
1000
0000
0100
0000
,
0010
0000
0001
0000
,
1000
0000
0100
0000
,
0010
0000
0001
0000
,
0001
0000
0100
0000
,
0010
0000
1000
0000
,
0001
0000
0100
0000
,
0010
0000
1000
0000
,
1000
0000
0100
0000
,
1000
0100
1000
0000
,
0100
0000
0010
0000
,
0001
0000
1000
0000
,
0001
0000
0100
0000
,
0001
0100
0001
0000
,
0100
0000
0010
0000
,
1000
0000
0001
0000
,
1000
1000
1000
0000
,
0001
0001
0001
0000
,
1001
0000
0000
0000
,
0100
0100
0100
0000
,
0010
0010
0010
0000
,
0100
0100
0100
0000
,
0110
0000
0000
0000
,
0001
0001
0001
0000
,
1000
1000
1000
0000
,
0001
0001
0001
0000
,
2000
0000
0100
0000
,
0200
0000
0000
3300
,
0002
0000
0100
0000
,
0200
0000
0000
0303
,
0200
0000
0010
0000
,
0020
0000
0000
0330
,
0020
0000
0100
0000
,
0200
0000
0000
0330
,
0110
0000
0000
0000
;

//---------------dance-single - ----------------
#NOTES:
     dance-single:
     :
     Medium:
     6:
     0.250624,0.287079,0.150628,0.008860,0.004430,198.000000,181.000000,17.000000,1.000000,0.000000,0.000000,0.250624,0.287079,0.150628,0.008860,0.004430,198.000000,181.000000,17.000000,1.000000,0.000000,0.000000:
0000
0000
0000
0000
,
0000
0000
0000
0000
,
0000
0000
0000
0000
,
0000
0000
0000
0000
,
1000
0100
1000
1001
,
0001
0100
0001
1001
,
1000
0010
0100
0100
,
0010
1000
0100
0100
,
0010
0001
1000
1001
,
1000
0010
1000
1001
,
1000
0010
0100
0100
,
0010
1000
0100
0010
,
0001
0000
0001
0000
,
0001
1000
0010
0100
,
0001
1000
1100
0000
,
1000
0001
0101
0000
,
0100
0000
0100
0000
,
0100
0010
0100
0100
,
0001
0010
0011
0000
,
1000
0010
1010
0000
,
1000
0010
1000
0001
,
1000
0100
0010
0001
,
0001
0010
0001
0100
,
0001
0010
0100
1000
,
1000
0001
0100
0100
,
0001
1000
0100
0100
,
0010
0001
1000
0001
,
1002
0100
0010
1003
,
1001
0000
0000
0000
1001
0000
0000
0000
0001
0000
0000
1000
0000
0000
0001
0000
,
0000
1000
0001
0100
,
0100
0010
0100
0000
,
0010
0100
0010
0000
,
0010
1000
0100
0001
,
0010
1000
0100
0001
,
0010
1000
0100
0000
,
1000
0010
0100
0001
,
1000
0001
1000
0100
,
0001
1000
0001
0100
,
1001
0000
1001
0000
,
1000
0100
0001
0100
,
0100
0010
1000
0001
,
0010
0100
0010
0100
,
0110
0000
0110
0000
,
1000
0010
0001
0010
,
1000
0010
0100
0001
,
0100
0000
0000
1001
,
0110
0000
0000
0010
0100
0000
0000
0000
,
0100
0001
0010
0100
,
1000
0000
0000
0100
1000
0000
0000
0000
,
1000
0001
1000
0001
,
0100
0000
0000
0001
0100
0000
0000
0000
,
0100
0010
1000
0100
,
0010
0001
0100
1000
,
0010
0001
0100
1000
,
0010
0000
0000
0000
;

//---------------dance-single - ----------------
#NOTES:
     dance-single:
     :
     Hard:
     9:
     0.369608,0.382772,0.194930,0.017721,0.008860,292.000000,270.000000,22.000000,2.000000,0.000000,0.000000,0.369608,0.382772,0.194930,0.017721,0.008860,292.000000,270.000000,22.000000,2.000000,0.000000,0.000000:
0000
0000
0000
0000
,
0000
0000
0000
0000
,
0000
0000
0000
0000
,
0000
0000
0000
0000
,
0010
0000
0100
0000
0001
0010
0100
1000
,
0001
1000
0101
1100
,
1000
0000
0001
0100
0100
0000
0000
0100
,
0100
0000
0000
0100
0010
1000
0001
0010
,
0100
1000
0001
0000
1000
0100
0010
0001
,
1000
0001
0101
1100
,
1001
1010
0110
0101
,
0001
0100
0001
0000
0100
0001
0100
0001
,
0100
0000
0100
0010
1000
0000
1000
0000
,
1000
0010
0100
0001
0010
0100
1000
0000
,
0001
0100
0101
0000
,
1000
0100
1100
0000
,
0100
0000
0010
0001
0100
0000
0001
0000
,
0010
0100
1000
0010
1000
0000
0100
0000
,
0010
0001
1001
0000
,
0010
1000
1001
0000
,
1000
0100
1000
0000
0001
0100
0001
0000
,
1000
0100
1000
0001
0100
0001
0100
0000
,
0001
0010
0001
0000
1000
0010
1000
0000
,
0001
0010
0001
1000
0010
1000
0010
0000
,
1000
0010
0100
0001
1000
0000
0001
0000
,
0001
0010
0100
1000
0001
0000
1000
0000
,
0001
0001
0001
0000
1000
1000
1000
0000
,
0010
0010
0010
0000
0100
0100
0100
0000
,
0110
1001
0110
1001
,
1000
0001
0100
0000
0001
1000
0100
0000
,
1000
0100
1000
0100
0010
0001
0010
0000
,
0001
0010
0001
0010
0100
1000
0100
0000
,
1000
0010
0001
0100
,
1000
0000
0010
0000
0001
0010
1000
0000
,
0001
0010
1000
0100
,
0001
0000
0010
0000
1000
0010
0001
0000
,
1000
0001
0100
0000
0001
1000
0100
0000
,
1000
0001
0100
0010
1000
0001
0010
0100
,
0100
0000
0010
0100
0100
0000
0010
0100
,
1000
0010
0100
0101
,
0100
0010
0100
0000
0010
0100
0010
0000
,
1000
0001
1000
0000
0001
1000
0001
1000
,
1000
0000
0001
1000
1000
0000
0001
0100
,
0010
0000
1000
0000
0010
0100
0001
0000
,
0100
0010
1000
1001
,
2002
0000
0000
3003
,
0001
0000
0000
0001
0001
0000
0000
0001
,
0010
0000
0001
0000
0100
0000
0001
0000
0010
0000
0000
0010
0000
0000
0010
0000
,
0000
0000
0000
0100
0100
0000
0000
0100
,
1000
0010
1000
0100
1100
0000
1010
0000
,
1001
0000
0000
0100
0100
0000
0000
0100
,
0010
0000
0100
0000
0001
0000
0100
0000
0010
0000
0000
0010
0000
0000
0010
0000
,
1000
0010
1000
0010
1000
0100
1000
0000
,
0100
0010
0100
0010
0100
0010
0001
0100
,
0001
0000
0000
0000
;
