#TITLE:B Who I Want 2 B feat. HATSUNE MIKU;
#SUBTITLE:;
#ARTIST:安室奈美恵;
#TITLETRANSLIT:;
#SUBTITLETRANSLIT:;
#ARTISTTRANSLIT:Namie Amuro;
#GENRE:;
#CREDIT:chewi;
#BANNER:B Who I Want 2 B feat. HATSUNE MIKU.png;
#BACKGROUND:B Who I Want 2 B feat. HATSUNE MIKU-bg.png;
#LYRICSPATH:;
#CDTITLE:cdtitle.png;
#MUSIC:B Who I Want 2 B feat. HATSUNE MIKU.ogg;
#OFFSET:0.002000;
#SAMPLESTART:35.292000;
#SAMPLELENGTH:15.000000;
#SELECTABLE:YES;
#BPMS:0.000000=136.000000
;
#STOPS:
;
#BGCHANGES:0.000=B Who I Want 2 B feat. HATSUNE MIKU.avi=1.000=1=0=1===CrossFade==,
240.000=B Who I Want 2 B feat. HATSUNE MIKU-bg.png=1.000=1=0=1===CrossFade==,
99999=-nosongbg-=1.000=0=0=0 // don't automatically add -songbackground-
;
#KEYSOUNDS:;
#ATTACKS:;

//---------------dance-single - ----------------
#NOTES:
     dance-single:
     :
     Hard:
     12:
     0.492245,0.560985,0.413111,0.000000,0.384944,367.000000,323.000000,44.000000,0.000000,4.000000,0.000000,0.492245,0.560985,0.413111,0.000000,0.384944,367.000000,323.000000,44.000000,0.000000,4.000000,0.000000:
// measure 0
0000
0000
0000
0000
,  // measure 1
0000
0000
0000
0000
,  // measure 2
0000
0000
0000
0000
,  // measure 3
0000
0000
0000
0000
,  // measure 4
0100
0000
0000
0000
0010
0000
0000
0000
0001
0000
0000
0001
0000
0000
0001
0000
,  // measure 5
0000
0000
1000
0000
0000
0010
0000
0000
0100
0000
0000
0001
0100
0000
0010
0000
,  // measure 6
1000
0000
0000
0000
0100
0000
0000
0000
0010
0000
0000
0010
0000
0000
0010
0000
,  // measure 7
0000
0000
0100
0000
0000
0010
0000
0000
0001
0000
0000
1000
0001
0000
0100
0000
,  // measure 8
0001
0000
0000
0000
0100
0000
0000
0000
0010
0000
0000
0010
0000
0000
0010
0000
,  // measure 9
0000
0000
MMMM
0000
0000
0000
0000
0000
0100
0000
0000
0010
0100
0000
0100
0000
,  // measure 10
0100
0000
0000
0000
0001
0000
0000
0000
0010
0000
0000
0100
0000
0000
1000
0000
,  // measure 11
0000
0000
0010
0000
0000
0010
0000
0000
1000
0010
1000
0010
1000
0000
0000
0000
,  // measure 12
1000
0000
0000
0000
0100
0000
0000
0000
0001
0000
0000
0010
0000
0000
0010
0000
,  // measure 13
0000
0000
1000
0000
0000
0100
0000
0000
1000
0000
0000
1000
0001
0000
0001
0000
,  // measure 14
0001
0000
0000
0000
0100
0000
0000
0000
1000
0000
0000
0010
0000
0000
0010
0000
,  // measure 15
0000
0000
0001
0000
0000
0100
0000
0000
0001
0000
0000
0001
0100
0000
1000
0000
,  // measure 16
0100
0000
0000
0100
0010
0000
0010
0000
0001
0000
0000
1000
0000
0000
0010
0000
,  // measure 17
0000
0000
0100
0000
0000
0001
0000
0000
0001
0000
0000
0100
0001
0000
0010
0000
,  // measure 18
0100
0000
0000
0000
1000
0000
0000
0000
1000
0000
0000
0001
0000
0000
0100
0000
,  // measure 19
0000
0000
0100
0000
0000
0010
0000
0000
0100
0010
0100
0010
0100
0010
0100
0010
,  // measure 20
0100
0000
0000
0000
0001
0000
0000
0000
1000
0000
0000
1100
0000
0000
0101
0000
,  // measure 21
0000
0000
0100
0000
0000
1010
0000
0000
0101
0000
1000
0000
0010
0000
0001
0000
,  // measure 22
0010
0000
0000
0000
1000
0000
0100
0000
1100
0000
0000
0011
0000
0000
1100
0000
,  // measure 23
0000
0000
0010
0000
0000
0100
0000
0000
0100
0000
1000
0000
0001
0000
0100
0000
,  // measure 24
0010
0000
0000
0000
0100
0000
0100
0000
0100
0000
0000
1010
0000
0000
0011
0000
,  // measure 25
0000
0000
1000
0000
0000
0100
0000
0000
1010
0000
0000
0000
0110
0000
0100
0000
,  // measure 26
0101
0000
0000
0000
1001
0000
0000
0000
1100
0000
0000
0101
0000
0000
1001
0000
,  // measure 27
0000
0000
0001
0000
0000
0010
0000
0000
1000
0000
0000
0001
1000
0000
0010
0000
,  // measure 28
1000
0000
1000
0000
0001
0000
0001
0000
0100
0000
0000
0010
0000
0000
1000
0000
,  // measure 29
0000
0000
0001
0000
0000
1000
0000
0000
0010
0000
0000
0100
0001
0000
1000
0000
,  // measure 30
0001
0000
0000
0000
0010
0000
0000
0000
0100
0000
0000
1000
0000
0000
0100
0000
,  // measure 31
0000
0000
0010
0000
0000
0100
0000
0000
0010
0000
0000
0001
0100
0000
0010
0000
,  // measure 32
0100
0000
0010
0000
1001
0000
0100
0000
1000
0000
0000
0100
0000
0000
1000
0000
,  // measure 33
0000
0000
0100
0000
0000
1000
0000
0000
1000
0000
0000
0000
0010
0000
0010
0000
,  // measure 34
1000
0000
0000
0000
0010
0000
0000
0000
0110
0000
0000
1010
0000
0000
0011
0000
,  // measure 35
0000
0000
1100
0000
0000
1001
0000
0000
0001
0000
0000
0000
1000
0000
0000
0000
,  // measure 36
0001
0000
0000
0000
0010
0000
0000
0000
1000
0000
0000
0100
0000
0000
0100
0000
,  // measure 37
0000
0000
0001
0000
0000
0010
0000
0000
0001
0000
0000
0001
1000
0000
1000
0000
,  // measure 38
1000
0000
0000
0000
0010
0000
0000
0000
0001
0000
0000
0100
0000
0000
0100
0000
,  // measure 39
0000
0000
1000
0000
0000
0010
0000
0000
1000
0000
0000
1000
0010
0000
0001
0000
,  // measure 40
0010
0000
0000
0010
0100
0000
0100
0000
1000
0000
0000
0001
0000
0000
0100
0000
,  // measure 41
0000
0000
0010
0000
0000
1000
0000
0000
1000
0000
0000
0010
1000
0000
0100
0000
,  // measure 42
0010
0000
0000
0000
0001
0000
0000
0000
0001
0000
0000
1000
0000
0000
0010
0000
,  // measure 43
0000
0000
0010
0000
0000
0100
0000
0000
0010
0100
0010
0100
0010
0000
0000
0000
,  // measure 44
0010
0000
0000
0000
1000
0000
0000
0000
0001
0000
0000
0011
0000
0000
1010
0000
,  // measure 45
0000
0000
0010
0000
0000
0101
0000
0000
1010
0000
0001
0000
0100
0000
1000
0000
,  // measure 46
0100
0000
0000
0000
0001
0000
0010
0000
0011
0000
0000
1100
0000
0000
0011
0000
,  // measure 47
0000
0000
0100
0000
0000
0010
0000
0000
0010
0000
1000
0000
0001
0000
0010
0000
,  // measure 48
0100
0000
0000
0000
0010
0000
0010
0000
0010
0000
0000
0101
0000
0000
1100
0000
,  // measure 49
0000
0000
0001
0000
0000
0010
0000
0000
0101
0000
0000
0000
0110
0000
0010
0000
,  // measure 50
1010
0000
0000
0000
1001
0000
0000
0000
0011
0000
0000
1010
0000
0000
1001
0000
,  // measure 51
0000
0000
1000
0000
0000
0001
0000
0000
0010
0100
0010
0100
0010
0100
0010
0000
,  // measure 52
0100
0000
0100
0000
1000
0000
1000
0000
0010
0000
0000
0100
0000
0000
0001
0000
,  // measure 53
0000
0000
1000
0000
0000
0001
0000
0000
0100
0000
0000
0010
1000
0000
0001
0000
,  // measure 54
1000
0000
0000
0000
0100
0000
0000
0000
0010
0000
0000
0001
0000
0000
0010
0000
,  // measure 55
0000
0000
0100
0000
0000
0010
0000
0000
0100
0000
0000
1000
0010
0000
0100
0000
,  // measure 56
0010
0000
0100
0000
1001
0000
0010
0000
0001
0000
0000
0010
0000
0000
0001
0000
,  // measure 57
0000
0000
0010
0000
0000
0001
0000
0000
0001
0000
0000
0000
0100
0000
0100
0000
,  // measure 58
0001
0000
0000
0000
0100
0000
0000
0000
0110
0000
0000
0101
0000
0000
1100
0000
,  // measure 59
0000
0000
0011
0000
0000
1001
0000
0000
1000
0000
0000
0000
0001
0000
0000
0000
;

//---------------dance-single - ----------------
#NOTES:
     dance-single:
     :
     Beginner:
     1:
     0.091206,0.138486,0.075111,0.037556,0.000000,68.000000,60.000000,8.000000,4.000000,0.000000,0.000000,0.091206,0.138486,0.075111,0.037556,0.000000,68.000000,60.000000,8.000000,4.000000,0.000000,0.000000:
0000
0000
0000
0000
,
0000
0000
0000
0000
,
0000
0000
0000
0000
,
0000
0000
0000
0000
,
2000
0000
0000
0000
,
3000
0000
0000
0000
,
0002
0000
0000
0000
,
0003
0000
0000
0000
,
0200
0000
0000
0000
,
0300
0000
0000
0000
,
0020
0000
0000
0000
,
0030
0000
0000
0000
,
1001
0000
0000
0000
,
1000
0000
0000
0000
,
0001
0000
0000
0000
,
1000
0000
0000
0000
,
0110
0000
0000
0000
,
0100
0000
0000
0000
,
0010
0000
0000
0000
,
0100
0000
0000
0000
,
1000
0000
1000
0000
,
1000
0000
0000
0000
,
0001
0000
0001
0000
,
0001
0000
0000
0000
,
0010
0000
0010
0000
,
0010
0000
0000
0000
,
0100
0000
0100
0000
,
0100
0000
0000
0000
,
0110
0000
0000
0000
,
0100
0000
0000
0000
,
0010
0000
0000
0000
,
1000
0000
0000
0000
,
1001
0000
0000
0000
,
0001
0000
0000
0000
,
1000
0000
0000
0000
,
0100
0000
0000
0000
,
1001
0000
0000
0000
,
1000
0000
0000
0000
,
0001
0000
0000
0000
,
1000
0000
0000
0000
,
0110
0000
0000
0000
,
0100
0000
0000
0000
,
0010
0000
0000
0000
,
0100
0000
0000
0000
,
1000
0000
1000
0000
,
1000
0000
0000
0000
,
0001
0000
0001
0000
,
0001
0000
0000
0000
,
0010
0000
0010
0000
,
0010
0000
0000
0000
,
0100
0000
0100
0000
,
0100
0000
0000
0000
,
0110
0000
0000
0000
,
0100
0000
0000
0000
,
0010
0000
0000
0000
,
1000
0000
0000
0000
,
1001
0000
0000
0000
,
0001
0000
0000
0000
,
1000
0000
0000
0000
,
0100
0000
0000
0000
;

//---------------dance-single - ----------------
#NOTES:
     dance-single:
     :
     Easy:
     5:
     0.218627,0.308542,0.046944,0.000000,0.000000,163.000000,158.000000,5.000000,0.000000,0.000000,0.000000,0.218627,0.308542,0.046944,0.000000,0.000000,163.000000,158.000000,5.000000,0.000000,0.000000,0.000000:
0000
0000
0000
0000
,
0000
0000
0000
0000
,
0000
0000
0000
0000
,
0000
0000
1000
0001
,
1000
0100
0000
0000
,
0000
0000
0001
1000
,
0001
0100
0000
0000
,
0000
0000
1000
0001
,
1000
0000
0100
0000
0010
0000
0000
0010
,
0000
0001
0001
0010
,
0100
1000
0001
0010
,
0000
0000
0001
1001
,
1000
0000
0001
0000
,
1000
0001
0100
0000
,
0001
0000
1000
0000
,
0001
1000
0100
0000
,
0010
0000
0001
0000
,
0010
0001
0100
0000
,
0010
0000
0100
0000
,
0010
1000
0100
0000
,
1001
0000
1000
0000
,
0001
1000
0100
1000
,
0001
0000
1000
0000
,
0001
0010
0001
1000
,
0010
0000
0100
0000
,
0010
0000
1000
0000
,
0001
0000
1000
0000
,
0001
0000
1000
0001
,
1000
0100
0000
0000
,
0000
0000
0010
0010
,
0001
0010
0001
1001
,
1000
0010
0001
0100
,
1000
1001
1000
1000
,
0001
1000
0001
0100
,
0100
0000
0010
0000
0100
0000
0000
0100
,
0000
0000
0010
0100
,
0001
0000
1000
0000
,
0001
1000
0010
0000
,
1000
0000
0001
0000
,
1000
0001
0010
0000
,
0100
0000
1000
0000
,
0100
1000
0010
0000
,
0100
0000
0010
0000
,
0100
0001
0010
0000
,
1001
0000
0001
0000
,
1000
0001
0010
0001
,
1000
0000
0001
0000
,
1000
0100
1000
0001
,
0100
0000
0010
0000
,
0100
0000
0001
0000
,
1000
0000
0001
0000
,
1000
0000
0001
1000
,
0001
0010
0001
0000
,
0010
0010
0100
0100
,
1000
0100
1000
0000
,
0100
0100
1000
1000
,
0001
1000
0001
0000
,
1000
0001
1000
0000
,
0010
0100
0010
0000
,
0100
0010
0100
0010
;

//---------------dance-single - ----------------
#NOTES:
     dance-single:
     :
     Medium:
     8:
     0.356777,0.364641,0.009389,0.000000,0.230027,266.000000,265.000000,1.000000,0.000000,0.000000,0.000000,0.356777,0.364641,0.009389,0.000000,0.230027,266.000000,265.000000,1.000000,0.000000,0.000000,0.000000:
0000
0000
0000
0000
,
0000
0000
0000
0000
,
0000
0000
0000
0000
,
0000
0000
0000
0000
,
0100
0000
0010
0000
0001
0000
0000
0001
,
0000
0000
0100
0100
,
0010
0000
1000
0000
0100
0000
0000
0100
,
0000
0000
0010
0001
,
0010
0000
0100
0000
1000
0000
0000
0001
,
0000
0000
0000
0000
0100
0000
0100
0100
,
0100
0000
0001
0000
0010
0000
0000
0100
,
0000
0000
0100
0000
0000
0100
0000
0000
1000
0000
0000
0000
1001
0000
0000
0000
,
1000
0000
0000
0000
0100
0000
0000
0000
0001
0000
0000
0001
0000
0000
0001
0000
,
0000
0000
1000
0000
0000
0100
0000
0000
1000
0000
0000
0000
0001
0000
0000
0000
,
0001
0000
0000
0000
0100
0000
0000
0000
1000
0000
0000
1000
0000
0000
1000
0000
,
0000
0000
0001
0000
0000
0100
0000
0000
0001
0000
0000
0000
0100
0000
0000
0000
,
0100
0000
0000
0000
0010
0000
0000
0000
0010
0000
0000
1000
0000
0000
0010
0000
,
0000
0000
0100
0000
0000
0001
0000
0000
0100
0000
0000
0000
0001
0000
1000
0000
,
0001
0000
0000
0000
1000
0000
0000
0000
1000
0000
0000
0001
0000
0000
0100
0000
,
0000
0000
0100
0000
0000
0010
0000
0000
0100
0000
0100
0000
0100
0000
0100
0000
,
0100
0000
0000
0000
0001
0000
0000
0000
1000
0000
0000
1000
0000
0000
0001
0000
,
0000
0000
0100
0000
0000
1000
0000
0000
0010
0000
0010
0000
0010
0000
0010
0000
,
0010
0000
0000
0000
1000
0000
0100
0000
1000
0000
0000
0001
0000
0000
1000
0000
,
0000
0000
0010
0000
0000
0100
0000
0000
0100
0000
0100
0000
0100
0000
0100
0000
,
0100
0000
0000
0000
0100
0000
0010
0000
0100
0000
0000
0010
0000
0000
1000
0000
,
0000
0000
1000
0000
0000
0100
0000
0000
0010
0000
0000
0000
0010
0000
0001
0000
,
0010
0000
0000
0000
0001
0000
0000
0000
0100
0000
0000
0100
0000
0000
0100
0000
,
0000
0000
0001
0000
0000
0100
0000
0000
0001
0000
0000
0000
0000
0000
0000
0000
,
1000
0000
0000
0000
0001
0000
0000
0000
0100
0000
0000
0100
0000
0000
0100
0000
,
0000
0000
0100
0000
0000
0100
0000
0000
0010
0000
0000
0000
1000
0000
0000
0000
,
0001
0000
0000
0000
0010
0000
0000
0000
0100
0000
0000
0100
0000
0000
0100
0000
,
0000
0000
0100
0000
0000
0100
0000
0000
0010
0000
0000
0000
0001
0000
0000
0000
,
0100
0000
0000
0000
0010
0000
0000
0000
1000
0000
0000
1000
0000
0000
1000
0000
,
0000
0000
1000
0000
0000
1000
0000
0000
1000
0000
0000
0000
0010
0000
0010
0000
,
0010
0000
0000
0000
0100
0000
0000
0000
0010
0000
0000
0010
0000
0000
0010
0000
,
0000
0000
0010
0000
0000
0010
0000
0000
0010
0000
0000
0000
0100
0000
0000
0000
,
0001
0000
0000
0000
0010
0000
0000
0000
1000
0000
0000
1000
0000
0000
1000
0000
,
0000
0000
0001
0000
0000
0010
0000
0000
0001
0000
0000
0000
1000
0000
0000
0000
,
1000
0000
0000
0000
0010
0000
0000
0000
0001
0000
0000
0001
0000
0000
0001
0000
,
0000
0000
1000
0000
0000
0010
0000
0000
1000
0000
0000
0000
0010
0000
0000
0000
,
0010
0000
0000
0000
0100
0000
0000
0000
0100
0000
0000
0001
0000
0000
0100
0000
,
0000
0000
0010
0000
0000
1000
0000
0000
0010
0000
0000
0000
1000
0000
0001
0000
,
1000
0000
0000
0000
0001
0000
0000
0000
0001
0000
0000
1000
0000
0000
0010
0000
,
0000
0000
0010
0000
0000
0100
0000
0000
0010
0000
0010
0000
0010
0000
0000
0000
,
0010
0000
0000
0000
1000
0000
0000
0000
0001
0000
0000
0001
0000
0000
1000
0000
,
0000
0000
0010
0000
0000
0001
0000
0000
0100
0000
0100
0000
0100
0000
0100
0000
,
0100
0000
0000
0000
0001
0000
0010
0000
0001
0000
0000
1000
0000
0000
0001
0000
,
0000
0000
0100
0000
0000
0010
0000
0000
0010
0000
0010
0000
0010
0000
0010
0000
,
0010
0000
0000
0000
0010
0000
0100
0000
0010
0000
0000
0100
0000
0000
0001
0000
,
0000
0000
0001
0000
0000
0010
0000
0000
0100
0000
0000
0000
0100
0000
1000
0000
,
0100
0000
0000
0000
1000
0000
0000
0000
0010
0000
0000
0010
0000
0000
0010
0000
,
0000
0000
1000
0000
0000
0010
0000
0000
1000
0000
1000
0000
1000
0000
1000
0000
,
0001
0000
0000
0000
1000
0000
0000
0000
0010
0000
0000
0010
0000
0000
0010
0000
,
0000
0000
0010
0000
0000
0010
0000
0000
0100
0000
0000
0000
0001
0000
0000
0000
,
1000
0000
0000
0000
0100
0000
0000
0000
0010
0000
0000
0010
0000
0000
0010
0000
,
0000
0000
0010
0000
0000
0010
0000
0000
0100
0000
0000
0000
1000
0000
0000
0000
,
0010
0000
0000
0000
0100
0000
0000
0000
0001
0000
0000
0001
0000
0000
0001
0000
,
0000
0000
0001
0000
0000
0001
0000
0000
0001
0000
0000
0000
0100
0000
0100
0000
,
0100
0000
0000
0000
0010
0000
0000
0000
0100
0000
0000
0100
0000
0000
0100
0000
,
0000
0000
0100
0000
0000
0100
0000
0000
0100
0000
0000
0000
0010
0000
0000
0000
;
