#TITLE:Attitude;
#SUBTITLE:;
#ARTIST:Y&Co.;
#TITLETRANSLIT:;
#SUBTITLETRANSLIT:;
#ARTISTTRANSLIT:;
#CREDIT:Chewi☆;
#BANNER:Attitude.png;
#BACKGROUND:Attitude-bg.png;
#LYRICSPATH:;
#CDTITLE:;
#MUSIC:Attitude.mp3;
#OFFSET:-2.206;
#SAMPLESTART:38.629;
#SAMPLELENGTH:15.000;
#SELECTABLE:YES;
#BPMS:0.000=145.000;
#STOPS:;
#BGCHANGES:;
#MENUCOLOR:;
#METERTYPE:DDR X;

//---------------dance-single - Chewi----------------
#NOTES:
     dance-single:
     Chewi:
     Beginner:
     3:
     0.171,0.221,0.095,0.126,0.000:
0000
0000
0000
0000
,
0000
0000
0000
0000
,
0000
0000
0000
0000
,
0000
0000
0000
0000
,
2000
0000
0000
3000
,
1000
0000
0000
0000
,
0002
0000
0000
0003
,
0001
0000
0000
0000
,
0200
0000
0000
0300
,
0100
0000
0000
0000
,
0020
0000
0000
0030
,
0010
0000
0000
0000
,
1001
0000
0000
0000
,
0100
0000
0000
0000
,
0110
0000
0000
0000
,
0001
0000
0000
0000
,
2000
0000
0000
3000
,
0002
0000
0000
0003
,
0200
0000
0000
0300
,
0020
0000
0000
0030
,
0110
0000
0000
0000
,
0000
0000
0000
0000
,
1000
0000
0100
0000
,
0001
0000
0010
0000
,
1000
0000
0010
0000
,
0001
0000
0100
0000
,
1000
0000
0001
0000
,
0100
0000
0010
0000
,
1000
0000
0001
0000
,
0010
0000
0100
0000
,
0010
0010
0010
0000
,
0001
0000
1001
0000
,
0001
0001
0001
0000
,
1000
0000
1001
0000
,
0100
0100
0100
0000
,
0010
0000
0110
0000
,
0010
0010
0010
0000
,
1000
0000
1001
0000
,
2000
0000
0000
3000
,
1000
1000
1000
1000
,
0002
0000
0000
0003
,
0001
0001
0001
0001
,
0200
0000
0000
0300
,
0100
0100
0100
0100
,
0020
0000
0000
0030
,
0010
0010
0010
0010
,
0010
0000
0100
0000
,
0001
0000
1000
0000
,
1000
0000
0100
0000
,
0001
0000
0010
0000
,
1000
0000
0001
0000
,
0100
0000
0010
0000
,
1000
1000
1000
0000
,
1000
1000
1000
0000
,
1001
0000
0010
0000
,
0100
0000
0010
0000
,
0110
0000
1000
0000
,
0001
0000
1000
0000
,
1001
0000
1000
0000
,
0010
0000
0001
0000
,
1001
0000
0001
0000
,
0100
0000
1000
0000
,
2000
0000
0000
3000
,
0100
0100
0100
0000
,
0002
0000
0000
0003
,
0100
0100
0100
0000
,
2000
0000
0000
3000
,
0010
0010
0010
0000
,
0002
0000
0000
0003
,
0010
0010
0010
0000
,
0110
0000
0000
0000
;

//---------------dance-single - Chewi----------------
#NOTES:
     dance-single:
     Chewi:
     Easy:
     5:
     0.280,0.331,0.087,0.221,0.000:
0000
0000
0000
0000
,
0000
0000
0000
0000
,
0000
0000
0000
0000
,
0000
0000
0000
0000
,
1000
1000
1000
1000
,
0100
0100
0100
0100
,
0010
0010
0010
0010
,
0001
0001
0001
0001
,
0002
0000
0203
0000
,
2300
0000
3020
0000
,
2030
0000
3200
0000
,
0302
0000
0023
0000
,
0130
0100
0100
0100
,
0010
0100
0010
0100
,
0001
0001
0001
0001
,
1000
0001
1000
0001
,
1000
0100
0001
0100
,
1000
0100
0001
0100
,
0001
0010
1000
0010
,
0001
0010
1000
0010
,
2002
0000
0000
0000
,
0000
0000
0000
3003
,
1000
0100
0010
0001
,
1000
0100
0010
0001
,
1000
0010
0001
0010
,
1000
0100
0001
0010
,
0001
0010
0100
1000
,
0001
0010
0100
1000
,
0001
0100
1000
0010
,
0001
0100
0010
0001
,
0100
0010
1000
0001
,
0010
0100
1000
0001
,
1000
0100
0001
0100
,
0001
0010
1000
0010
,
0100
0010
1000
0001
,
0010
0100
1000
0001
,
1000
0100
1000
0100
,
0001
0100
0001
0100
,
0220
0000
0000
0330
,
0010
0000
1000
0100
,
0001
0000
0000
0001
,
1000
0001
0000
0010
,
0010
0000
0110
0000
,
1001
0000
0001
0100
,
1000
0000
0000
1000
,
0010
0000
1000
0010
,
0001
0000
0000
0100
,
0010
0000
0110
0000
,
1001
0000
0000
1000
,
0001
0000
0000
1000
,
0100
0010
0001
0001
,
0001
0000
1000
0001
,
2000
0000
3020
0000
,
0032
0000
0203
0000
,
1300
1000
1000
1000
,
0100
0100
0100
0100
,
0010
0010
0010
0010
,
1000
1000
1000
1000
,
2000
0000
3200
0000
,
0302
0000
0023
0000
,
0230
0000
0302
0000
,
0023
0000
0230
0000
,
1300
1000
1000
1000
,
0001
1000
0001
1000
,
0010
0010
0010
0010
,
0100
0010
0100
0010
,
0220
0000
0000
0330
,
2002
0000
0000
3003
,
0001
0010
1000
0010
,
0001
1000
1001
0110
,
1001
0000
0000
0000
;

//---------------dance-single - Chewi----------------
#NOTES:
     dance-single:
     Chewi:
     Medium:
     8:
     0.345,0.469,0.165,0.087,0.193:
0000
0000
0000
0000
,
0000
0000
0000
0000
,
0000
0000
0000
0000
,
0000
0000
0000
0000
,
1000
0000
0000
1000
0000
0000
0000
0000
0100
0000
0000
0100
0000
0000
0000
0000
,
0010
0000
0000
0010
0000
0000
0000
0000
0001
0000
0000
0001
0000
0000
0000
0000
,
1000
0000
0000
1000
0000
0000
0000
0000
0001
0000
0000
0001
0000
0000
0000
0000
,
0100
0000
0000
0100
0000
0000
0000
0000
0010
0000
0000
0010
0000
0000
0010
0000
,
0100
0010
0100
0000
0001
0000
1000
0000
,
0100
0001
0010
1000
,
0001
0010
0100
0000
0010
0000
0001
0000
,
0100
1000
0010
0100
,
0010
0100
0010
0000
1000
0000
0001
0000
,
0010
0100
1000
0010
,
0202
0303
0022
0033
,
2200
3300
2020
3030
,
0010
0100
0010
0000
0100
0000
0100
0000
,
0100
0010
0100
0000
0010
0000
0010
0000
,
1000
0100
0010
0000
0001
0010
0100
0000
,
1000
0001
1000
0001
1000
0001
1000
0001
,
2000
0000
0000
0000
,
0000
0000
0000
0000
0000
0000
3001
0001
,
0001
0000
0000
0001
0000
0000
0000
0000
0010
0000
0000
0010
0000
0000
0000
0000
,
0100
0000
0000
0100
0000
0000
0000
0000
1000
0000
0000
1000
0000
0000
0000
0000
,
0001
0000
0000
0001
0000
0000
0000
0000
1000
0000
0000
1000
0000
0000
0000
0000
,
0010
0000
0000
0010
0000
0000
0000
0000
0100
0000
0000
0100
0000
0000
0100
0000
,
0010
0000
0000
0010
0000
0000
0000
0000
1000
0000
0000
1000
0000
0000
0000
0000
,
0100
0000
0000
0100
0000
0000
0000
0000
0001
0000
0000
0001
0000
0000
0001
0000
,
0010
0000
0000
0010
0000
0000
0000
0000
0100
0000
0000
0100
0000
0000
0000
0000
,
0010
0000
0000
0001
0000
0000
0000
0000
0010
0000
0000
0001
0000
0000
0000
0000
,
0001
0000
0000
0100
0000
0000
0000
0000
0010
0000
0000
1000
0000
0000
0000
0000
,
0001
0000
0000
1000
0000
0000
0000
0000
0100
0000
0000
0010
0000
0000
0000
0000
,
0001
0000
0000
1000
0000
0000
0000
0000
0010
0000
0000
1000
0000
0000
0000
0000
,
0010
0000
0000
0100
0000
0000
0000
0000
0010
0000
0000
0001
0000
0000
0010
0000
,
0200
0001
1000
0301
,
0020
1000
0100
0031
,
0010
1000
0100
0000
0010
0001
0100
0000
,
0010
0100
0010
0000
0100
0000
0110
0000
,
1010
0000
0000
0000
0000
0000
0000
0000
0000
0100
0000
0000
0000
0000
0000
0000
,
0001
0000
0000
0000
0010
0000
0100
1000
,
0000
0000
0000
0000
0000
1000
0000
1001
,
0000
0000
0000
0000
0000
1000
0010
0100
,
0001
0000
0000
0000
0100
0000
0010
1000
,
0000
0000
0000
0000
0000
0011
0000
1100
,
0000
0000
0000
0000
0000
1010
0000
0101
,
0000
0000
0000
0000
0000
0010
0100
0001
,
1000
0000
0000
0000
0000
0100
0000
0000
,
0011
0000
0000
0000
1010
0000
0000
1001
,
0000
0000
0000
0000
0000
1001
0000
1001
,
0000
0000
0000
0000
0000
0001
0010
0100
,
0000
0000
0000
0000
1000
0000
0001
1000
,
0000
0000
0000
0010
0000
0100
0000
0001
,
0100
0001
0100
0000
0100
1000
0100
0000
,
0010
1000
0010
0000
0010
0001
0010
0000
,
0010
0000
0000
0001
0000
0000
0000
0000
0100
0000
0000
0001
0000
0000
0000
0000
,
0010
0000
0000
1000
0000
0000
0000
0000
0100
0000
0000
1000
0000
0000
0000
0000
,
0010
0000
0000
0100
0000
0000
0000
0000
0001
0000
0000
1000
0000
0000
0000
0000
,
0100
0000
0000
0010
0000
0000
0000
0000
0001
0000
0000
1000
0000
0000
1000
0000
,
0010
0000
0000
1000
0000
0000
0000
0000
0100
0000
0000
1000
0000
0000
0000
0000
,
0010
0000
0000
0001
0000
0000
0000
0000
0100
0000
0000
0001
0000
0000
0000
0000
,
0100
0000
0000
0010
0000
0000
0000
0000
1000
0000
0000
0001
0000
0000
0000
0000
,
0010
0000
0000
0100
0000
0000
0000
0000
1000
0000
0000
0001
0000
0000
1000
0000
,
0100
1000
0100
0000
0001
0100
0001
0000
,
0100
0110
1001
0110
,
0010
0100
0010
0000
0001
1000
0001
0000
,
1000
1100
0001
0101
,
0100
0010
0100
0000
0001
1000
0001
0000
,
0010
0000
0100
0000
0010
0100
0010
0000
,
0001
0010
0100
0000
1000
0100
0010
0000
,
0001
1000
0010
0100
0001
1000
0100
0010
,
0001
0000
0000
0000
;

//---------------dance-single - Chewi----------------
#NOTES:
     dance-single:
     Chewi:
     Hard:
     13:
     0.483,0.469,0.095,0.063,0.358:
0000
0000
0000
0000
,
0000
0000
0000
0000
,
0000
0000
0000
0000
,
0000
0000
0000
0000
,
1000
0000
0000
0100
0000
0000
0010
0000
0001
0000
0000
0100
0000
0000
1000
0000
,
0010
0000
0000
0100
0000
0000
0001
0000
1000
0000
0000
0100
0000
0000
0010
0000
,
0001
0000
0000
0010
0000
0000
0100
0000
1000
0000
0000
0010
0000
0000
0100
0000
,
0001
0000
0000
0100
0000
0000
0010
0000
1000
0000
0000
0001
0000
0000
0010
0000
,
0100
0000
0100
0010
0100
0000
0100
0010
,
0100
0010
0001
0100
0010
0100
0001
0100
,
0010
0000
0010
0100
0010
0000
0010
0100
,
0010
1000
0100
1000
0010
1000
0100
0010
,
0001
0000
0000
0010
0000
0000
0100
0000
1000
0000
0000
0010
0000
0000
0100
0000
,
0001
0000
0000
0100
0000
0000
0010
0000
1000
0000
0000
0001
0000
0000
0010
0000
,
0100
0000
0000
0010
0000
0000
0001
0000
0100
0000
0000
1000
0000
0000
0010
0000
,
1000
0000
0000
0100
0000
0000
0001
0000
0010
0000
0000
0100
0000
0000
1000
0000
,
0001
0001
1000
0000
0001
1000
0001
1000
,
1000
1000
0001
0000
0100
0010
1000
0001
,
0011
1100
0101
1010
,
0010
0001
0100
1000
0010
1000
0100
0001
,
0020
0000
0000
0000
,
0000
0000
0000
0000
0000
0000
0130
0100
,
0010
0000
0000
0100
0000
0000
0001
0000
0010
0000
0000
0100
0000
0000
1000
0000
,
0010
1000
0000
0100
0000
0000
0010
0000
0001
0000
0000
0100
0000
0000
0010
0000
,
0100
0000
0000
0001
0000
0000
0010
0000
0100
0000
0000
1000
0000
0000
0010
0000
,
0010
1000
0000
0100
0000
0000
0010
0000
0001
0000
0000
0100
0000
0000
0010
0000
,
0100
0000
0000
0001
0000
0000
0010
0000
0100
0000
0000
1000
0000
0000
0010
0000
,
1000
0100
0000
1000
0000
0000
0001
0000
0100
0000
0000
0010
0000
0000
0100
0000
,
0001
0000
0000
1000
0000
0000
0100
0000
0010
0000
0000
0001
0000
0000
1000
0000
,
0010
0100
0000
0001
0000
0000
0100
0000
0010
0000
0000
1000
0000
0000
0001
0000
,
0010
0000
0000
0100
0000
0000
0010
0000
0001
0000
0000
0100
0000
0000
1000
0000
,
0010
1000
0000
1000
0000
0000
0100
0000
0001
0000
0000
0010
0000
0000
0100
0000
,
0010
0000
0000
0100
0000
0000
0010
0000
1000
0000
0000
0001
0000
0000
0010
0000
,
0100
1000
0000
0010
0000
0000
1000
0000
0100
0000
0000
1000
0000
0000
0010
0000
,
0100
0000
0000
0001
0000
0000
0100
0000
0010
0000
0000
0100
0000
0000
0001
0000
,
0100
0010
0000
0010
0000
0000
0001
0000
0010
0000
0000
0100
0000
0000
1000
0000
,
0010
0000
0000
0010
0000
0000
0100
0000
0001
0000
0000
0001
0000
0000
1000
0000
,
0100
0010
0000
0010
0000
0000
0010
0000
0001
0000
1000
0000
0010
0000
0100
0000
,
0100
0001
0010
0000
0100
0010
0001
0100
,
0010
1000
0100
0000
0010
0100
1000
0010
,
0100
0001
1000
0000
0010
0100
1000
0001
,
1000
0010
0101
0000
0001
0010
0100
0010
,
0001
0100
0010
1000
0001
0010
0100
1000
,
0001
1000
0001
1000
0010
0100
0010
0100
,
0001
0010
0100
1000
0001
0010
0100
1000
,
1000
0010
0100
0001
1000
0010
0100
0001
,
0200
0000
0000
0000
0000
0320
0000
0000
,
2030
0000
0000
0000
3002
0000
0000
0023
,
0000
0000
0000
0000
0000
0032
0000
0203
,
0000
0000
0000
0000
0000
0000
0000
0000
0000
0300
0010
0000
1000
0000
0100
0000
,
0010
0001
0100
0000
0101
0000
1100
1010
,
0000
0000
0000
1010
0000
0101
0000
0001
,
0010
0100
1000
0000
0010
0100
0001
0000
,
0100
0000
0010
0000
1000
0000
0001
0000
0010
0000
0100
0010
0100
0000
0000
0000
,
0100
0000
0000
0010
0000
0000
1000
0000
0100
0000
0000
0010
0000
0000
0001
0000
,
0100
0001
0000
0010
0000
0000
0100
0000
1000
0000
0000
0010
0000
0000
0100
0000
,
0010
0000
0000
1000
0000
0000
0100
0000
0010
0000
0000
0001
0000
0000
0100
0000
,
0100
0001
0000
0010
0000
0000
0100
0000
1000
0000
0000
0010
0000
0000
0100
0000
,
0010
0000
0000
1000
0000
0000
0100
0000
0010
0000
0000
0001
0000
0000
0100
0000
,
0001
0010
0000
0001
0000
0000
1000
0000
0010
0000
0000
0100
0000
0000
0010
0000
,
1000
0000
0000
0001
0000
0000
0010
0000
0100
0000
0000
1000
0000
0000
0001
0000
,
0100
0010
0000
1000
0000
0000
0010
0000
0100
0000
0000
0001
0000
0000
1000
0000
,
0100
0000
0000
0010
0000
0000
0100
0000
1000
0000
0000
0010
0000
0000
0001
0000
,
0100
0001
0000
0001
0000
0000
0010
0000
1000
0000
0000
0100
0000
0000
0010
0000
,
0100
0000
0000
0010
0000
0000
0100
0000
0001
0000
0000
1000
0000
0000
0100
0000
,
0010
0001
0000
0100
0000
0000
0001
0000
0010
0000
0000
0001
0000
0000
0100
0000
,
0010
0000
0000
1000
0000
0000
0010
0000
0100
0000
0000
0010
0000
0000
1000
0000
,
0010
0100
0000
0100
0000
0000
0001
0000
0010
0000
0000
0100
0000
0000
1000
0000
,
1001
0100
0010
0000
1001
0010
0100
0000
,
0010
0001
0100
1000
0010
1000
0100
0001
,
0010
0000
0000
0000
;

//---------------dance-double - Chewi----------------
#NOTES:
     dance-double:
     Chewi:
     Easy:
     5:
     0.272,0.358,0.142,0.126,0.000:
00000000
00000000
00000000
00000000
,
00000000
00000000
00000000
00000000
,
00000000
00000000
00000000
00000000
,
00000000
00000000
00000000
00000000
,
10000000
10000000
10000000
10000000
,
01000000
01000000
01000000
01000000
,
00100000
00100000
00100000
00100000
,
00010000
00010000
00010000
00010000
,
00001000
00001000
00001000
00001000
,
00000100
00000100
00000100
00000100
,
00000010
00000010
00000010
00000010
,
00000001
00000001
00000001
00000001
,
00002002
00000000
00000000
00003003
,
00000001
00001000
00010000
10000000
,
20020000
00000000
00000000
30030000
,
00100000
01000000
00010000
10000000
,
20020000
00000000
00000000
30030000
,
02200000
00000000
00000000
03300000
,
00100000
00010000
00001000
00000010
,
00001000
00010000
00000100
00001000
,
00011000
00000000
00000000
00000000
,
00000000
00000000
00000000
00000000
,
00010000
00100000
10000000
01000000
,
00010000
00100000
10000000
01000000
,
00100000
00010000
00001000
00000100
,
00000010
00000001
00000100
00000001
,
00000010
00000001
00000100
00001000
,
00000010
00000001
00000100
00001000
,
00000010
00001000
00010000
01000000
,
00100000
10000000
01000000
10000000
,
10100000
00000000
10010000
00000000
,
01010000
00000000
10010000
00000000
,
00100000
00000000
00001000
00000000
,
00000010
00000000
00000001
00000000
,
00000011
00000000
00001001
00000000
,
00001100
00000000
00001001
00000000
,
00000010
00000000
00001000
00000000
,
00010000
00000000
01000000
00000000
,
00100000
00000000
00000000
00000000
,
10000000
00000000
00010000
00000000
,
00100000
00000000
00000000
00001000
,
00010000
00000000
00000000
00000010
,
00000100
00000000
00000001
00001000
,
00000001
00000000
00000010
00000100
,
00001000
00000000
00000010
00001000
,
00000100
00000000
00000010
00001000
,
00000100
00000000
00000000
00010000
,
00001000
00000000
00001000
00100000
,
10000000
01000000
00010000
00100000
,
00100000
00000000
00000000
01000000
,
00100000
00000000
10010000
01100000
,
10010000
00000000
00010000
00100000
,
02000000
13000000
02000000
03010000
,
00200000
10300000
00200000
00310000
,
00100000
00100000
00100000
00100000
,
01000000
01000000
01000000
01000000
,
10000000
10000000
10000000
10000000
,
00010000
00010000
00010000
00010000
,
00001000
00001000
00001000
00001000
,
00000100
00000100
00000100
00000100
,
00000010
00000010
00000010
00000010
,
00001000
00001000
00001000
00001000
,
00000100
00001000
00000100
00010000
,
00001000
00010000
00010000
01000000
,
00100000
01000000
00010000
10000000
,
01000000
00100000
00010000
00100000
,
01000000
00100000
00010000
00001000
,
00000100
00001000
00000010
00001000
,
00002002
00003003
00000220
00000330
,
00000010
00001000
00000100
00000001
,
00000010
00000000
00000000
00000000
;

//---------------dance-double - Chewi----------------
#NOTES:
     dance-double:
     Chewi:
     Medium:
     8:
     0.317,0.414,0.205,0.079,0.173:
00000000
00000000
00000000
00000000
,
00000000
00000000
00000000
00000000
,
00000000
00000000
00000000
00000000
,
00000000
00000000
00000000
00000000
,
10000000
00000000
00000000
01000000
00000000
00000000
00000000
00000000
00100000
00000000
00000000
00010000
00000000
00000000
00000000
00000000
,
01000000
00000000
00000000
00100000
00000000
00000000
00000000
00000000
10000000
00000000
00000000
00010000
00000000
00000000
00000000
00000000
,
00100000
00000000
00000000
00100000
00000000
00000000
00000000
00000000
00010000
00000000
00000000
00010000
00000000
00000000
00000000
00000000
,
00001000
00000000
00000000
00001000
00000000
00000000
00000000
00000000
00000010
00000000
00000000
00000010
00000000
00000000
00000000
00000000
,
00000010
00000000
00000000
00000100
00000000
00000000
00000000
00000000
00000001
00000000
00000000
00001000
00000000
00000000
00000000
00000000
,
00000100
00000000
00000000
00000010
00000000
00000000
00000000
00000000
00000001
00000000
00000000
00000010
00000000
00000000
00000000
00000000
,
00000100
00000000
00000000
00001000
00000000
00000000
00000000
00000000
00000010
00000000
00000000
00001000
00000000
00000000
00000000
00000000
,
00000100
00000000
00000000
00000010
00000000
00000000
00000000
00000000
00000001
00000000
00000000
00001000
00000000
00000000
00000000
00000000
,
00000010
00000000
00000000
00000010
00000000
00000000
00000000
00000000
00001000
00000000
00000000
00001000
00000000
00000000
00000000
00000000
,
00010000
00000000
00000000
00010000
00000000
00000000
00000000
00000000
01000000
00000000
00000000
01000000
00000000
00000000
00000000
00000000
,
10000000
00000000
00000000
00010000
00000000
00000000
00000000
00000000
00100000
00000000
00000000
01000000
00000000
00000000
00000000
00000000
,
10000000
00000000
00000000
00010000
00000000
00000000
00000000
00000000
01000000
00000000
00000000
00100000
00000000
00000000
00000000
00000000
,
20020000
00000000
00000000
30030000
,
02200000
00000000
00000000
03300000
,
00100000
00010000
01000000
10000000
,
00100000
01000000
00100000
01000000
00100000
01000000
00100000
01000000
,
00200000
00000000
00000000
00000000
,
00300000
00000000
00000000
00000000
,
00100000
00010000
00001000
00000010
,
00000001
00000100
00001000
00000000
00001000
00000100
00000001
00000000
,
00001001
00000110
00001001
00000110
,
00000010
00001000
00000100
00000000
00000010
00000001
00000100
00000000
,
00000001
00000010
00001000
00010000
,
01000000
10000000
00100000
00010000
,
00100000
00010000
10000000
00000000
00100000
10000000
00010000
00000000
,
00100000
01100000
01000000
10010000
,
10000000
00100000
10000000
00000000
00010000
00000000
01000000
00000000
,
00010000
00100000
00010000
00000000
10000000
00000000
01000000
00000000
,
00100000
00010000
00001000
00000000
00000100
00000000
00000010
00000000
,
00000001
00000100
00000010
00000000
00001000
00000000
00001001
00000000
,
00000001
00000100
00000001
00000000
00000100
00000000
00000010
00000000
,
00001000
00000001
00000010
00000100
,
00001000
00000010
00001000
00000000
00000100
00000000
00010000
00000000
,
00001000
00100000
00010000
00000000
01000000
00000000
10000000
00000000
,
10010000
00000000
00000000
00000000
00000000
10000000
00000000
00000000
,
00110000
00000000
00000000
00000000
10000000
00000000
00000000
00010000
,
00000000
00000000
00000000
00000000
00000000
00100000
00000000
00001000
,
00000000
00000000
00000000
00000000
00000000
00000001
00000010
00000001
,
00000000
00000000
00000000
00000000
00000010
00000000
00001000
00000001
,
00000000
00000000
00000000
00000000
00000000
00000101
00000000
00001010
,
00000000
00000000
00000000
00000000
00000000
00001001
00000000
00000100
,
00000000
00000000
00000000
00000000
00000000
00000100
00001000
00010000
,
01000000
00000000
00000000
00000000
00000000
10000000
00000000
00000000
,
00100000
00000000
00000000
00000000
00010000
00000000
00000000
01000000
,
00000000
00000000
00000000
00000000
00000000
00010000
00000000
00001000
,
00000000
00000000
00000000
00000000
00000010
00000100
00000010
00000100
,
00000000
00000000
00000000
00000000
00000001
00000000
00001000
00000100
,
00000000
00000000
00000000
00000010
00000000
00000011
00000000
00000101
,
00000001
00000100
00000001
00000000
00001000
00000100
00001000
00000000
,
00000020
00001000
00000100
00000031
,
00000001
00000000
00000000
00000010
00000000
00000000
00000000
00000000
00000100
00000000
00000000
00001000
00000000
00000000
00000000
00000000
,
00000010
00000000
00000000
00000100
00000000
00000000
00000000
00000000
00000100
00000000
00000000
00000010
00000000
00000000
00000000
00000000
,
00001000
00000000
00000000
00000100
00000000
00000000
00000000
00000000
00010000
00000000
00000000
01000000
00000000
00000000
00000000
00000000
,
10000000
00000000
00000000
01000000
00000000
00000000
00000000
00000000
10000000
00000000
00000000
00100000
00000000
00000000
00000000
00000000
,
10000000
00000000
00000000
01000000
00000000
00000000
00000000
00000000
00100000
00000000
00000000
00010000
00000000
00000000
00000000
00000000
,
00001000
00000000
00000000
00000010
00000000
00000000
00000000
00000000
00000001
00000000
00000000
00000010
00000000
00000000
00000010
00000000
,
00000010
00001001
00000100
00001001
,
00001000
00000100
00000001
00000010
,
00000010
00000000
00000000
00001000
00000000
00000000
00000000
00000000
00001000
00000000
00000000
00010000
00000000
00000000
00000000
00000000
,
00010000
00000000
00000000
01000000
00000000
00000000
00000000
00000000
10000000
00000000
00000000
01000000
00000000
00000000
00000000
00000000
,
10000000
00000000
00000000
01000000
00000000
00000000
00000000
00000000
00100000
00000000
00000000
00010000
00000000
00000000
00000000
00000000
,
00001000
00000000
00000000
00010000
00000000
00000000
00000000
00000000
00010000
00000000
00000000
00001000
00000000
00000000
00010000
00000000
,
00022000
00000000
00000000
00033000
,
00002020
00000000
00000000
00003030
,
00001100
00000000
00000101
00000000
,
00001001
00000110
00001010
00001100
,
00010000
00000000
00000000
00000000
;

//---------------dance-double - Chewi----------------
#NOTES:
     dance-double:
     Chewi:
     Hard:
     14:
     0.530,0.551,0.126,0.102,0.323: // measure 1
00000000
00000000
00000000
00000000
,  // measure 2
00000000
00000000
00000000
00000000
,  // measure 3
00000000
00000000
00000000
00000000
,  // measure 4
00000000
00000000
00000000
00000000
,  // measure 5
10000000
00000000
00000000
01000000
00000000
00000000
00100000
00000000
00010000
00000000
00000000
01000000
00000000
00000000
00100000
00000000
,  // measure 6
01000000
00010000
00000000
00010000
00000000
00000000
00100000
00000000
00001000
00000000
00000000
00010000
00000000
00000000
00000100
00000000
,  // measure 7
00001000
00000000
00000000
00000010
00000000
00000000
00001000
00000000
00000001
00000000
00000000
00000010
00000000
00000000
00000100
00000000
,  // measure 8
00000010
00000001
00000000
00000001
00000000
00000000
00000010
00000000
00000100
00000000
00000000
00001000
00000000
00000000
00000010
00000000
,  // measure 9
00000100
00000001
00000100
00000001
00000100
00000001
00000100
00000001
,  // measure 10
00000010
00000001
00000010
00000001
00000010
00000001
00000010
00000001
,  // measure 11
00000001
00000010
00000100
00001000
00000001
00000100
00000010
00001000
,  // measure 12
00000001
00001000
00000010
00000100
00000001
00001000
00000100
00000010
,  // measure 13
00000100
00000000
00000000
00001000
00000000
00000000
00000100
00000000
00010000
00000000
00000000
00001000
00000000
00000000
00100000
00000000
,  // measure 14
00010000
00100000
00000000
00100000
00000000
00000000
01000000
00000000
10000000
00000000
00000000
00100000
00000000
00000000
01000000
00000000
,  // measure 15
00010000
01000000
00100000
10000000
00010000
00100000
01000000
10000000
,  // measure 16
00100000
01000000
00010000
10000000
01000000
00100000
00010000
10000000
,  // measure 17
20020000
00000000
00000000
30000000
,  // measure 18
00200000
00000000
00000000
00330000
,  // measure 19
11000000
00110000
01010000
10100000
,  // measure 20
10000000
10000000
00010000
00010000
00100000
00001000
00010000
00000100
,  // measure 21
00000220
00000000
00000000
00000000
,  // measure 22
00000000
00000000
00000000
00000000
00000330
00000000
00000010
00000001
,  // measure 23
00000100
00000000
00000000
00000010
00000000
00000000
00001000
00000000
00000001
00000000
00000000
00000010
00000000
00000000
00000100
00000000
,  // measure 24
00001000
00000010
00000000
00000010
00000000
00000000
00001000
00000000
00000100
00000000
00000000
00010000
00000000
00000000
00001000
00000000
,  // measure 25
00100000
00000000
00000000
00010000
00000000
00000000
01000000
00000000
00100000
00000000
00000000
10000000
00000000
00000000
00010000
00000000
,  // measure 26
00100000
00010000
00000000
00010000
00000000
00000000
00100000
00000000
01000000
00000000
00000000
10000000
00000000
00000000
00100000
00000000
,  // measure 27
01000000
00000000
00000000
00010000
00000000
00000000
01000000
00000000
00100000
00000000
00000000
10000000
00000000
00000000
00010000
00000000
,  // measure 28
00100000
01000000
00000000
01000000
00000000
00000000
00100000
00000000
00010000
00000000
00000000
01000000
00000000
00000000
00100000
00000000
,  // measure 29
10000000
00000000
00000000
00010000
00000000
00000000
00100000
00000000
00001000
00000000
00000000
00010000
00000000
00000000
00000100
00000000
,  // measure 30
00001000
00000001
00000000
00000001
00001000
00000000
00000010
00000000
00000100
00000000
00000000
00000001
00000000
00000000
00000100
00000000
,  // measure 31
00000010
00001000
00000100
00000010
00000001
00000100
00000010
00001000
,  // measure 32
00000001
00001000
00000000
00001000
00000001
00000000
00000010
00000000
00000100
00000000
00001000
00000000
00000010
00000000
00000100
00000000
,  // measure 33
00000001
00000100
00000010
00001000
00000100
00010000
00001000
00100000
,  // measure 34
00010000
00100000
00000000
00100000
00010000
00000000
01000000
00000000
00100000
00000000
10000000
00000000
00010000
00000000
00100000
00000000
,  // measure 35
01000000
10000000
00100000
01000000
00010000
01000000
00100000
10000000
,  // measure 36
00010000
10000000
00000000
10000000
00010000
00000000
00100000
00000000
01000000
00000000
10000000
00000000
00100000
00000000
01000000
00000000
,  // measure 37
00010000
01000000
10000000
00100000
00010000
00100000
10000000
01000000
,  // measure 38
00100000
00010000
01000000
00100000
01000000
00010000
00100000
00001000
,  // measure 39
00011000
00000000
00000000
00000000
00000000
00010000
01000000
00100000
,  // measure 40
10000000
00000000
10000000
01000000
00100000
00010000
00001000
00000100
,  // measure 41
00000010
00000001
00000100
00000010
00000100
00000010
00000100
00000001
,  // measure 42
00001000
00000100
00000010
00000001
00000100
00000010
00001000
00000001
,  // measure 43
00000010
00000100
00001010
00000000
00000100
00000001
00000011
00000000
,  // measure 44
00000100
00000010
00001000
00000100
00010000
00001000
00100000
00010000
,  // measure 45
01000000
00100000
10010000
00000000
00100000
01000000
10010000
00000000
,  // measure 46
10000000
01000000
00100000
10000000
01000000
00100000
00010000
01000000
,  // measure 47
00200000
00000000
00000000
00000000
00000000
20300000
00000000
00000000
,  // measure 48
30020000
00000000
00000000
00000000
00230000
00000000
00000000
00320000
,  // measure 49
00000000
00000000
00000000
00000000
00000000
00230000
00000000
00302000
,  // measure 50
00000000
00000000
00000000
00000000
00000000
00013000
00001000
00000020
,  // measure 51
00000000
00000000
00000000
00000000
00000130
00000000
00000001
00000010
,  // measure 52
00000000
00000000
00000000
00000011
00000000
00000101
00000000
00000001
,  // measure 53
00000100
00000010
00000100
00000010
00000100
00000000
00000000
00000000
00001000
00000001
00001000
00000001
00001000
00000000
00000000
00000000
,  // measure 54
00000001
00000000
00000010
00000000
00000100
00000000
00001000
00000000
00000010
00001000
00000010
00001000
00000010
00000000
00000000
00000000
,  // measure 55
00000010
00000000
00000000
00001000
00000000
00000000
00000100
00000000
00000010
00000000
00000000
00000001
00000000
00000000
00000100
00000000
,  // measure 56
00000010
00000100
00000000
00000100
00000000
00000000
00000010
00000000
00001000
00000000
00000000
00000100
00000000
00000000
00010000
00000000
,  // measure 57
00001000
00000000
00000000
00100000
00000000
00000000
00010000
00000000
01000000
00000000
00000000
00100000
00000000
00000000
10000000
00000000
,  // measure 58
00010000
10000000
00000000
10000000
00000000
00000000
00100000
00000000
01000000
00000000
00000000
00010000
00000000
00000000
01000000
00000000
,  // measure 59
00100000
00000000
00000000
10000000
00000000
00000000
00010000
00000000
00100000
00000000
00000000
01000000
00000000
00000000
00100000
00000000
,  // measure 60
00010000
00100000
00000000
00100000
00000000
00000000
00100000
00000000
00010000
00000000
00000000
00001000
00000000
00000000
00000010
00000000
,  // measure 61
00000001
00000000
00000000
00000101
00000000
00000000
00000010
00000000
00000100
00000000
00000000
00001100
00000000
00000000
00000010
00000000
,  // measure 62
00000100
00000010
00000000
00000010
00000100
00000000
00000001
00000000
00000010
00000001
00000000
00000001
00000010
00000000
00000100
00000000
,  // measure 63
00001000
00000010
00000100
00000001
00000010
00000100
00001000
00000010
,  // measure 64
00000100
00000010
00000000
00000010
00000100
00000000
00000001
00000000
00001000
00000001
00000000
00000001
00001000
00000000
00000010
00000000
,  // measure 65
00001000
00000100
00010000
00001000
00100000
00010000
01000000
00100000
,  // measure 66
10000000
00010000
00000000
00010000
10000000
00000000
00100000
00000000
01000000
00010000
00000000
00010000
01000000
00000000
00100000
00000000
,  // measure 67
10000000
01000000
10000000
00000000
00100000
00000000
00010000
00000000
01000000
00000000
00100000
00000000
01000000
00000000
00010000
00000000
,  // measure 68
00100000
00010000
00100000
00000000
01000000
00000000
01000000
00000000
10000000
00000000
00100000
00000000
01000000
00000000
00010000
00000000
,  // measure 69
01000000
00010000
00000000
00100000
01000000
00000000
10000000
00000000
00100000
01000000
00000000
00010000
00100000
00000000
01000000
00000000
,  // measure 70
00100000
01000000
00010000
00001000
00000100
00000001
00000010
00000100
,  // measure 71
00001001
00000000
00000000
00000000
;
