#TITLE:アスカBad Girl (w/Lancaster);
#SUBTITLE:;
#ARTIST:マクロスMACROSS 82-99;
#TITLETRANSLIT:Asuka Bad Girl (w-Lancaster);
#SUBTITLETRANSLIT:;
#ARTISTTRANSLIT:MACROSS 82-99;
#GENRE:Future Funk;
#CREDIT:chewi;
#BANNER:Asuka Bad Girl (w-Lancaster).png;
#BACKGROUND:Asuka Bad Girl (w-Lancaster)-bg.png;
#LYRICSPATH:;
#CDTITLE:cdtitle.png;
#MUSIC:Asuka Bad Girl (w-Lancaster).ogg;
#OFFSET:-0.055000;
#SAMPLESTART:25.315001;
#SAMPLELENGTH:15.000000;
#SELECTABLE:YES;
#BPMS:0.000000=114.000000
;
#STOPS:
;
#BGCHANGES:;
#KEYSOUNDS:;
#ATTACKS:;

//---------------dance-single - ----------------
#NOTES:
     dance-single:
     :
     Beginner:
     2:
     0.077521,0.110996,0.061664,0.024666,0.000000,37.000000,5.000000,2.000000,0.000000,0.000000,0.000000,0.077521,0.110996,0.061664,0.024666,0.000000,37.000000,5.000000,2.000000,0.000000,0.000000,0.000000:
// measure 0
0000
0000
0000
0000
,  // measure 1
0000
0000
0000
0000
,  // measure 2
0000
0000
0000
0000
,  // measure 3
0000
0000
0000
0000
,  // measure 4
1000
0000
0000
0000
,  // measure 5
0100
0000
0000
0000
,  // measure 6
0010
0000
0000
0000
,  // measure 7
0002
0000
0000
0003
,  // measure 8
0001
0000
0000
0000
,  // measure 9
0100
0000
0000
0000
,  // measure 10
0010
0000
0000
0000
,  // measure 11
2000
0000
0000
3000
,  // measure 12
1000
0000
1000
0000
,  // measure 13
1000
0000
0000
0000
,  // measure 14
0010
0000
0010
0000
,  // measure 15
0010
0000
0000
0000
,  // measure 16
0001
0000
0001
0000
,  // measure 17
0001
0000
0000
0000
,  // measure 18
0100
0000
0100
0000
,  // measure 19
0100
0000
0000
0000
,  // measure 20
0110
0000
0000
0000
,  // measure 21
0010
0000
0000
0000
,  // measure 22
0100
0000
0000
0000
,  // measure 23
1000
0000
0000
0000
,  // measure 24
1001
0000
0000
0000
,  // measure 25
1000
0000
0000
0000
,  // measure 26
0010
0000
0000
0000
,  // measure 27
0100
0000
0000
0000
,  // measure 28
0110
0000
0000
0000
,  // measure 29
0100
0000
0000
0000
,  // measure 30
0001
0000
0000
0000
,  // measure 31
1000
0000
0000
0000
,  // measure 32
1001
0000
0000
0000
,  // measure 33
0010
0000
0000
0000
,  // measure 34
1001
0000
0000
0000
,  // measure 35
0100
0000
0000
0000
,  // measure 36
0100
0000
0000
0000
;

//---------------dance-single - ----------------
#NOTES:
     dance-single:
     :
     Easy:
     4:
     0.158566,0.221992,0.036999,0.049332,0.000000,83.000000,3.000000,4.000000,0.000000,0.000000,0.000000,0.158566,0.221992,0.036999,0.049332,0.000000,83.000000,3.000000,4.000000,0.000000,0.000000,0.000000:
// measure 0
0000
0000
0000
0000
,  // measure 1
0000
0000
0000
0000
,  // measure 2
0000
0000
0000
0000
,  // measure 3
0000
0000
0000
0000
,  // measure 4
1000
0100
1000
0000
,  // measure 5
0100
0001
0100
0000
,  // measure 6
0010
0001
0010
0000
,  // measure 7
0010
1000
0010
0000
,  // measure 8
0010
0100
0010
0000
,  // measure 9
0100
0010
0100
0000
,  // measure 10
0010
1000
0001
0000
,  // measure 11
0010
0001
1000
0000
,  // measure 12
2002
0000
0000
0003
,  // measure 13
0001
0000
0001
0000
,  // measure 14
3010
0010
0010
0000
,  // measure 15
0100
0100
0100
0000
,  // measure 16
0220
0000
0000
0300
,  // measure 17
0100
0000
0130
0000
,  // measure 18
0100
0100
0100
0000
,  // measure 19
0010
0010
0010
0000
,  // measure 20
1000
0000
1000
0000
,  // measure 21
0001
0000
0001
0000
,  // measure 22
1000
0100
1000
0000
,  // measure 23
0001
0100
0001
0000
,  // measure 24
0100
0000
0100
0000
,  // measure 25
0010
0000
0010
0000
,  // measure 26
1000
0001
1000
0000
,  // measure 27
0001
1000
0001
0000
,  // measure 28
1000
0000
0100
0000
,  // measure 29
0010
0010
0010
0000
,  // measure 30
0001
0000
0100
0000
,  // measure 31
0010
0010
0010
0000
,  // measure 32
0110
0000
0100
0000
,  // measure 33
0010
1000
0010
0000
,  // measure 34
0100
0000
0001
0000
,  // measure 35
0100
0001
0100
0000
,  // measure 36
0100
0000
0000
0000
;

//---------------dance-single - ----------------
#NOTES:
     dance-single:
     :
     Medium:
     6:
     0.257229,0.288590,0.135662,0.024666,0.000000,133.000000,11.000000,2.000000,0.000000,0.000000,0.000000,0.257229,0.288590,0.135662,0.024666,0.000000,133.000000,11.000000,2.000000,0.000000,0.000000,0.000000:
// measure 0
0000
0000
0000
0000
,  // measure 1
0000
0000
0000
0000
,  // measure 2
0000
0000
0000
0000
,  // measure 3
0000
0000
0000
0000
,  // measure 4
1000
0100
0001
0010
,  // measure 5
1000
0100
0001
0000
,  // measure 6
0001
0100
1000
0010
,  // measure 7
0001
0100
1000
0000
,  // measure 8
1000
0100
0010
0001
,  // measure 9
1000
0100
1000
0000
,  // measure 10
0001
0100
0010
1000
,  // measure 11
0010
1000
0010
0000
,  // measure 12
2010
0010
0001
0001
,  // measure 13
0100
0100
0001
3001
,  // measure 14
1000
0000
0001
0000
1000
0001
1000
0000
,  // measure 15
0001
0000
1000
0000
0001
1000
0001
0000
,  // measure 16
0102
0100
1000
1000
,  // measure 17
0010
0010
1000
1003
,  // measure 18
1000
0000
0001
0000
1000
0001
1000
0000
,  // measure 19
0001
0000
1000
0000
0001
1000
0001
0000
,  // measure 20
1000
0100
1000
1100
,  // measure 21
0001
0100
0001
0101
,  // measure 22
0100
0000
0010
0000
1000
0001
1000
0001
,  // measure 23
1000
0000
0000
0000
,  // measure 24
0001
0010
0001
0011
,  // measure 25
1000
0100
1000
1100
,  // measure 26
1000
0000
0001
0000
0100
0010
0100
0010
,  // measure 27
0100
0010
1000
0001
,  // measure 28
0100
0001
0100
0101
,  // measure 29
0010
0100
1000
1100
,  // measure 30
1000
0100
1000
0100
1000
0000
0100
0000
,  // measure 31
1000
0100
0001
0100
,  // measure 32
0100
0010
0100
0101
,  // measure 33
0010
0100
0010
0110
,  // measure 34
0100
0010
0100
0010
0100
0000
1000
0000
,  // measure 35
0001
0100
0100
0000
,  // measure 36
0110
0000
0000
0000
;

//---------------dance-single - ----------------
#NOTES:
     dance-single:
     :
     Hard:
     8:
     0.347083,0.377386,0.246658,0.098663,0.000000,169.000000,20.000000,8.000000,0.000000,0.000000,0.000000,0.347083,0.377386,0.246658,0.098663,0.000000,169.000000,20.000000,8.000000,0.000000,0.000000,0.000000:
// measure 0
0000
0000
0000
0000
,  // measure 1
0000
0000
0000
0000
,  // measure 2
0000
0000
0000
0000
,  // measure 3
0000
0000
0000
0000
,  // measure 4
1001
0000
0100
0000
0010
1000
0100
0000
,  // measure 5
0010
0001
0100
0010
0100
0001
0010
0000
,  // measure 6
0011
1000
1010
0001
,  // measure 7
1000
1000
1000
1000
0001
0001
0001
0001
,  // measure 8
1001
0000
0100
0000
0010
0100
0001
0000
,  // measure 9
0010
0100
1000
0001
0010
0100
1000
0000
,  // measure 10
1100
0001
0101
1000
,  // measure 11
1000
1000
1000
1000
0001
0001
0001
0001
,  // measure 12
1000
0000
0010
0000
0001
0100
1000
0000
,  // measure 13
0010
0000
0001
0000
0100
1000
0010
0000
,  // measure 14
0001
0000
0100
0000
1000
0010
0001
0000
,  // measure 15
0100
1000
0010
0000
0001
0100
1000
0010
,  // measure 16
0002
0010
1000
0103
,  // measure 17
2000
0100
0001
3010
,  // measure 18
0100
0010
0100
0010
1000
0001
1000
0001
,  // measure 19
1000
0100
0010
0001
0010
0000
0000
0000
,  // measure 20
0001
0000
1001
0000
1000
0010
0100
0000
,  // measure 21
0001
0101
1000
1100
,  // measure 22
0010
0100
1000
0000
0010
0100
0001
1000
,  // measure 23
2002
0000
0000
3003
,  // measure 24
1000
0000
1001
0000
0001
0100
0010
0000
,  // measure 25
1000
1010
0001
0011
,  // measure 26
0100
0010
0001
0000
0100
0010
1000
0001
,  // measure 27
2000
0000
0001
0000
0100
0100
3100
0000
,  // measure 28
0100
0000
0110
0000
0010
0001
1000
0000
,  // measure 29
0001
0101
1000
1010
,  // measure 30
0001
1000
0010
0000
0001
1000
0100
0010
,  // measure 31
0200
0010
1000
1300
,  // measure 32
0010
0000
1001
0000
0100
1000
0001
0000
,  // measure 33
0010
0011
0100
0101
,  // measure 34
1000
0001
0100
0000
1000
0001
0010
0100
,  // measure 35
0120
0100
0200
0330
,  // measure 36
0010
0000
0000
0000
;
