#TITLE:Aria on G-Strings (Bab2 mix);
#SUBTITLE:;
#ARTIST:apostrophe fish;
#TITLETRANSLIT:;
#SUBTITLETRANSLIT:;
#ARTISTTRANSLIT:;
#GENRE:;
#CREDIT:Chewphoria~;
#MENUCOLOR:;
#METERTYPE:DDR;
#BANNER:Aria on G-Strings (Bab2 mix).png;
#BACKGROUND:Aria on G-Strings (Bab2 mix)-bg.png;
#LYRICSPATH:;
#CDTITLE:;
#MUSIC:Aria on G-Strings (Bab2 mix).mp3;
#OFFSET:-8.065;
#SAMPLESTART:21.826;
#SAMPLELENGTH:15.000;
#SELECTABLE:YES;
#LISTSORT:;
#DISPLAYBPM:150.000;
#BPMS:0.000=150.000;
#STOPS:;
#BGCHANGES:;
#ATTACKS:;

//---------------dance-single - Chewphoria~----------------
#NOTES:
     dance-single:
     Chewphoria~:
     Hard:
     13:
     0.646,0.625,0.114,0.053,0.154: // measure 1
1000
0001
1000
0100
1000
0001
0010
0100
,  // measure 2
1000
0001
1000
0010
0100
0001
0010
0100
,  // measure 3
1000
0001
1000
0010
0100
0001
0010
0100
,  // measure 4
1000
0001
1000
0010
0100
0001
0010
0100
,  // measure 5
1000
0100
0010
0001
0100
0010
1000
0001
,  // measure 6
0010
0001
0100
1000
0010
1000
0001
0010
,  // measure 7
0100
1000
0010
0100
0001
0001
0010
1000
,  // measure 8
0100
0000
0001
0000
0010
0000
0100
0000
1000
0010
0000
1000
0000
0001
0000
0000
,  // measure 9
0010
1000
0100
0100
0100
0010
0001
0100
,  // measure 10
0010
1000
0001
0010
0100
1000
0001
1000
,  // measure 11
0010
0100
0001
0100
0010
1000
0100
0010
,  // measure 12
0001
0100
0010
0100
0001
0010
0100
1000
,  // measure 13
0001
1000
0001
1000
0010
1000
0010
1000
,  // measure 14
0001
0100
0001
0100
0010
0100
0010
0100
,  // measure 15
0010
1000
0100
0010
0001
0010
0100
1000
,  // measure 16
1001
0010
0100
1000
0000
0001
0010
0000
,  // measure 17
0100
1000
0100
1000
0010
1000
0010
1000
,  // measure 18
0100
0010
0100
0010
0100
0001
0100
0001
,  // measure 19
0100
0001
0010
0100
1000
0010
0100
0001
,  // measure 20
0010
0001
0010
0011
0100
1000
0001
1000
,  // measure 21
1000
0010
0100
0001
0100
0010
1000
0001
,  // measure 22
0010
0100
1000
0001
1000
0010
0100
0001
,  // measure 23
0100
0100
0010
0010
1000
1000
0001
0001
,  // measure 24
0011
0000
1100
0000
0020
0000
0030
0000
0101
0000
1000
0010
2000
0000
3010
0000
,  // measure 25
1000
0000
0010
0000
0100
0000
0000
0100
0001
0000
0000
0001
0100
0000
0000
0100
,  // measure 26
0010
0000
0000
0010
1000
0000
0000
1000
0001
0000
0000
0001
0010
0000
0000
0010
,  // measure 27
0100
0000
0000
0100
1000
0000
0000
1000
0100
0000
0000
0100
0010
0000
0000
0010
,  // measure 28
0001
0000
0000
0001
0100
0000
0000
0100
0010
0000
0000
0010
1000
0000
1000
0000
,  // measure 29
0001
0010
0100
0010
0100
0010
0100
0010
,  // measure 30
1000
0100
0010
0100
0010
0100
0010
0100
,  // measure 31
0001
0010
0100
1000
0010
1000
0010
1000
,  // measure 32
1000
0010
0001
0100
0010
0001
0100
0100
,  // measure 33
0001
0010
0100
1000
0010
0100
0001
0010
,  // measure 34
0100
1000
0100
0001
0010
1000
0010
0001
,  // measure 35
0100
0010
0100
0001
0010
0100
1000
0001
,  // measure 36
1000
0010
1000
0001
0010
0100
1000
0001
,  // measure 37
1000
0010
0010
1000
0010
0010
1010
0000
,  // measure 38
0001
0100
0100
0001
0100
0100
1010
0000
,  // measure 39
2002
0000
0000
0000
,  // measure 40
0000
0000
0000
3003
,  // measure 41
1000
0000
0000
1000
0010
0000
0000
0010
0100
0000
0000
0100
0001
0000
0000
0001
,  // measure 42
0010
0000
0000
0010
0100
0000
0000
0100
1000
0000
1000
0000
0100
0000
1000
0000
,  // measure 43
1000
0000
0000
1000
0010
0000
0000
0010
0100
0000
0000
0100
0001
0000
0000
0001
,  // measure 44
0010
0000
0000
0010
0100
0000
0000
0100
1000
0000
0100
0000
0010
0000
0001
0000
,  // measure 45
0010
0000
0100
0000
0001
0000
0001
0000
0100
0000
0010
0100
0010
0100
0010
0000
,  // measure 46
1000
0000
0100
0000
0001
0000
0100
0000
1000
0000
0100
0010
0100
0010
0100
0000
,  // measure 47
0010
0001
0100
1000
0010
1000
0100
0001
,  // measure 48
0010
0100
0010
0100
1000
0001
1000
0001
,  // measure 49
0101
0010
1000
1000
1000
0010
0100
0001
,  // measure 50
0100
0010
1000
0001
0010
0100
1000
0001
,  // measure 51
1000
0100
0010
0001
0010
0100
1000
0010
,  // measure 52
0100
0001
0100
0010
1000
0001
0010
0100
,  // measure 53
1000
0100
1000
0100
0001
0100
0001
0100
,  // measure 54
0010
1000
0010
1000
0010
0001
0010
0001
,  // measure 55
0010
0100
1000
0010
0100
0001
0010
0100
,  // measure 56
1000
0001
1000
1000
0001
0100
0010
0010
,  // measure 57
1000
0100
0001
0000
1000
0100
0010
0001
,  // measure 58
0010
0100
1000
0000
0100
0001
0100
0000
,  // measure 59
1000
0001
0010
0001
1000
0100
1000
0001
,  // measure 60
0100
0010
1000
0100
0010
0001
0100
0010
,  // measure 61
1000
0010
1000
0010
1000
0001
1000
0001
,  // measure 62
1000
0100
1000
0100
1000
0001
1000
1000
,  // measure 63
0001
0010
0001
0010
0001
0100
0001
0100
,  // measure 64
0101
0000
0010
0000
1010
0000
0100
0000
0011
0000
1000
0001
0100
0000
0000
0000
,  // measure 65
2002
0000
0000
0000
3000
0003
0000
0000
;

//---------------dance-single - Chewphoria~----------------
#NOTES:
     dance-single:
     Chewphoria~:
     Medium:
     10:
     0.456,0.511,0.229,0.149,0.018: // measure 1
1000
0100
1000
0000
0001
0000
0010
0000
,  // measure 2
0001
0010
0001
0000
1000
0000
0100
0000
,  // measure 3
1000
0001
1000
0000
0010
0100
0010
0000
,  // measure 4
0100
0001
0100
0000
0010
1000
0010
0000
,  // measure 5
1002
0010
0100
1003
,  // measure 6
2100
0000
0001
0000
0010
0000
0001
3000
,  // measure 7
0001
0100
0010
0000
1000
0010
0100
0000
,  // measure 8
0001
0000
0001
0000
1000
0000
0000
0000
0000
1000
0000
0001
0000
1000
0000
0000
,  // measure 9
0100
0010
0001
0000
0010
0000
0100
0000
,  // measure 10
1000
0010
0100
0000
0001
0000
0100
0000
,  // measure 11
0010
1000
0001
0000
0010
0000
0100
0000
,  // measure 12
1000
0010
0001
0100
,  // measure 13
1000
0100
1000
0000
1000
0010
1000
0000
,  // measure 14
0010
0001
0010
0000
0010
0100
0010
0000
,  // measure 15
0010
0100
1000
0000
1000
0001
1000
0000
,  // measure 16
0010
0010
0010
0000
0000
0010
0100
0000
,  // measure 17
1000
0001
1000
0000
0100
0000
0001
0000
,  // measure 18
0100
0010
1000
0100
0010
0000
0001
0000
,  // measure 19
0010
0100
1000
0010
0100
0000
0001
0000
,  // measure 20
0100
0010
1000
0001
0010
0100
1000
0000
,  // measure 21
0001
0011
1000
1100
,  // measure 22
0001
0101
1000
1010
,  // measure 23
1000
0001
1000
0000
0010
0000
0100
0000
,  // measure 24
0010
0000
0100
0000
0010
0000
0000
0000
0000
0000
0100
0010
0100
0000
0000
0000
,  // measure 25
0000
0011
0100
0100
,  // measure 26
0100
1010
0100
0100
,  // measure 27
0100
0011
1000
1000
,  // measure 28
1000
1100
0001
0001
,  // measure 29
1000
0001
1000
0000
0010
0000
0010
0000
,  // measure 30
0100
0010
0100
0000
0100
0000
0100
0000
,  // measure 31
0001
0100
0001
0000
1000
0010
1000
0000
,  // measure 32
0001
1000
0001
0000
0010
0100
0010
0000
,  // measure 33
0020
0032
0203
0320
,  // measure 34
2030
3002
0203
0320
,  // measure 35
2030
0001
0010
0001
,  // measure 36
3002
0100
1000
0010
,  // measure 37
1003
0100
1000
0100
1000
0100
1000
0000
,  // measure 38
0001
0010
0001
0010
0001
0010
0001
0000
,  // measure 39
0010
0100
1000
1000
,  // measure 40
1000
0000
0010
0000
0100
0001
0100
0000
,  // measure 41
0010
1000
0001
0000
0010
0000
0100
0000
,  // measure 42
0010
0001
1000
0000
0100
0000
1100
0000
,  // measure 43
0001
0010
0001
0000
1000
0000
1010
0000
,  // measure 44
0100
0001
0100
0000
0010
0000
1000
0000
,  // measure 45
0000
0000
0001
0000
1000
0100
1000
0000
,  // measure 46
0000
0000
1000
0000
0001
0100
0001
0000
,  // measure 47
0010
1000
0100
0000
0010
0001
0100
0000
,  // measure 48
0010
0110
0100
0110
,  // measure 49
1000
0100
1000
0000
0001
0000
0001
0000
,  // measure 50
0001
0010
0001
0000
1000
0000
1000
0000
,  // measure 51
0010
0100
0010
0000
0100
0000
0100
0000
,  // measure 52
0001
0100
0001
0000
1000
0000
1000
0000
,  // measure 53
2100
0000
0010
0000
0100
0000
0010
3010
,  // measure 54
0020
0000
0100
0000
1000
0000
0100
0130
,  // measure 55
0200
0001
0010
0001
,  // measure 56
0001
0301
1000
1000
1000
0000
1100
0000
,  // measure 57
1000
0001
1000
0010
1000
0000
0001
0000
,  // measure 58
0100
0010
0100
0001
1000
0000
1100
0000
,  // measure 59
0010
0001
0100
1000
,  // measure 60
0010
1000
0100
0001
,  // measure 61
0010
0100
0010
0000
0001
0000
0100
0000
,  // measure 62
0010
0100
0010
0000
1000
0000
0100
0000
,  // measure 63
0011
1100
0101
1010
,  // measure 64
1001
1100
1001
0011
,  // measure 65
2002
0000
0000
0000
0000
0000
0000
0000
0000
0000
0000
0000
0000
0000
0000
0000
0000
0000
0000
0000
0000
0000
0000
0000
0000
0000
0000
0000
0000
0000
0000
0000
0000
0000
0000
0000
0000
0000
0000
0000
0000
0000
0000
0000
0000
0000
0000
0000
0000
0000
0000
0000
0000
0000
0000
0000
0000
0000
0000
0000
0000
0000
0000
0000
0000
0000
0000
0000
0000
0000
0000
0000
0000
0000
0000
0000
0000
0000
0000
0000
0000
0000
0000
0000
0000
0000
0000
0000
0000
0000
0000
0000
0000
0000
0000
0000
0003
0000
0000
0000
0000
0000
0000
0000
0000
0000
0000
0000
0000
0000
0000
0000
0000
0000
0000
0000
0000
0000
0000
0000
0000
3000
0000
0000
0000
0000
0000
0000
0000
0000
0000
0000
0000
0000
0000
0000
0000
0000
0000
0000
0000
0000
0000
0000
0000
0000
0000
0000
0000
0000
0000
0000
0000
0000
0000
0000
0000
0000
0000
0000
0000
0000
0000
0000
0000
0000
0000
0000
0000
0000
0000
0000
0000
0000
0000
0000
0000
0000
0000
0000
0000
0000
0000
0000
0000
0000
0000
0000
0000
0000
0000
0000
;

//---------------dance-single - Chewphoria~----------------
#NOTES:
     dance-single:
     Chewphoria~:
     Easy:
     6:
     0.304,0.340,0.053,0.141,0.000: // measure 1
1000
0000
0100
0000
,  // measure 2
0001
0000
0010
0000
,  // measure 3
1000
0000
0010
0000
,  // measure 4
0001
0000
0100
0000
,  // measure 5
0110
0000
1001
0000
,  // measure 6
0110
0000
1001
0000
,  // measure 7
1000
0100
0010
0001
,  // measure 8
1000
1000
1000
1000
,  // measure 9
0001
0100
0010
1000
,  // measure 10
0001
0100
0010
1000
,  // measure 11
1000
0100
0010
0001
,  // measure 12
1000
0100
0010
0001
,  // measure 13
2000
0000
0000
0001
,  // measure 14
3002
0000
0000
0100
,  // measure 15
0203
0000
0000
0010
,  // measure 16
0320
0000
0000
0030
,  // measure 17
1000
0100
0010
0001
,  // measure 18
1000
0100
0010
0001
,  // measure 19
0001
0100
0010
1000
,  // measure 20
0001
0100
0010
1000
,  // measure 21
0001
1000
0100
0000
,  // measure 22
1000
0001
0100
0000
,  // measure 23
0010
1000
0100
0001
,  // measure 24
0010
0001
0100
1000
,  // measure 25
0000
0010
0010
0100
,  // measure 26
0100
0010
0010
1000
,  // measure 27
1000
0001
0001
1000
,  // measure 28
1000
0001
0001
0010
,  // measure 29
0020
0001
0001
0031
,  // measure 30
0002
0100
0100
0103
,  // measure 31
0200
1000
1000
1300
,  // measure 32
2000
0010
0010
3010
,  // measure 33
0010
0100
0001
0001
,  // measure 34
0001
0010
0100
0100
,  // measure 35
1000
0100
0010
0010
,  // measure 36
0001
1000
0010
0010
,  // measure 37
0200
0010
0010
0310
,  // measure 38
0020
1000
1000
1030
,  // measure 39
2000
0100
0100
3100
,  // measure 40
0200
0001
0001
0301
,  // measure 41
1001
0010
0100
0000
,  // measure 42
0010
0100
1000
0000
,  // measure 43
1000
0100
0010
0000
,  // measure 44
0001
0100
0010
0000
,  // measure 45
1000
0001
1000
0000
,  // measure 46
0010
0100
0010
0000
,  // measure 47
0010
0001
0100
0010
,  // measure 48
0010
1000
0100
0010
,  // measure 49
1000
0100
0010
0010
,  // measure 50
0001
0100
0010
0010
,  // measure 51
1000
0001
0001
0000
,  // measure 52
0001
1000
1000
0000
,  // measure 53
0010
0100
0010
0100
,  // measure 54
0001
1000
0001
1000
,  // measure 55
0100
1000
0100
1000
,  // measure 56
0010
0001
0010
0001
,  // measure 57
0000
0010
0010
0000
,  // measure 58
0100
0100
0100
0000
,  // measure 59
1000
1000
1000
0000
,  // measure 60
0001
0001
0001
0000
,  // measure 61
0001
0100
0010
1000
,  // measure 62
1000
0010
0100
0001
,  // measure 63
2000
0001
0010
0001
,  // measure 64
3002
1000
0010
1003
,  // measure 65
2002
0000
0000
0000
0000
0000
0000
0000
0000
0000
0000
0000
0000
0000
0000
0000
0000
0000
0000
0000
0000
0000
0000
0000
0000
0000
0000
0000
0000
0000
0000
0000
0000
0000
0000
0000
0000
0000
0000
0000
0000
0000
0000
0000
0000
0000
0000
0000
0000
0000
0000
0000
0000
0000
0000
0000
0000
0000
0000
0000
0000
0000
0000
0000
0000
0000
0000
0000
0000
0000
0000
0000
0000
0000
0000
0000
0000
0000
0000
0000
0000
0000
0000
0000
0000
0000
0000
0000
0000
0000
0000
0000
0000
0000
0000
0000
3000
0003
0000
0000
0000
0000
0000
0000
0000
0000
0000
0000
0000
0000
0000
0000
0000
0000
0000
0000
0000
0000
0000
0000
0000
0000
0000
0000
0000
0000
0000
0000
0000
0000
0000
0000
0000
0000
0000
0000
0000
0000
0000
0000
0000
0000
0000
0000
0000
0000
0000
0000
0000
0000
0000
0000
0000
0000
0000
0000
0000
0000
0000
0000
0000
0000
0000
0000
0000
0000
0000
0000
0000
0000
0000
0000
0000
0000
0000
0000
0000
0000
0000
0000
0000
0000
0000
0000
0000
0000
0000
0000
0000
0000
0000
0000
;

//---------------dance-single - Chewphoria~----------------
#NOTES:
     dance-single:
     Chewphoria~:
     Beginner:
     3:
     0.183,0.199,0.018,0.053,0.000: // measure 1
1000
0000
1000
0000
,  // measure 2
0001
0000
0001
0000
,  // measure 3
0010
0000
0010
0000
,  // measure 4
0100
0000
0100
0000
,  // measure 5
0010
0010
0010
0000
,  // measure 6
1000
1000
1000
0000
,  // measure 7
0001
0001
0001
0000
,  // measure 8
0010
0010
0010
0000
,  // measure 9
0020
0000
0000
0030
,  // measure 10
0010
0000
0010
0000
,  // measure 11
0200
0000
0000
0300
,  // measure 12
0100
0000
0100
0000
,  // measure 13
1000
0000
0010
0000
,  // measure 14
0001
0000
0010
0000
,  // measure 15
1000
0000
0100
0000
,  // measure 16
0010
0000
0001
0000
,  // measure 17
1000
1000
1000
0000
,  // measure 18
0010
0000
0100
0000
,  // measure 19
0001
0001
0001
0000
,  // measure 20
0001
0000
0010
0000
,  // measure 21
0100
0100
0100
0000
,  // measure 22
1000
0000
1000
0000
,  // measure 23
1000
0000
0001
0000
,  // measure 24
0010
0000
0100
0000
,  // measure 25
0000
0010
0000
1000
,  // measure 26
0000
0010
0000
1000
,  // measure 27
0000
0100
0000
0001
,  // measure 28
0000
0100
0000
0001
,  // measure 29
0001
0001
0001
0000
,  // measure 30
1000
1000
1000
0000
,  // measure 31
0100
0100
0100
0000
,  // measure 32
0010
0010
0010
0000
,  // measure 33
0002
0000
0000
0003
,  // measure 34
0001
0000
0001
0000
,  // measure 35
2000
0000
0000
3000
,  // measure 36
1000
0000
1000
0000
,  // measure 37
0010
0000
0100
0000
,  // measure 38
1000
0000
0001
0000
,  // measure 39
0010
0000
0010
0000
,  // measure 40
1000
0000
0000
1001
,  // measure 41
1000
0000
1000
0000
,  // measure 42
0001
0000
0001
0000
,  // measure 43
0010
0000
0010
0000
,  // measure 44
0100
0000
0100
0000
,  // measure 45
1000
0000
0000
0000
,  // measure 46
0001
0000
0000
0000
,  // measure 47
0010
0000
0100
0000
,  // measure 48
1000
0000
0001
0000
,  // measure 49
0010
0010
0010
0000
,  // measure 50
0010
0000
0100
0000
,  // measure 51
0100
0100
0100
0000
,  // measure 52
0100
0000
0010
0000
,  // measure 53
2000
0000
0000
3000
,  // measure 54
0002
0000
0000
0003
,  // measure 55
0010
0000
0100
0000
,  // measure 56
0010
0010
0010
0010
,  // measure 57
0000
0010
0000
1000
,  // measure 58
0000
0001
0000
0100
,  // measure 59
0000
0100
0000
0001
,  // measure 60
0000
1000
0000
0010
,  // measure 61
0000
0100
0000
0010
,  // measure 62
0000
1000
0000
0001
,  // measure 63
0000
1000
1000
0000
,  // measure 64
0100
0100
0100
0000
,  // measure 65
0110
0000
0010
0000
;
