#TITLE:Arabian Nightmare;
#SUBTITLE:;
#ARTIST:xRGTMx;
#TITLETRANSLIT:;
#SUBTITLETRANSLIT:;
#ARTISTTRANSLIT:;
#CREDIT:;
#BANNER:arabiannightmare2.png;
#BACKGROUND:arabiannightmarebg.png;
#LYRICSPATH:;
#CDTITLE:;
#MUSIC:Arabian Nightmare.mp3;
#OFFSET:-0.060;
#SAMPLESTART:32.040;
#SAMPLELENGTH:12.000;
#SELECTABLE:YES;
#BPMS:0.000=90.000,28.000=180.000,132.000=90.000,160.000=180.000,168.000=90.000,170.000=720.002,186.000=180.002,250.000=45.001,252.000=22.500,253.000=360.004,269.000=180.002;
#STOPS:;
#BGCHANGES:;

//---------------dance-single - xRGTMx----------------
#NOTES:
     dance-single:
     xRGTMx:
     Hard:
     10:
     0.814,1.000,0.181,0.199,0.889:
0000
0000
0000
0000
,
0000
0000
0000
0000
,
0000
0000
0000
0000
,
0000
0000
0000
0000
,
2000
0000
0000
0000
3000
0000
0000
0000
0000
0000
0000
0000
0100
0000
1000
0010
,
2000
0000
0000
0000
3000
0000
0000
0000
0000
0000
0000
0000
1000
0100
0010
0000
,
0002
0000
0000
0000
0003
0000
0000
0000
0000
0000
0000
0000
0100
0000
0010
1000
,
1100
0000
0000
0100
0010
0000
0011
0000
0000
0001
0100
0000
0110
0000
0000
0010
,
1000
0000
1100
0000
0000
1000
0100
0000
0110
0000
0010
0000
0001
0000
1000
0000
,
1001
0000
0100
0000
0010
0000
0001
1000
0010
1000
0100
0000
0010
0000
0100
1000
,
0001
0000
0100
0000
0010
0000
0100
0001
0010
0100
1000
0000
0001
0000
1000
0001
,
1000
0000
0100
0000
0010
0000
0100
1000
0010
0100
0001
0000
0010
0000
0100
1000
,
0001
0000
0100
0000
0010
0000
0100
0001
0010
0100
1000
0000
0001
0000
1000
0001
,
1000
0000
0010
0000
0100
0000
0001
0010
0100
1000
0010
0000
0100
0000
0010
1000
,
0100
0000
0010
0000
0001
0000
0100
0010
1000
0100
0010
0000
0001
0000
0010
0100
,
1000
0000
0100
0000
1000
0000
0001
0100
0010
0100
0001
0000
1000
0000
0001
0000
,
1000
0100
1000
0100
0010
0100
0010
0100
0010
0001
0010
0001
1000
0001
1000
0001
,
1000
0100
0010
0100
1000
0000
0001
0000
1000
0100
0010
0000
0100
0010
0001
0000
,
0010
0001
1000
0001
0010
0000
0100
0000
0010
0100
1000
0000
0100
1000
0001
0000
,
1000
0100
0010
0001
1000
0000
0100
0000
0010
0100
1000
0100
1000
0000
0001
0000
,
0100
0001
0100
0001
1000
0001
1000
0000
0100
1000
0100
1000
0001
1000
0001
0000
,
1000
0010
0100
0010
1000
0000
0001
0000
1000
0010
0100
0000
0010
0100
0001
0000
,
0100
0001
1000
0001
0100
0000
0010
0000
0100
0010
1000
0000
0010
1000
0001
0000
,
1000
0010
0100
0001
1000
0000
0010
0000
0100
0010
1000
0010
1000
0000
0001
0000
,
0010
0001
0010
0001
1000
0001
1000
0000
0010
1000
0010
1000
0001
1000
0001
0000
,
1000
0100
0010
0001
2000
0000
3100
0010
0001
1000
0200
0000
0310
0001
1000
0100
,
0020
0000
0000
0031
,
1000
0010
0100
0001
2000
0000
3010
0100
0001
1000
0020
0000
0130
0001
1000
0010
,
0200
0000
0000
0301
,
1000
0100
0010
0001
2000
0000
3001
0010
0100
1000
0002
0000
1003
0100
0010
0001
,
1000
0010
0100
0001
2000
0000
3001
0100
0010
1000
0002
0000
1003
0010
0100
0001
,
1000
0100
0010
0001
2000
0000
3001
0010
0100
1000
0002
0000
1003
0100
0010
0001
,
1000
0010
0100
0001
1000
0100
0010
0001
1000
0010
0100
0001
1000
0100
0010
0002
,
2000
0000
0000
0000
,
0000
0000
0000
0000
,
3003
0000
0000
0000
0000
0000
0000
0000
0000
0000
0001
0000
0000
1000
0000
0000
0002
0000
0000
0000
2000
0000
0000
0000
0000
0000
0000
0000
0000
0000
0000
0000
,
0000
0000
3003
0000
,
1001
0000
0000
0000
0010
0000
0101
0000
1010
0000
0000
0000
0000
0000
0000
1100
,
0011
1100
0000
0101
0110
1001
0000
1100
,
0011
0000
0000
1100
0000
0000
0101
0000
1010
0000
0000
0000
0000
0000
0000
0000
,
1000
0100
0000
0100
0010
0000
0010
0001
0000
0001
1000
0000
1000
0010
0000
0010
,
0100
0000
0100
0001
0000
0001
1000
0000
1000
0100
0000
0100
0010
0000
0010
0001
,
1000
0001
1000
0000
0000
0000
0000
0000
0000
0000
0000
0000
0000
0000
0000
0000
0010
0000
0000
0000
0000
0000
0000
0000
0000
0000
0000
0000
0000
0000
0000
0000
,
0000
0000
0000
0000
,
0000
0000
0000
0000
,
0000
0000
0000
0000
,
0000
0000
0000
0000
0000
0000
0000
0000
1000
0100
0010
0100
1000
0000
0100
0000
,
0010
0001
0100
0010
1000
0000
0001
0000
1000
0010
0100
0010
1000
0000
0001
0000
,
1000
0010
0100
0001
0010
0100
1000
0000
0001
0010
0100
0010
0001
0000
1000
0000
,
0001
0100
0010
1000
0100
0000
0010
0000
0100
1000
0100
1000
0001
1000
0001
0000
,
0010
0001
0010
0001
1000
0001
1000
0000
0001
0100
0010
0100
0001
0000
0100
0000
,
0010
1000
0100
0010
0001
0000
1000
0000
0001
0010
0100
0010
0001
0000
1000
0000
,
0001
0010
0100
1000
0010
0100
0001
0000
1000
0010
0100
0010
1000
0000
0001
0000
,
1000
0100
0010
0001
0100
0000
0010
0000
0100
0001
0100
0001
1000
0001
1000
0000
,
0010
1000
0010
1000
0001
1000
0001
0000
1000
0100
1000
0100
0010
0000
0001
0010
,
0001
1000
0001
0000
1000
0001
1000
0000
0001
0010
0001
0010
0100
0000
1000
0100
,
1000
0001
1000
0000
0001
1000
0001
0000
1000
0100
0010
0100
1000
0000
0001
0000
,
0100
0001
0010
0100
1000
0000
0001
0000
0100
0001
0100
0001
1000
0001
1000
0001
,
1000
0100
1000
0100
1000
0001
1000
0000
0001
0000
0010
0000
0100
0000
1000
0000
,
0001
0100
1000
0100
0001
0010
0100
1000
,
0010
0000
0001
0000
0010
0000
1000
0000
0001
0010
0001
0010
0100
0010
0100
0010
,
0100
0000
0000
1000
0000
0000
0100
0000
0000
1000
0000
0000
0001
0000
0000
1000
0000
0000
0001
0000
0000
1000
0000
0000
0020
0000
0000
0000
0000
0000
1000
0000
0030
0000
0000
0000
1000
0000
0000
0010
0000
0000
1000
0000
0000
0010
0000
0000
,
2000
0000
0001
0000
3001
1000
0001
1000
0001
0000
0000
0000
0000
0000
0000
0000
,
0000
0000
0001
0100
0001
0100
1000
0100
,
1000
0100
0001
0010
0001
0010
1000
0010
,
1000
0010
0001
0100
0001
0100
0010
1000
,
0010
1000
0100
1000
0100
1000
0001
0010
,
0001
0010
0200
0000
0000
0000
0000
0000
,
0000
0300
0000
0000
;

//---------------dance-single - xRGTMx----------------
#NOTES:
     dance-single:
     xRGTMx:
     Challenge:
     10:
     0.948,1.000,0.325,0.144,1.000:
0000
0000
0000
0000
,
0000
0000
0000
0000
,
0000
0000
0000
0000
,
0000
0000
0000
0000
,
0200
0000
0000
0000
0000
0000
0010
0310
0000
0000
0000
0000
0100
0000
1000
0010
,
0200
0000
0000
0000
0000
0000
0001
0301
0000
0000
0000
0000
0001
1000
0100
0000
,
0012
0000
0000
0000
0000
0000
1000
1000
0000
0000
0000
0000
1000
0000
1000
1003
,
1001
0000
0000
1000
0010
0000
0110
0000
0000
0100
0001
0000
0011
0000
0000
0001
,
0010
0000
0110
0000
0000
0010
0100
0000
1100
0000
1010
0000
0101
0000
0011
0000
,
1100
0000
0100
0000
0011
0000
0010
0100
1000
0010
0100
0000
0101
0000
0001
1000
,
0100
0000
0010
0000
1100
0000
0010
0001
0100
0010
1000
0000
1001
0000
1000
0001
,
0100
0000
0010
0000
0101
0000
0001
0010
0100
1000
0010
0000
1010
0000
1000
0100
,
0001
0000
0100
0000
1100
0000
1000
0001
0100
0010
0100
0000
1001
0000
0100
0010
,
1000
0000
0001
0000
0011
0000
0010
0100
1000
0001
0100
0000
0101
0000
0100
0010
,
1000
0000
0001
0000
0011
0000
0010
0100
1000
0001
0100
0000
0110
0000
0100
0001
,
1000
0000
0100
0000
0011
0000
0100
1000
0010
0100
0001
0000
1001
0000
0001
0000
,
1000
0100
0010
0001
0100
0010
1000
0100
0010
0001
0100
0010
1000
0100
0010
0001
,
1000
0100
1000
0100
1000
0000
0001
0100
0001
0100
0001
0010
0100
1000
0100
1000
,
0001
0010
0100
1000
0010
0000
0100
0001
1000
0100
1000
0100
1000
0010
0100
0001
,
0100
0001
1000
0001
1000
0000
0001
0100
0010
1000
0010
0100
0001
0010
0100
1000
,
0010
0100
0010
0100
0010
1000
0010
1000
0100
1000
0100
1000
0001
1000
0001
1000
,
0010
0100
0001
0100
0010
0000
0100
0010
1000
0100
1000
0100
0001
0100
0001
0100
,
1000
0100
1000
0100
0010
0000
0100
1000
0010
1000
0001
0010
0001
0010
0001
0100
,
0001
0010
0100
0010
0100
0000
0100
1000
0010
1000
0010
0100
0010
0100
0001
1000
,
0010
1000
0010
0100
0010
1000
0100
1000
0001
0010
0001
1000
0100
0010
0001
1000
,
0100
0010
0100
0010
0002
0000
1003
0100
0010
0100
2000
0000
3010
1000
0100
1000
,
0200
0000
0000
1300
,
1000
0010
1000
0010
2000
0000
3001
0010
0001
0010
0002
0000
1003
0100
0001
0100
,
2000
0000
0000
3001
,
1000
0100
0010
0001
0020
0000
0031
0100
0010
1000
0020
0000
0130
0001
1000
0100
,
0010
0001
0010
0100
0020
0000
0031
0010
0100
0010
0002
0000
1003
0010
0100
0001
,
1000
0100
1000
0100
0020
0000
0130
1000
0001
0100
0002
0000
0103
0001
1000
0100
,
0010
0100
0010
0100
0001
0100
0001
0100
1000
0100
1000
0100
0010
0100
0010
0100
,
1000
0000
0000
0000
0000
0000
0000
0000
0000
0000
1000
0000
0000
1000
0000
0000
1000
0000
0000
0000
1000
0000
0000
0000
0000
0000
0000
0000
0000
0000
0000
0000
,
0000
0000
0000
0000
0000
0000
0010
0010
0000
0000
0000
0000
0000
0000
0000
0000
,
1000
0001
1000
0001
1000
0001
1000
0001
1000
0001
0010
0000
0000
0010
0000
0000
0010
0000
0000
0000
0010
0000
0000
0000
0000
0000
0000
0000
0000
0000
0000
0000
,
0000
0000
0000
0000
0000
0000
0100
0100
0000
0000
0000
0000
0000
0000
0000
0000
,
1100
0000
0000
0000
1010
0000
0101
0000
0011
0000
0000
0000
0000
0000
0000
0110
,
0110
1001
0000
1100
1010
0101
0000
0011
,
1000
0100
1000
0100
0010
0100
0010
0100
1000
0100
1000
0000
0000
0000
0000
0000
1001
0000
0000
0000
0000
0000
0000
0000
0000
0000
0000
0000
0000
0000
0000
0000
,
1000
0100
0000
0010
0100
0000
1000
0010
0000
0100
0010
0000
1000
0100
0000
0010
,
0001
0000
0100
0010
0000
1000
0001
0000
0010
0100
0000
1000
0001
0000
0010
0100
,
1000
0100
0010
0000
0000
0000
0000
0000
0000
0000
0000
0000
0000
0000
0000
0000
0001
0000
0000
0000
0000
0000
0000
0000
0000
0000
0000
0000
0000
0000
0000
0000
,
0000
0000
0000
0000
,
0000
0000
1000
0100
,
0010
0001
1000
0100
,
0010
0000
0000
0000
0001
0000
0000
0000
1000
0100
0010
0100
1000
0000
0001
0100
,
0010
0100
0001
0010
0100
1000
0001
0100
0010
0100
0001
0100
0010
0000
1000
0001
,
0100
0010
1000
0100
0010
0001
1000
0100
0010
0001
0010
0100
1000
0000
0001
0100
,
0001
0100
0001
1000
0100
1000
0100
1000
0001
0100
0010
1000
0100
0010
0001
0010
,
0100
1000
0010
0100
0001
0100
0010
1000
0100
0010
0100
1000
0100
0000
0010
0001
,
0010
0100
0010
0100
0010
0001
0010
0001
0100
0001
0100
0010
0100
0000
0001
0100
,
0010
0100
0001
0010
0100
1000
0001
0100
0010
1000
0010
1000
0100
0000
0100
1000
,
0001
0010
0001
0010
0100
0010
0100
0010
0100
1000
0001
0100
0010
1000
0100
0010
,
0001
1000
0010
0100
0001
0010
0100
1000
0001
0100
0010
0100
0001
0000
1000
0100
,
0010
0100
1000
0010
0100
0001
1000
0100
0010
0100
1000
0100
0010
0000
0001
1000
,
0100
0010
0001
0100
0010
1000
0001
0100
0010
1000
0010
0100
0001
0000
1000
0100
,
1000
0100
1000
0001
0100
0001
0100
0001
1000
0100
0010
0001
0100
0010
1000
0010
,
0100
0001
0010
0100
1000
0100
0010
0001
0100
0000
0010
0000
0001
0000
1000
0000
,
0100
0010
1000
0001
0010
1000
0001
0100
,
1000
0000
0001
0000
0100
0000
0010
0000
1000
0100
0010
0100
1000
0001
0010
0100
,
0010
0001
1000
0010
0100
0010
1000
0001
0010
0100
0010
0001
1000
0100
0010
0100
,
1000
0001
0100
0010
0100
0001
1000
0100
1000
0000
0000
0000
0000
0000
0000
0000
,
0000
0000
1000
0100
1000
0100
0001
0100
,
0001
0100
1000
0010
1000
0010
0001
0010
,
0001
0010
1000
0100
0001
0100
1000
0010
,
0001
0010
1000
0100
0001
0100
1000
0010
,
0001
0010
2000
0000
0000
0000
0000
0000
,
0000
3000
0000
0000
;

//---------------dance-single - xRGTMx----------------
#NOTES:
     dance-single:
     xRGTMx:
     Medium:
     10:
     0.638,0.739,0.226,0.099,0.379:
0000
0000
0000
0000
,
0000
0000
0000
0000
,
0000
0000
0000
0000
,
0000
0000
0000
0000
,
1000
0000
0000
0000
0000
0000
0000
0000
0000
0000
0000
0000
0001
0000
0100
0001
,
1000
0000
0000
0000
0000
0000
0000
0000
0000
0000
0000
0000
0010
1000
0100
0000
,
0001
0000
0000
0000
0000
0000
0000
0000
0000
0000
0000
0000
0100
0000
1000
0010
,
1010
0000
1000
1001
0000
0001
0011
0000
,
0010
0110
0000
0100
1100
1000
0001
1000
,
1000
0000
0100
0000
0010
0000
0001
0010
0001
0000
0100
0000
0010
0000
1000
0000
,
0001
0000
0010
0000
0100
0000
1000
0100
1000
0000
0010
0000
0100
0000
0001
0000
,
1000
0000
0100
0000
0010
0000
0100
1000
0100
0000
1000
0000
0001
0000
0100
0000
,
0010
0000
0100
0000
0001
0000
1000
0001
1000
0000
0001
0000
0010
0000
0100
0000
,
1000
0000
0010
0000
0100
0000
0001
0010
0001
0000
0100
0000
0010
0000
1000
0000
,
0001
0000
0010
0000
0100
0000
1000
0001
1000
0000
0001
0000
0100
0000
0010
0000
,
1000
0000
0010
0000
0100
0000
0001
1000
0001
0000
1000
0000
0100
0000
1000
0000
,
0001
0010
1000
0001
0100
1000
0001
1000
,
0010
0100
0010
0100
0020
0000
0000
0000
1030
0000
0100
0000
0010
0000
0001
0000
,
1000
0001
1000
0001
2000
0000
0000
0000
3001
0000
0010
0000
0100
0000
1000
0000
,
0010
0100
0010
0100
0020
0000
0000
0000
0130
0000
0001
0000
1000
0000
0100
0000
,
0010
0100
0010
0000
0100
0000
1000
0000
0001
1000
0001
0000
1000
0000
0010
0000
,
1000
0001
1000
0001
2000
0000
0000
0000
3100
0000
0010
0000
0001
0000
1000
0000
,
0100
0010
0100
0010
0200
0000
0000
0000
0310
0000
0100
0000
1000
0000
0001
0000
,
1000
0001
1000
0001
2000
0000
0000
0000
3001
0000
0010
0000
0100
0000
1000
0000
,
0001
1000
0001
0000
1000
0000
0100
0000
0010
0100
0010
0000
0100
0000
1000
0000
,
0010
1000
0010
1000
0010
0000
0200
0000
0000
0000
0000
0000
0301
0100
0001
0100
,
0002
0000
0000
1003
,
0100
1000
0100
1000
0100
0000
0020
0000
0000
0000
0000
0000
0031
0010
0001
0010
,
0002
0000
0000
1003
,
0100
1000
0100
0000
1000
0000
0001
1000
0001
0000
0100
0000
0010
0100
0010
0000
,
1000
0010
1000
0000
0001
0000
1000
0001
1000
0000
0100
0000
1000
0100
1000
0000
,
0001
0010
0001
0000
0100
0000
0010
0100
0010
0000
1000
0000
0010
1000
0010
0000
,
1000
0000
0100
0000
0001
0000
0100
0000
1000
0100
1000
0100
0010
0100
0010
0001
,
0010
0000
0000
0000
,
0000
0000
0000
0000
,
0000
0000
0000
0000
,
0000
0000
0000
0000
,
1000
0000
0000
0000
0010
0000
0101
0000
0010
0000
0000
0000
0000
0000
0000
1000
,
0001
0110
0000
1100
1001
0100
0000
0010
,
1001
0000
0000
0101
0000
0000
1100
0000
1001
0000
0000
0000
0000
0000
0000
0000
,
1100
0000
0000
0110
0000
0000
0011
0000
0000
1001
0000
0000
1010
0000
0000
0110
,
0000
0000
0101
0000
0000
1001
0000
0000
1100
0000
0000
0110
0000
0000
0011
0000
,
1001
0000
0010
0000
,
0000
0000
0000
0000
,
0000
0000
0000
0000
,
0000
0000
0000
0000
,
0000
0000
0000
0000
0000
0000
0000
0000
0010
0100
0010
0100
0010
0000
0100
0000
,
0001
0000
1000
0000
0100
0000
0010
0000
0001
1000
0001
1000
0001
0000
1000
0000
,
0100
0000
1000
0000
0010
0000
0100
0000
0001
0010
0001
0010
0100
0000
1000
0000
,
0001
0000
0100
0000
1000
0000
0100
0000
0001
1000
0001
0000
1000
0000
0010
0000
,
0100
0010
0100
0000
0001
0000
1000
0000
0010
0100
0010
0100
0010
0000
0100
0000
,
0001
0000
1000
0000
0100
0000
0010
0000
0001
1000
0001
1000
0001
0000
1000
0000
,
0100
0000
1000
0000
0010
0000
0100
0000
0001
0010
0001
0010
0100
0000
1000
0000
,
0001
0000
0100
0000
1000
0000
0100
0000
0001
1000
0001
0000
1000
0000
0010
0000
,
0100
0010
0100
0000
0001
0000
1000
0000
0100
1000
0100
1000
0100
0000
1000
0000
,
0010
0000
0100
0000
0001
0000
1000
0000
0100
0010
0100
0010
0100
0000
0010
0000
,
0001
0000
0100
0000
0010
0000
1000
0000
0001
1000
0001
1000
0001
0000
1000
0000
,
0100
0000
0010
0000
0100
0000
1000
0000
0001
0100
0001
0000
0100
0000
0010
0000
,
1000
0010
1000
0000
0010
0000
1000
0000
0010
0000
0100
0000
0010
0000
0100
0000
,
0001
1000
0001
1000
0010
0100
0010
0100
,
0001
0000
1000
0000
0001
0000
1000
0000
0100
1000
0100
0000
1000
0000
0001
0000
,
0100
0001
0100
0000
0001
0000
1000
0000
0100
1000
0100
0000
1000
0001
1000
0000
,
0001
0100
0001
0000
1000
0001
1000
0000
0001
0000
0000
0000
0000
0000
0000
0000
,
0000
0000
1000
0100
1000
0100
1000
0100
,
1000
0100
0010
0100
0010
0100
0010
0100
,
0010
0100
0010
0001
0010
0001
0010
0001
,
0010
0001
1000
0001
1000
0001
1000
0001
,
1000
0001
2000
0000
0000
0000
0000
0000
,
0000
3000
0000
0000
;

//---------------dance-single - xRGTMx----------------
#NOTES:
     dance-single:
     xRGTMx:
     Easy:
     9:
     0.390,0.546,0.172,0.018,0.009:
0000
0000
0000
0000
,
0000
0000
0000
0000
,
0000
0000
0000
0000
,
0000
0000
0000
0000
,
1000
0000
0000
0000
0000
0000
0001
1000
,
0001
0000
0000
0100
,
0010
0000
0000
0000
0000
0000
1000
0001
,
1000
0000
0000
0101
0000
0000
1000
0000
,
0000
0011
0000
0000
1000
0000
0001
0000
,
1001
0000
1000
0000
0100
0010
0100
0000
,
1000
0000
0001
0000
0100
0010
0100
0000
,
0001
0000
0010
0000
0100
1000
0100
0000
,
0010
0000
0100
1000
0001
1000
0001
0000
,
1001
0000
1000
0000
0010
0100
0010
0000
,
1000
0000
0001
0000
0010
0100
0010
0000
,
0001
0000
0100
0000
0010
1000
0010
0000
,
0100
0001
0100
0001
1000
0001
1000
0001
,
1000
0100
0010
0000
0100
0000
1000
0001
,
1000
0010
0100
0000
0001
0000
0010
0000
,
0100
1000
0001
0000
0100
0000
0010
0100
,
0001
0000
1000
0100
1000
0001
1000
0000
,
0001
0100
0010
0000
0100
0000
0001
1000
,
0001
0010
0100
0000
1000
0000
0010
0000
,
0100
0001
1000
0000
0100
0000
0010
0100
,
1000
0000
0001
0100
0001
1000
0001
0000
,
1000
0000
0100
0010
0000
0001
1000
0100
,
0020
0000
0000
0031
,
1000
0000
0010
0100
0000
0001
1000
0010
,
0200
0000
0000
0301
,
1000
0000
0100
0010
0000
0001
1000
0010
,
0100
0000
0001
1000
0000
0100
0010
0001
,
1000
0000
0010
0100
0000
0001
0010
0100
,
1000
0001
0110
1001
,
0110
0000
0000
0000
,
0000
0000
0000
0000
,
0000
0000
0000
0000
,
0000
0000
0000
0000
,
1000
0000
0000
0000
0010
0000
0100
0000
0010
0000
0000
0000
0000
0000
0000
1000
,
0001
0010
0000
0100
1000
0001
0000
1000
,
0001
0000
0000
0100
0000
0000
0010
0000
1000
0000
0000
0000
0000
0000
0000
0000
,
1000
0000
0000
0110
0000
0000
0001
0000
,
0000
0110
0000
0000
1000
0000
0001
0000
,
1001
0000
1000
0000
,
0000
0000
0000
0000
,
0000
0000
0000
0000
,
0000
0000
0000
0000
,
0000
0000
0000
0000
1000
0100
1000
0000
,
0100
0000
0010
0001
1000
0100
1000
0000
,
0010
0000
0100
0000
0001
0010
0001
0000
,
0010
0000
0100
0000
1000
0001
1000
0000
,
0001
1000
0001
0000
1000
0010
1000
0000
,
0010
0000
0100
0001
1000
0010
1000
0000
,
0100
0000
0010
0000
0001
0100
0001
0000
,
0100
0000
0010
0000
1000
0001
1000
0000
,
0001
1000
0001
0000
0100
0010
1000
0000
,
0010
0100
0001
1000
0100
0010
0001
0000
,
0010
0100
1000
0001
0100
1000
0100
0000
,
0001
1000
0100
0010
0001
1000
0010
0100
,
0010
1000
0001
0010
0110
0000
1100
0000
,
1001
0101
0110
1010
,
1100
0000
0011
0000
1000
0100
0010
0001
,
1000
0100
0010
0001
1000
0010
0100
0001
,
1000
0010
0100
0001
1001
0000
0000
0000
,
0000
1000
0100
0010
,
0001
0100
0010
1000
,
0100
0010
0001
0100
,
0010
1000
0100
0010
,
0001
1000
0000
0000
;

//---------------dance-single - xRGTMx----------------
#NOTES:
     dance-single:
     xRGTMx:
     Beginner:
     4:
     0.202,0.273,0.090,0.018,0.000: // measure 1
0000
0000
0000
0000
,  // measure 2
0000
0000
0000
0000
,  // measure 3
0000
0000
0000
0000
,  // measure 4
0000
0000
0000
0000
,  // measure 5
1000
0000
0000
0001
,  // measure 6
0001
0000
0000
1000
,  // measure 7
1001
0000
0000
0001
,  // measure 8
1000
0000
0000
1000
0000
0000
1000
0000
,  // measure 9
0000
1000
0000
0000
1000
0000
0000
0000
,  // measure 10
1000
0100
1000
0000
,  // measure 11
1000
0000
1000
0000
,  // measure 12
0001
0100
0001
0000
,  // measure 13
0001
0000
0001
0000
,  // measure 14
1000
0100
0010
0000
,  // measure 15
0001
0000
0001
0000
,  // measure 16
0100
0010
1000
0000
,  // measure 17
0001
0001
0001
0001
,  // measure 18
0001
1000
0001
0000
,  // measure 19
1000
1000
1000
0000
,  // measure 20
0001
1000
0001
0000
,  // measure 21
1000
1000
1000
0000
,  // measure 22
0010
0100
0010
0000
,  // measure 23
0010
0010
0010
0000
,  // measure 24
0100
0010
0100
0000
,  // measure 25
0100
0100
0100
0000
,  // measure 26
1000
0000
0000
1000
0000
0000
1000
0000
,  // measure 27
1000
0000
0000
0000
,  // measure 28
0001
0000
0000
0001
0000
0000
0001
0000
,  // measure 29
0001
0000
0000
0000
,  // measure 30
0100
0000
0000
0100
0000
0000
0100
0000
,  // measure 31
0100
0000
0000
0100
0000
0000
0100
0000
,  // measure 32
0010
0000
0000
0010
0000
0000
0010
0000
,  // measure 33
0010
0010
0010
0010
,  // measure 34
0010
0000
0000
0000
,  // measure 35
0000
0000
0000
0000
,  // measure 36
0000
0000
0000
0000
,  // measure 37
0000
0000
0000
0000
,  // measure 38
1000
1000
1001
0000
,  // measure 39
0001
0001
1001
0000
,  // measure 40
0100
0010
0110
0000
,  // measure 41
1000
0000
0100
0000
,  // measure 42
0010
0000
0001
0000
,  // measure 43
1001
0000
0000
0000
,  // measure 44
0000
0000
0000
0000
,  // measure 45
0000
0000
0000
0000
,  // measure 46
0000
0000
0000
0000
,  // measure 47
0000
0000
1000
1000
,  // measure 48
1000
1000
1000
0000
,  // measure 49
0001
0000
0100
0100
,  // measure 50
0100
0100
0100
0000
,  // measure 51
0010
0000
0100
0001
,  // measure 52
0100
0000
0100
0001
,  // measure 53
0100
0000
0010
0000
,  // measure 54
0110
0000
0110
0000
,  // measure 55
1001
0000
1000
1000
,  // measure 56
1000
0000
0001
0001
,  // measure 57
0001
0000
1000
1000
,  // measure 58
1000
0000
0001
0001
,  // measure 59
0001
0000
0100
0100
,  // measure 60
0100
0100
0100
0100
,  // measure 61
0100
0100
0010
0010
,  // measure 62
0010
0010
1000
1000
,  // measure 63
0001
0001
1001
0000
,  // measure 64
0000
2002
0000
0000
,  // measure 65
0000
0000
0000
0000
,  // measure 66
0000
0000
0000
0000
,  // measure 67
0000
0000
0000
0000
,  // measure 68
0000
3003
0000
0000
;
