#VERSION:0.83;
#TITLE:阿拉伯市場;
#SUBTITLE:;
#ARTIST:鄭希怡;
#TITLETRANSLIT:Arabian Market;
#SUBTITLETRANSLIT:;
#ARTISTTRANSLIT:Yumiko Cheng;
#GENRE:Pop;
#ORIGIN:;
#CREDIT:chewmino;
#BANNER:Arabian Market.png;
#BACKGROUND:Arabian Market-bg.png;
#PREVIEWVID:;
#JACKET:Arabian Market-jacket.png;
#CDIMAGE:;
#DISCIMAGE:;
#LYRICSPATH:;
#CDTITLE:cdtitle.png;
#MUSIC:Arabian Market.ogg;
#OFFSET:-0.199000;
#SAMPLESTART:38.006001;
#SAMPLELENGTH:15.000000;
#SELECTABLE:YES;
#BPMS:0.000=123.000;
#STOPS:;
#DELAYS:;
#WARPS:;
#TIMESIGNATURES:0.000=4=4;
#TICKCOUNTS:0.000=4;
#COMBOS:0.000=1;
#SPEEDS:0.000=1.000=0.000=0;
#SCROLLS:0.000=1.000;
#FAKES:;
#LABELS:0.000=Song Start;
#BGCHANGES:0.000=Arabian Market.mp4=1.000=1=0=1===CrossFade==,
190.500=Arabian Market-bg.png=1.000=1=0=1===CrossFade==,
99999=-nosongbg-=1.000=0=0=0 // don't automatically add -songbackground-
;
#KEYSOUNDS:;
#ATTACKS:
;

//---------------dance-single - ----------------
#NOTEDATA:;
#CHARTNAME:;
#STEPSTYPE:dance-single;
#DESCRIPTION:;
#CHARTSTYLE:;
#DIFFICULTY:Medium;
#METER:6;
#RADARVALUES:0.287063,0.394562,0.156988,0.073261,0.000000,192.000000,177.000000,15.000000,7.000000,0.000000,0.000000,0.000000,0.000000,0.000000,0.287063,0.394562,0.156988,0.073261,0.000000,192.000000,177.000000,15.000000,7.000000,0.000000,0.000000,0.000000,0.000000,0.000000;
#CREDIT:;
#NOTES:
// measure 0
0000
0000
0000
0000
,  // measure 1
0000
0000
0000
0000
,  // measure 2
0000
0000
0000
0000
,  // measure 3
0000
0000
0000
0000
,  // measure 4
1000
0100
1000
0100
,  // measure 5
0010
0100
0010
0001
,  // measure 6
0010
0000
0000
0010
0100
0000
1000
0000
,  // measure 7
0010
0000
0000
0010
0100
0000
0001
0000
,  // measure 8
1000
0010
1000
0010
,  // measure 9
0100
0010
0100
0001
,  // measure 10
0100
0000
0000
0001
1000
0000
0100
0000
,  // measure 11
0010
0000
0000
0001
1000
0000
2001
0000
,  // measure 12
3100
0000
0010
0001
,  // measure 13
0001
0100
0001
0100
0001
0000
1000
0000
,  // measure 14
0010
0000
1000
0001
,  // measure 15
0010
0100
0010
0100
0010
0000
0012
0000
,  // measure 16
1003
0000
0010
1000
,  // measure 17
0001
1000
0001
1000
0001
0000
0000
0000
,  // measure 18
0010
0100
0010
0100
0010
0000
0001
0000
,  // measure 19
1001
1001
1001
1001
,  // measure 20
1001
0000
0010
0010
,  // measure 21
1000
0100
1000
0100
1000
0000
0002
0000
,  // measure 22
0013
0000
0100
0100
,  // measure 23
1000
0001
1000
0001
1000
0000
0020
0000
,  // measure 24
0130
0000
0010
0010
,  // measure 25
0100
0001
0100
0001
0100
0000
0000
0000
,  // measure 26
0001
0100
0001
0100
0001
0000
1000
0000
,  // measure 27
0010
0000
0000
0210
,  // measure 28
0302
2000
0000
0000
,  // measure 29
3003
0000
0000
0000
,  // measure 30
0010
0000
0000
0000
,  // measure 31
0010
0010
0010
0010
,  // measure 32
1001
0000
0100
0100
,  // measure 33
0010
0001
0010
0100
1000
0000
0000
0000
,  // measure 34
1001
0000
0010
0010
,  // measure 35
1000
0010
0100
0001
1000
0000
0000
0000
,  // measure 36
0011
0000
0100
0100
,  // measure 37
0010
0001
0010
0100
1000
0000
0000
0000
,  // measure 38
0010
0001
0010
0100
1000
0000
0001
0000
,  // measure 39
0100
0001
0100
0010
1000
0000
0001
0000
,  // measure 40
0011
0000
0100
0100
,  // measure 41
0010
0010
0001
0001
1000
0000
0000
0000
,  // measure 42
1010
0000
0010
0010
,  // measure 43
0100
0100
0001
0001
1000
0000
0000
0000
,  // measure 44
1001
0000
0010
0010
,  // measure 45
0001
0001
0100
0100
0010
0000
0000
0000
,  // measure 46
0001
0001
0100
0100
0010
0000
1000
0000
,  // measure 47
0100
1001
0000
0000
0000
0000
0000
0000
;

//---------------dance-single - ----------------
#NOTEDATA:;
#CHARTNAME:;
#STEPSTYPE:dance-single;
#DESCRIPTION:;
#CHARTSTYLE:;
#DIFFICULTY:Hard;
#METER:9;
#RADARVALUES:0.355838,0.398748,0.167453,0.167453,0.000000,238.000000,222.000000,16.000000,16.000000,0.000000,0.000000,0.000000,0.000000,0.000000,0.355838,0.398748,0.167453,0.167453,0.000000,238.000000,222.000000,16.000000,16.000000,0.000000,0.000000,0.000000,0.000000,0.000000;
#CREDIT:;
#NOTES:
// measure 0
0000
0000
0000
0000
,  // measure 1
0000
0000
0000
0000
,  // measure 2
0000
0000
0000
0000
,  // measure 3
0000
0000
0000
0000
,  // measure 4
2000
0000
3010
0100
0010
0000
2000
0000
,  // measure 5
3010
0100
0010
0000
1000
0001
0100
0010
,  // measure 6
0010
0010
0100
0000
,  // measure 7
0001
0001
1000
1000
,  // measure 8
0002
0000
0013
0100
0010
0000
0002
0000
,  // measure 9
0013
0100
0010
0000
0001
1000
0010
0100
,  // measure 10
0100
0100
0010
0000
,  // measure 11
0010
0010
1000
2000
,  // measure 12
3001
0000
0000
1000
0010
0010
0100
0100
,  // measure 13
0010
0010
1000
1000
0001
0000
0001
0000
,  // measure 14
0010
0000
0000
0001
0010
0010
0100
0100
,  // measure 15
0010
0010
0001
0001
1000
1010
2010
0000
,  // measure 16
3001
0000
0000
0010
0100
0100
1000
1000
,  // measure 17
0010
0010
0100
0100
0001
0000
0000
0000
,  // measure 18
1000
0100
1000
0001
0010
0000
0100
0000
,  // measure 19
0110
0110
0110
0110
,  // measure 20
1001
0000
0000
0000
1000
0100
1000
0000
,  // measure 21
0010
0000
0100
0001
0100
0000
0020
0000
,  // measure 22
1030
0000
0000
0000
0001
0010
0001
0000
,  // measure 23
1000
0000
0010
0100
0010
0000
2000
0000
,  // measure 24
3100
0000
0000
0000
0010
0001
0010
0000
,  // measure 25
0100
0000
1000
0001
1000
0000
0210
0000
,  // measure 26
0301
0000
1000
0100
1000
0000
0010
0000
,  // measure 27
0100
0000
0000
0102
,  // measure 28
1003
0001
0000
0001
,  // measure 29
0000
0100
0000
0100
,  // measure 30
0000
1000
0000
1000
,  // measure 31
0010
0001
0100
1000
,  // measure 32
0200
0000
0301
0000
1000
0100
0010
0000
,  // measure 33
0001
0100
0010
1000
0001
0000
1001
0000
,  // measure 34
0200
0000
0310
0000
0001
0010
0100
0000
,  // measure 35
1000
0010
0100
0001
1000
0000
1001
0000
,  // measure 36
0002
0000
1003
0000
0100
0010
0100
0000
,  // measure 37
1000
0010
0100
0001
0100
0000
0101
0000
,  // measure 38
0010
0100
0001
1000
0100
0010
0001
0000
,  // measure 39
0100
0001
1000
0010
0100
0010
1000
0000
,  // measure 40
0002
0000
1003
0000
0001
0010
0100
0000
,  // measure 41
1000
0010
0100
0001
1000
0000
1001
0000
,  // measure 42
0020
0000
0130
0000
1000
0100
0010
0000
,  // measure 43
0001
0100
0010
1000
0001
0000
1001
0000
,  // measure 44
2000
0000
3001
0000
0010
0100
0010
0000
,  // measure 45
0001
0100
0010
1000
0010
0000
1010
0000
,  // measure 46
0100
0010
1000
0001
0010
0100
1000
0000
,  // measure 47
0010
1000
0001
0100
0010
0110
0000
0000
;

//---------------dance-single - ----------------
#NOTEDATA:;
#CHARTNAME:;
#STEPSTYPE:dance-single;
#DESCRIPTION:;
#CHARTSTYLE:;
#DIFFICULTY:Easy;
#METER:4;
#RADARVALUES:0.155492,0.173994,0.031398,0.083727,0.000000,104.000000,101.000000,3.000000,8.000000,0.000000,0.000000,0.000000,0.000000,0.000000,0.155492,0.173994,0.031398,0.083727,0.000000,104.000000,101.000000,3.000000,8.000000,0.000000,0.000000,0.000000,0.000000,0.000000;
#CREDIT:;
#NOTES:
// measure 0
0000
0000
0000
0000
,  // measure 1
0000
0000
0000
0000
,  // measure 2
0000
0000
0000
0000
,  // measure 3
0000
0000
0000
0000
,  // measure 4
1000
0000
0010
0000
,  // measure 5
1000
0000
0010
0000
,  // measure 6
1000
0010
1000
0000
,  // measure 7
0010
1000
0010
0000
,  // measure 8
0001
0000
0010
0000
,  // measure 9
0001
0000
0010
0000
,  // measure 10
0001
0010
0001
0000
,  // measure 11
0010
0001
0010
0000
,  // measure 12
0001
0000
0010
0000
,  // measure 13
0100
0100
0100
0000
,  // measure 14
1000
0000
0010
0000
,  // measure 15
0100
0100
0100
0000
,  // measure 16
0001
0000
1000
0000
,  // measure 17
0001
1000
0001
0000
,  // measure 18
1000
0000
0001
0000
,  // measure 19
1000
0001
1000
1000
,  // measure 20
0020
0000
0000
0030
,  // measure 21
0010
0100
0010
0000
,  // measure 22
0200
0000
0000
0300
,  // measure 23
0100
0010
0100
0000
,  // measure 24
0002
0000
0000
0003
,  // measure 25
1000
0001
1000
0000
,  // measure 26
2000
0000
0000
3000
,  // measure 27
0001
1000
0001
0000
,  // measure 28
1001
0000
0000
0000
,  // measure 29
0100
0100
0100
0000
,  // measure 30
0110
0000
0000
0000
,  // measure 31
0010
0010
0010
0000
,  // measure 32
0200
0000
0000
0300
,  // measure 33
0100
0010
0100
0000
,  // measure 34
0020
0000
0000
0030
,  // measure 35
0010
0100
0010
0000
,  // measure 36
2000
0000
0000
3000
,  // measure 37
0001
1000
0001
0000
,  // measure 38
0002
0000
0000
0003
,  // measure 39
1000
0001
1000
0000
,  // measure 40
1001
1000
0000
0010
,  // measure 41
0000
1000
1000
1000
,  // measure 42
0000
0001
0000
0010
,  // measure 43
0000
0001
0001
0001
,  // measure 44
0000
1000
0000
0100
,  // measure 45
0000
1000
1000
1000
,  // measure 46
0000
0001
0000
0100
,  // measure 47
0000
0001
0001
0000
;

//---------------dance-single - ----------------
#NOTEDATA:;
#CHARTNAME:;
#STEPSTYPE:dance-single;
#DESCRIPTION:;
#CHARTSTYLE:;
#DIFFICULTY:Beginner;
#METER:2;
#RADARVALUES:0.094193,0.124282,0.041863,0.125590,0.000000,63.000000,59.000000,4.000000,12.000000,0.000000,0.000000,0.000000,0.000000,0.000000,0.094193,0.124282,0.041863,0.125590,0.000000,63.000000,59.000000,4.000000,12.000000,0.000000,0.000000,0.000000,0.000000,0.000000;
#CREDIT:;
#NOTES:
// measure 0
0000
0000
0000
0000
,  // measure 1
0000
0000
0000
0000
,  // measure 2
0000
0000
0000
0000
,  // measure 3
0000
0000
0000
0000
,  // measure 4
0010
0000
0000
0010
,  // measure 5
0000
0000
0010
0010
,  // measure 6
0010
0000
0000
0000
,  // measure 7
0000
0000
0000
0000
,  // measure 8
0100
0000
0000
0100
,  // measure 9
0000
0000
0100
0100
,  // measure 10
0100
0000
0000
0000
,  // measure 11
1000
0000
0000
0000
,  // measure 12
1001
0000
0000
0000
,  // measure 13
1000
0000
0000
0000
,  // measure 14
0001
0000
0000
0000
,  // measure 15
1000
0000
0000
0000
,  // measure 16
0110
0000
0000
0000
,  // measure 17
0010
0000
0000
0000
,  // measure 18
0100
0000
0000
0000
,  // measure 19
0010
0000
0000
0000
,  // measure 20
2000
0000
0000
3000
,  // measure 21
1000
0000
1000
0000
,  // measure 22
0002
0000
0000
0003
,  // measure 23
0001
0000
0001
0000
,  // measure 24
0020
0000
0000
0030
,  // measure 25
0010
0000
0010
0000
,  // measure 26
0200
0000
0000
0300
,  // measure 27
0100
0000
0100
0000
,  // measure 28
0110
0000
0000
0000
,  // measure 29
0000
0000
0000
0000
,  // measure 30
1001
0000
0000
0000
,  // measure 31
1000
0000
0001
0000
,  // measure 32
2000
0000
0000
3000
,  // measure 33
1000
0000
1000
0000
,  // measure 34
0002
0000
0000
0003
,  // measure 35
0001
0000
0001
0000
,  // measure 36
0020
0000
0000
0030
,  // measure 37
0010
0000
0010
0000
,  // measure 38
0200
0000
0000
0300
,  // measure 39
0100
0000
0100
0000
,  // measure 40
0200
0000
0000
0300
,  // measure 41
0100
0000
0100
0000
,  // measure 42
0020
0000
0000
0030
,  // measure 43
0010
0000
0010
0000
,  // measure 44
0002
0000
0000
0003
,  // measure 45
0001
0000
0001
0000
,  // measure 46
2000
0000
0000
3000
,  // measure 47
1000
0000
1000
0000
;
