#VERSION:0.83;
#TITLE:あの夏へ;
#SUBTITLE:;
#ARTIST:zaki;
#TITLETRANSLIT:Ano Natsu e;
#SUBTITLETRANSLIT:;
#ARTISTTRANSLIT:;
#GENRE:Pop;
#ORIGIN:;
#CREDIT:chewi;
#BANNER:Ano Natsu e.png;
#BACKGROUND:Ano Natsu e-bg.png;
#PREVIEWVID:;
#JACKET:Ano Natsu e-jacket.png;
#CDIMAGE:;
#DISCIMAGE:;
#LYRICSPATH:;
#CDTITLE:cdtitle.png;
#MUSIC:Ano Natsu e.ogg;
#OFFSET:-0.521000;
#SAMPLESTART:36.984001;
#SAMPLELENGTH:15.000000;
#SELECTABLE:YES;
#DISPLAYBPM:130.000000;
#BPMS:0.000=130.000;
#STOPS:;
#DELAYS:;
#WARPS:;
#TIMESIGNATURES:0.000=4=4;
#TICKCOUNTS:0.000=4;
#COMBOS:0.000=1;
#SPEEDS:0.000=1.000=0.000=0;
#SCROLLS:0.000=1.000;
#FAKES:;
#LABELS:0.000=Song Start;
#BGCHANGES:;
#KEYSOUNDS:;
#ATTACKS:
;

//---------------dance-single - ----------------
#NOTEDATA:;
#CHARTNAME:;
#STEPSTYPE:dance-single;
#DESCRIPTION:;
#CHARTSTYLE:;
#DIFFICULTY:Beginner;
#METER:2;
#RADARVALUES:0.069093,0.153888,0.051296,0.043968,0.000000,66.000000,59.000000,7.000000,6.000000,0.000000,0.000000,0.000000,0.000000,0.000000,0.069093,0.153888,0.051296,0.043968,0.000000,66.000000,59.000000,7.000000,6.000000,0.000000,0.000000,0.000000,0.000000,0.000000;
#CREDIT:;
#DISPLAYBPM:128.000000;
#NOTES:
// measure 0
0000
0000
0000
0000
,  // measure 1
0000
0000
0000
0000
,  // measure 2
0000
0000
0000
0000
,  // measure 3
0000
0000
0000
0000
,  // measure 4
0010
0000
0000
0000
,  // measure 5
0010
0000
0000
0000
,  // measure 6
0100
0000
0000
0000
,  // measure 7
0100
0000
0000
0000
,  // measure 8
0020
0000
0000
0000
,  // measure 9
0000
0000
0000
0030
,  // measure 10
0020
0000
0000
0000
,  // measure 11
0000
0000
0000
0030
,  // measure 12
0010
0000
0000
0000
,  // measure 13
1000
0000
0000
0000
,  // measure 14
0010
0000
0000
0000
,  // measure 15
1000
0000
0000
0000
,  // measure 16
0100
0000
0000
0000
,  // measure 17
0010
0000
0000
0000
,  // measure 18
0100
0000
0000
0000
,  // measure 19
0010
0000
0000
0000
,  // measure 20
0001
0000
0000
0000
,  // measure 21
0001
0000
0000
0000
,  // measure 22
1000
0000
0000
0000
,  // measure 23
1000
0000
0000
0000
,  // measure 24
0001
0000
0000
0000
,  // measure 25
0001
0000
0000
0000
,  // measure 26
0100
0000
0000
0000
,  // measure 27
0100
0000
0000
0000
,  // measure 28
0010
0000
0000
0000
,  // measure 29
0010
0000
0000
0000
,  // measure 30
1000
0000
0000
0000
,  // measure 31
1000
0000
0000
0000
,  // measure 32
2000
0000
0000
0000
,  // measure 33
0000
0000
0000
3000
,  // measure 34
2000
0000
0000
0000
,  // measure 35
0000
0000
0000
3000
,  // measure 36
0002
0000
0000
0000
,  // measure 37
0000
0000
0000
0003
,  // measure 38
0002
0000
0000
0000
,  // measure 39
0000
0000
0000
0003
,  // measure 40
0001
0000
0000
0000
,  // measure 41
0000
0000
0000
0000
,  // measure 42
1000
0000
0000
0000
,  // measure 43
0000
0000
0000
0000
,  // measure 44
1001
0000
0000
0000
,  // measure 45
0100
0000
0000
0000
,  // measure 46
0100
0000
0000
0000
,  // measure 47
0100
0000
0000
0000
,  // measure 48
1001
0000
0000
0000
,  // measure 49
0010
0000
0000
0000
,  // measure 50
0010
0000
0000
0000
,  // measure 51
0010
0000
0000
0000
,  // measure 52
0110
0000
0000
0000
,  // measure 53
1000
0000
0000
0000
,  // measure 54
0001
0000
0000
0000
,  // measure 55
1000
0000
0000
0000
,  // measure 56
0110
0000
0000
0000
,  // measure 57
0001
0000
0000
0000
,  // measure 58
1000
0000
0000
0000
,  // measure 59
0001
0000
0000
0000
,  // measure 60
1001
0000
0000
0000
,  // measure 61
1001
0000
0000
0000
,  // measure 62
1001
0000
0000
0000
,  // measure 63
0100
0000
0000
0000
,  // measure 64
0100
0000
0000
0000
,  // measure 65
0100
0000
0000
0000
,  // measure 66
0100
0000
0000
0000
,  // measure 67
0010
0000
0000
0000
,  // measure 68
0010
0000
0000
0000
,  // measure 69
0010
0000
0000
0000
,  // measure 70
0010
0000
0000
0000
;

//---------------dance-single - ----------------
#NOTEDATA:;
#CHARTNAME:;
#STEPSTYPE:dance-single;
#DESCRIPTION:;
#CHARTSTYLE:;
#DIFFICULTY:Easy;
#METER:4;
#RADARVALUES:0.176919,0.260144,0.014656,0.087936,0.000000,169.000000,167.000000,2.000000,12.000000,0.000000,0.000000,0.000000,0.000000,0.000000,0.176919,0.260144,0.014656,0.087936,0.000000,169.000000,167.000000,2.000000,12.000000,0.000000,0.000000,0.000000,0.000000,0.000000;
#CREDIT:;
#DISPLAYBPM:128.000000;
#NOTES:
0000
0000
0000
0000
,
0000
0000
0000
0000
,
0000
0000
0000
0000
,
0000
0000
0000
0000
,
0000
1000
1000
1000
,
1000
1000
0000
0000
,
0000
0001
0001
0001
,
0001
0001
0000
0000
,
0200
0000
0000
0300
,
0020
0000
0000
0030
,
0200
0000
0000
0300
,
0020
0000
0000
0030
,
0010
0010
0010
0010
,
0010
0010
0000
0000
,
1000
1000
1000
1000
,
1000
1000
0000
0000
,
0100
0100
0100
0100
,
0100
0100
0100
0000
,
0001
0001
0001
0001
,
0001
0001
0001
0000
,
0020
0000
0000
0030
,
0020
0000
0000
0030
,
0010
0010
0010
0000
,
0100
0010
0100
0000
,
0200
0000
0000
0300
,
0200
0000
0000
0300
,
0100
0100
0100
0000
,
0100
0010
1000
0000
,
0002
0000
0000
0003
,
2000
0000
0000
3000
,
0002
0000
0000
0003
,
1000
1000
1000
1000
,
1000
0000
0100
0000
,
0100
0000
0010
0000
,
0001
0000
0001
0000
,
0100
0000
0010
0000
,
0010
0010
0010
0010
,
0010
0010
0010
0010
,
0100
0100
0100
0100
,
0100
0100
0100
0100
,
0110
0000
0000
0000
,
0000
0000
0000
0000
,
1001
0000
0000
0000
,
0000
0000
0000
0000
,
1000
1000
1000
1000
,
1000
1000
0000
0000
,
0100
0100
0100
0100
,
0100
0100
0000
0000
,
0010
0000
0010
0000
,
0010
0000
0010
0000
,
0001
0000
0001
0000
,
0001
0000
0001
0000
,
0001
0001
0001
0001
,
0001
0001
0001
0000
,
0010
0010
0010
0010
,
0010
0010
0010
0000
,
0100
0100
0100
0100
,
0100
0100
0100
0000
,
1000
1000
1000
1000
,
1000
1000
1000
0000
,
1000
0000
0000
0001
,
1000
0000
0000
0001
,
1000
0000
0000
1000
,
0001
0001
0001
0000
,
1000
1000
1000
0000
,
0010
0010
0010
0000
,
0100
0100
0100
0000
,
0001
0001
0001
0000
,
0010
0010
0010
0000
,
0100
0100
0100
0000
,
1000
1000
2000
0000
,
3000
0000
0000
0000
;

//---------------dance-single - ----------------
#NOTEDATA:;
#CHARTNAME:;
#STEPSTYPE:dance-single;
#DESCRIPTION:;
#CHARTSTYLE:;
#DIFFICULTY:Medium;
#METER:7;
#RADARVALUES:0.228215,0.309425,0.087936,0.161216,0.000000,218.000000,206.000000,12.000000,22.000000,0.000000,0.000000,0.000000,0.000000,0.000000,0.228215,0.309425,0.087936,0.161216,0.000000,218.000000,206.000000,12.000000,22.000000,0.000000,0.000000,0.000000,0.000000,0.000000;
#CREDIT:;
#DISPLAYBPM:128.000000;
#NOTES:
0000
0000
0000
0000
,
0000
0000
0000
0000
,
0000
0000
0000
0000
,
0000
0000
0000
0000
,
0000
0001
0100
1000
,
0010
0001
0100
0000
,
0000
1000
0010
0001
,
0100
1000
0010
0000
,
0020
0000
0000
0000
,
0230
0000
0000
0000
,
2300
0000
0000
0000
,
3002
0000
0100
0103
,
0100
0010
1000
0001
,
1000
0001
1000
0000
0000
0000
0000
0000
,
0001
1000
0100
0010
,
0001
0010
0001
0000
0000
0000
0000
0000
,
0020
0100
0000
0100
,
0230
0010
0000
0010
,
0320
0001
0000
0001
,
0032
1000
0000
1000
,
1003
0010
0100
0001
,
1000
0010
0100
0001
,
1000
0100
0010
0001
,
1000
0100
0010
0001
,
0100
0010
1000
0001
,
0100
0010
1000
0001
,
1000
0010
0100
0001
,
1000
0010
0100
0001
,
2001
0000
0000
3001
,
1002
0000
0000
1003
,
0120
0000
0000
0130
,
0210
0000
0000
0310
,
0010
0010
0010
0010
,
1000
1100
0001
0101
,
1000
1000
1000
1000
,
0001
0011
1000
1010
,
0010
0010
0010
0010
,
0100
0100
0100
0100
,
0001
0001
0001
0001
,
1000
1000
1000
1000
,
0002
0000
0000
0000
,
0000
0000
0000
0003
,
2000
0000
0000
0000
,
0000
0000
0000
3000
,
0010
0100
0001
1000
,
0001
1000
0001
0000
0000
0000
0000
0000
,
1000
0001
0010
0100
,
1000
0100
1000
0000
0000
0000
0000
0000
,
0200
0010
0000
0010
,
0320
0100
0000
0100
,
0230
1000
0000
1000
,
2300
0001
0000
0001
,
3001
0100
0010
1000
,
0001
0100
0010
1000
,
0001
0010
0100
1000
,
0001
0010
0100
1000
,
0010
0100
0001
1000
,
0010
0100
0001
1000
,
0001
0100
0010
1000
,
0001
0100
0010
1000
,
1002
0000
0000
1003
,
2001
0000
0000
3001
,
2002
0000
3003
1001
,
0001
0000
0001
0001
0000
0000
0000
0000
,
1000
0000
1000
1000
0000
0000
0000
0000
,
0100
0000
0100
0100
0000
0000
0000
0000
,
0010
0000
0010
0010
0000
0000
0000
0000
,
0001
0000
0001
0001
0000
0000
0000
0000
,
1000
0000
1000
1000
0000
0000
0000
0000
,
0001
0000
0001
0001
0000
0000
0000
0000
,
0100
0000
0100
0100
0000
0000
0000
0000
;

//---------------dance-single - ----------------
#NOTEDATA:;
#CHARTNAME:;
#STEPSTYPE:dance-single;
#DESCRIPTION:;
#CHARTSTYLE:;
#DIFFICULTY:Hard;
#METER:10;
#RADARVALUES:0.348603,0.442244,0.043968,0.212512,0.164880,333.000000,327.000000,6.000000,29.000000,0.000000,0.000000,0.000000,0.000000,0.000000,0.348603,0.442244,0.043968,0.212512,0.164880,333.000000,327.000000,6.000000,29.000000,0.000000,0.000000,0.000000,0.000000,0.000000;
#CREDIT:;
#DISPLAYBPM:128.000000;
#NOTES:
0000
0000
0000
0000
,
0000
0000
0000
0000
,
0000
0000
0000
0000
,
0000
0000
0000
0000
,
0000
0000
1000
0100
1000
0100
0010
0001
,
0010
0001
0000
0010
0000
0000
0000
0000
,
0000
0000
0001
0010
0001
0010
0100
1000
,
0100
1000
1000
0100
0000
0000
0000
0000
,
2000
0000
3020
0000
,
0032
0000
0203
0000
,
2300
0000
3200
0000
,
0302
0000
0203
0320
,
0031
0010
0100
1000
0001
0010
0100
1000
,
0001
0000
1000
0001
0000
0000
0000
0000
0000
0000
0000
0000
1000
0000
1000
0000
,
1000
0010
0100
0001
1000
0010
0100
0001
,
1000
0000
0001
1000
0000
0000
0000
0000
0000
0000
0000
0000
0000
0000
0000
0000
,
0020
0000
0100
0000
0100
0100
0130
0000
,
0200
0000
0010
0000
0010
0010
0310
0000
,
0020
0000
1000
0000
1000
1000
1030
0000
,
2000
0000
0001
0000
0001
0001
3001
0000
,
0010
0000
0100
0000
0001
0000
1000
0100
0000
0000
0000
0000
0010
0000
0100
0000
,
1000
0000
0001
0000
0010
0100
0000
1000
0000
0000
0000
0000
0000
0000
0000
0000
,
1000
0000
0010
0000
0100
0001
0000
1000
0000
0000
0000
0000
0001
0000
0100
0000
,
0010
0000
1000
0000
0001
0000
0010
0100
0000
0000
0000
0000
1000
0000
0010
0000
,
1000
0000
0100
0000
0010
0000
0001
0100
0000
0000
0000
0000
0001
0000
0010
0000
,
0100
0000
1000
0000
0001
1000
0000
0100
0000
0000
0000
0000
0000
0000
0000
0000
,
1000
0000
0001
0000
0100
0010
0000
1000
0000
0000
0000
0000
0001
0000
0100
0000
,
0010
0000
0000
0100
0000
0000
0001
0000
0000
0010
0000
0000
0100
0000
0000
0000
0000
0000
1000
0000
0100
0000
1000
0000
,
0100
0000
0010
0000
0011
0000
0001
0100
,
0100
0000
0010
0000
1010
0000
1000
0100
,
0020
0001
0100
0031
,
0010
0100
0010
0100
0010
0100
0010
0100
,
0010
0010
0010
0000
0001
0001
0001
0000
,
1000
0100
0010
0001
1000
0100
1100
0000
,
1000
1000
1000
0000
0001
0001
0001
0000
,
1000
0010
0100
0001
0001
0010
0011
0000
,
0001
0000
0000
0001
0010
0000
0000
0010
0100
0000
0000
0100
1000
0000
0000
1000
,
0001
0000
0000
0001
0100
0000
0000
0100
0010
0000
0000
0010
1000
0000
0000
1000
,
0001
0000
0000
0001
0100
0000
0000
0100
0010
0000
0000
0010
1000
0000
0000
1000
,
0001
0000
0000
0001
1000
0000
0000
1000
0100
0000
0000
0100
0010
0000
0000
0000
,
0002
0000
0000
0000
,
0000
0000
0000
0003
,
2000
0000
0000
0000
,
0000
0000
0001
3001
,
1000
0100
0010
0001
1000
0100
0010
0001
,
1000
0000
0001
1000
0000
0000
0000
0000
0000
0000
0000
0000
0001
0000
0001
0000
,
0001
0100
0010
1000
0001
0100
0010
1000
,
0001
0000
1000
0001
0000
0000
0000
0000
0000
0000
0000
0000
0000
0000
0000
0000
,
0200
0000
0010
0000
0010
0010
0310
0000
,
0020
0000
0100
0000
0100
0100
0130
0000
,
0200
0000
0001
0000
0001
0001
0301
0000
,
0002
0000
1000
0000
1000
1000
1003
0000
,
0001
0000
1000
0000
0100
0000
0010
0001
0000
0000
0000
0000
0001
0000
1000
0000
,
0010
0000
0100
0000
0001
1000
0000
0010
0000
0000
0000
0000
0000
0000
0000
0000
,
0010
0000
1000
0000
0001
0100
0000
0010
0000
0000
0000
0000
0100
0000
0001
0000
,
0010
0000
0100
0000
1000
0000
0001
1000
0000
0000
0000
0000
1000
0000
0100
0000
,
0010
0000
0001
0000
1000
0000
0100
1000
0000
0000
0000
0000
0100
0000
1000
0000
,
0001
0000
0010
0000
0100
0010
0000
0001
0000
0000
0000
0000
0000
0000
0000
0000
,
0010
0000
0001
0000
1000
0001
0000
0100
0000
0000
0000
0000
0100
0000
0010
0000
,
1000
0000
0000
0001
0000
0000
0100
0000
0000
0001
0000
0000
1000
0000
0000
0000
0000
0000
0010
0000
1000
0000
0010
0000
,
1000
0000
0001
0000
0101
0000
0100
1000
,
0010
0000
0001
0000
0011
0000
0010
0100
,
2000
0001
0010
3001
,
0002
0000
0000
0000
,
2003
0000
0000
0000
,
3200
0000
0000
0000
,
0320
0000
0000
0000
,
0032
0000
0000
0000
,
0023
0000
0000
0000
,
0230
0000
0000
0000
,
2300
0000
0000
0000
,
3000
0000
0000
0000
;
